<?xml version="1.0" standalone="no"?>
<!DOCTYPE svg PUBLIC "-//W3C//DTD SVG 1.1//EN" "http://www.w3.org/Graphics/SVG/1.1/DTD/svg11.dtd" >
<svg xmlns="http://www.w3.org/2000/svg">
<metadata>Generated by IcoMoon</metadata>
<defs>
<font id="icomoon" horiz-adv-x="1024">
<font-face units-per-em="1024" ascent="960" descent="-64" />
<missing-glyph horiz-adv-x="1024" />
<glyph unicode="&#x20;" horiz-adv-x="512" d="" />
<glyph unicode="&#xe900;" glyph-name="instagram, brand, social" d="M512 867.8c136.8 0 153-0.6 206.8-3 50-2.2 77-10.6 95-17.6 23.8-9.2 41-20.4 58.8-38.2 18-18 29-35 38.4-58.8 7-18 15.4-45.2 17.6-95 2.4-54 3-70.2 3-206.8s-0.6-153-3-206.8c-2.2-50-10.6-77-17.6-95-9.2-23.8-20.4-41-38.2-58.8-18-18-35-29-58.8-38.4-18-7-45.2-15.4-95-17.6-54-2.4-70.2-3-206.8-3s-153 0.6-206.8 3c-50 2.2-77 10.6-95 17.6-23.8 9.2-41 20.4-58.8 38.2-18 18-29 35-38.4 58.8-7 18-15.4 45.2-17.6 95-2.4 54-3 70.2-3 206.8s0.6 153 3 206.8c2.2 50 10.6 77 17.6 95 9.2 23.8 20.4 41 38.2 58.8 18 18 35 29 58.8 38.4 18 7 45.2 15.4 95 17.6 53.8 2.4 70 3 206.8 3zM512 960c-139 0-156.4-0.6-211-3-54.4-2.4-91.8-11.2-124.2-23.8-33.8-13.2-62.4-30.6-90.8-59.2-28.6-28.4-46-57-59.2-90.6-12.6-32.6-21.4-69.8-23.8-124.2-2.4-54.8-3-72.2-3-211.2s0.6-156.4 3-211c2.4-54.4 11.2-91.8 23.8-124.2 13.2-33.8 30.6-62.4 59.2-90.8 28.4-28.4 57-46 90.6-59 32.6-12.6 69.8-21.4 124.2-23.8 54.6-2.4 72-3 211-3s156.4 0.6 211 3c54.4 2.4 91.8 11.2 124.2 23.8 33.6 13 62.2 30.6 90.6 59s46 57 59 90.6c12.6 32.6 21.4 69.8 23.8 124.2 2.4 54.6 3 72 3 211s-0.6 156.4-3 211c-2.4 54.4-11.2 91.8-23.8 124.2-12.6 34-30 62.6-58.6 91-28.4 28.4-57 46-90.6 59-32.6 12.6-69.8 21.4-124.2 23.8-54.8 2.6-72.2 3.2-211.2 3.2v0zM512 711c-145.2 0-263-117.8-263-263s117.8-263 263-263 263 117.8 263 263c0 145.2-117.8 263-263 263zM512 277.4c-94.2 0-170.6 76.4-170.6 170.6s76.4 170.6 170.6 170.6c94.2 0 170.6-76.4 170.6-170.6s-76.4-170.6-170.6-170.6zM846.8 721.4c0-33.91-27.49-61.4-61.4-61.4s-61.4 27.49-61.4 61.4c0 33.91 27.49 61.4 61.4 61.4s61.4-27.49 61.4-61.4z" />
<glyph unicode="&#xe901;" glyph-name="twitter" d="M1024 733.6c-37.6-16.8-78.2-28-120.6-33 43.4 26 76.6 67.2 92.4 116.2-40.6-24-85.6-41.6-133.4-51-38.4 40.8-93 66.2-153.4 66.2-116 0-210-94-210-210 0-16.4 1.8-32.4 5.4-47.8-174.6 8.8-329.4 92.4-433 219.6-18-31-28.4-67.2-28.4-105.6 0-72.8 37-137.2 93.4-174.8-34.4 1-66.8 10.6-95.2 26.2 0-0.8 0-1.8 0-2.6 0-101.8 72.4-186.8 168.6-206-17.6-4.8-36.2-7.4-55.4-7.4-13.6 0-26.6 1.4-39.6 3.8 26.8-83.4 104.4-144.2 196.2-146-72-56.4-162.4-90-261-90-17 0-33.6 1-50.2 3 93.2-59.8 203.6-94.4 322.2-94.4 386.4 0 597.8 320.2 597.8 597.8 0 9.2-0.2 18.2-0.6 27.2 41 29.4 76.6 66.4 104.8 108.6z" />
<glyph unicode="&#xe902;" glyph-name="arrow-left" d="M256.341 434.475c1.473-13.704 7.053-25.887 15.468-35.532l-0.065 0.076 385.493-449.749c11.709-17.191 31.192-28.333 53.276-28.333 35.488 0 64.256 28.768 64.256 64.256 0 18.568-7.876 35.297-20.47 47.028l-0.039 0.036-349.867 408.235 349.867 408.235c12.632 11.766 20.508 28.495 20.508 47.063 0 35.488-28.768 64.256-64.256 64.256-22.085 0-41.567-11.141-53.133-28.11l-0.143-0.222-385.493-449.749c-9.718-11.196-15.64-25.914-15.64-42.015 0-1.941 0.086-3.863 0.255-5.761l-0.018 0.245z" />
<glyph unicode="&#xe903;" glyph-name="arrow-right" d="M774.272 446.507c-1.473 13.704-7.053 25.887-15.468 35.532l0.065-0.076-385.493 449.749c-11.709 17.191-31.192 28.333-53.276 28.333-35.488 0-64.256-28.768-64.256-64.256 0-18.568 7.876-35.297 20.47-47.028l0.039-0.036 349.867-408.235-349.867-408.235c-12.632-11.766-20.508-28.495-20.508-47.063 0-35.488 28.768-64.256 64.256-64.256 22.085 0 41.567 11.141 53.133 28.11l0.143 0.222 385.493 449.749c9.718 11.196 15.64 25.914 15.64 42.015 0 1.941-0.086 3.863-0.255 5.761l0.018-0.245z" />
<glyph unicode="&#xe904;" glyph-name="calendar" d="M780.761 260.687h-57.817c-21.516-0.576-38.808-17.869-39.383-39.33l-0.001-0.054v-57.856c0.576-21.516 17.869-38.808 39.33-39.383l0.054-0.001h57.856c21.516 0.576 38.808 17.869 39.383 39.33l0.001 0.054v57.817c-0.576 21.516-17.869 38.808-39.33 39.383l-0.054 0.001zM544.138 260.687h-57.817c-21.516-0.576-38.808-17.869-39.383-39.33l-0.001-0.054v-57.856c0.576-21.516 17.869-38.808 39.33-39.383l0.054-0.001h57.856c21.516 0.576 38.808 17.869 39.383 39.33l0.001 0.054v57.817c0.004 0.201 0.006 0.438 0.006 0.675 0 21.382-17.333 38.715-38.715 38.715-0.238 0-0.475-0.002-0.711-0.006l0.036 0.001zM310.154 260.687h-57.817c-21.516-0.576-38.808-17.869-39.383-39.33l-0.001-0.054v-57.856c0.576-21.516 17.869-38.808 39.33-39.383l0.054-0.001h57.817c21.516 0.576 38.808 17.869 39.383 39.33l0.001 0.054v57.817c-0.576 21.516-17.869 38.808-39.33 39.383l-0.054 0.001zM544.138 484.155h-57.817c-21.516-0.576-38.808-17.869-39.383-39.33l-0.001-0.054v-57.856c0.576-21.516 17.869-38.808 39.33-39.383l0.054-0.001h57.856c21.516 0.576 38.808 17.869 39.383 39.33l0.001 0.054v57.817c0.004 0.201 0.006 0.438 0.006 0.675 0 21.382-17.333 38.715-38.715 38.715-0.238 0-0.475-0.002-0.711-0.006l0.036 0.001zM780.761 484.155h-57.817c-21.516-0.576-38.808-17.869-39.383-39.33l-0.001-0.054v-57.856c0.576-21.516 17.869-38.808 39.33-39.383l0.054-0.001h57.856c21.516 0.576 38.808 17.869 39.383 39.33l0.001 0.054v57.817c-0.576 21.516-17.869 38.808-39.33 39.383l-0.054 0.001zM310.154 484.155h-57.817c-21.516-0.576-38.808-17.869-39.383-39.33l-0.001-0.054v-57.856c0.576-21.516 17.869-38.808 39.33-39.383l0.054-0.001h57.817c21.516 0.576 38.808 17.869 39.383 39.33l0.001 0.054v57.817c-0.576 21.516-17.869 38.808-39.33 39.383l-0.054 0.001zM912.226 886.39h-168.251v34.225c0 21.752-17.633 39.385-39.385 39.385s-39.385-17.633-39.385-39.385v0-34.186h-297.196v34.186c0 21.752-17.633 39.385-39.385 39.385s-39.385-17.633-39.385-39.385v0-34.186h-171.087c-0.39 0.007-0.85 0.011-1.311 0.011-42.785 0-77.47-34.684-77.47-77.47 0-0.461 0.004-0.921 0.012-1.38l-0.001 0.069v-796.83c-0.007-0.39-0.011-0.85-0.011-1.311 0-42.785 34.684-77.47 77.47-77.47 0.461 0 0.921 0.004 1.38 0.012l-0.069-0.001h796.672c0.39-0.007 0.85-0.011 1.311-0.011 42.785 0 77.47 34.684 77.47 77.47 0 0.461-0.004 0.921-0.012 1.38l0.001-0.069v796.672c-1.444 43.806-37.302 78.769-81.327 78.769-0.056 0-0.112 0-0.168 0h0.009zM289.162 807.621v-60.574c0-21.752 17.633-39.385 39.385-39.385s39.385 17.633 39.385 39.385v0 60.455h299.717v-60.455c0-21.752 17.633-39.385 39.385-39.385s39.385 17.633 39.385 39.385v0 60.455h168.251v-162.974h-796.514v162.974zM118.154 13.548v554.732h796.672v-554.732z" />
<glyph unicode="&#xe905;" glyph-name="clock" d="M153.6 806.4c85.428 94.592 208.513 153.781 345.422 153.781 4.564 0 9.112-0.066 13.644-0.196l-0.666 0.015c3.866 0.115 8.415 0.181 12.978 0.181 136.909 0 259.993-59.189 345.060-153.375l0.361-0.407c94.592-85.428 153.781-208.513 153.781-345.422 0-4.564-0.066-9.112-0.196-13.644l0.015 0.666c0.115-3.866 0.181-8.415 0.181-12.978 0-136.909-59.189-259.993-153.375-345.060l-0.407-0.361c-85.428-94.592-208.513-153.781-345.422-153.781-4.564 0-9.112 0.066-13.644 0.196l0.666-0.015c-3.866-0.115-8.415-0.181-12.978-0.181-136.909 0-259.993 59.189-345.060 153.375l-0.361 0.407c-93.248 91.282-151.655 217.836-153.596 358.037l-0.004 0.363c-0.115 3.866-0.181 8.415-0.181 12.978 0 136.909 59.189 259.993 153.375 345.060l0.407 0.361zM742.4 217.6l59.712 59.712-213.312 213.376-76.8 341.312h-85.312v-384c-0.019-0.642-0.030-1.398-0.030-2.156 0-22.814 9.865-43.323 25.562-57.495l0.068-0.060c4.468-4.49 10.354-7.564 16.93-8.494l0.158-0.018z" />
<glyph unicode="&#xe906;" glyph-name="clock2" d="M512-63.943c1.607-0.018 3.505-0.029 5.406-0.029 282.77 0 512 229.23 512 512s-229.23 512-512 512c-1.901 0-3.799-0.010-5.695-0.031l0.289 0.002c-21.281 0-38.533-17.252-38.533-38.533v0-197.345c-0.018-0.442-0.029-0.961-0.029-1.483 0-21.281 17.252-38.533 38.533-38.533s38.533 17.252 38.533 38.533c0 0.521-0.010 1.041-0.031 1.557l0.002-0.074v157.156c223.066-20.41 396.441-206.572 396.441-433.228 0-240.208-194.727-434.935-434.935-434.935s-434.935 194.727-434.935 434.935c0 143.893 69.876 271.465 177.547 350.635l1.206 0.846c9.601 7.104 15.758 18.389 15.758 31.112 0 21.314-17.278 38.592-38.592 38.592-8.591 0-16.526-2.807-22.939-7.554l0.105 0.074c-128.166-94.195-210.421-244.369-210.421-413.756 0-282.77 229.23-512 512-512 0.001 0 0.003 0 0.004 0v0zM253.973 592.655c-3.3-5.558-5.251-12.253-5.251-19.403 0-14.143 7.63-26.503 18.999-33.189l0.18-0.098 215.041-125.246c5.292-2.912 11.598-4.625 18.305-4.625 21.281 0 38.533 17.252 38.533 38.533 0 13.699-7.149 25.728-17.919 32.561l-0.157 0.093-215.041 125.246c-5.56 3.296-12.256 5.244-19.407 5.244-14.126 0-26.477-7.601-33.185-18.937l-0.098-0.179z" />
<glyph unicode="&#xe907;" glyph-name="earth" d="M955.349 705.005c-45.786 78.439-107.891 140.545-186.333 186.328-78.456 45.781-164.101 68.667-257.001 68.667-92.891 0-178.553-22.886-257.003-68.667-78.446-45.776-140.552-107.882-186.338-186.328-45.788-78.451-68.674-164.122-68.674-257.006s22.893-178.546 68.667-257.001c45.783-78.423 107.889-140.545 186.335-186.333 78.451-45.779 164.115-68.667 257.003-68.667s178.562 22.888 257.008 68.667c78.442 45.772 140.545 107.894 186.326 186.333 45.774 78.456 68.658 164.124 68.658 257.001 0.002 92.884-22.884 178.567-68.648 257.006zM576.052 178.613c-4.467 5.322-6.010 9.775-4.668 13.345-0.446-2.228-2.003-4.226-4.665-5.999-2.221 2.662-6.235 5.999-12.005 9.994-5.786 4.014-9.779 7.339-12.002 10.022-0.897 1.326-2.109 3.213-3.668 5.658-1.557 2.445-3.554 5.665-5.999 9.669-2.431 3.995-4.205 7.447-5.322 10.342-1.104 2.891-1.207 4.553-0.336 4.985-8.439-3.563-20.665-1.118-36.663 7.337-3.108 1.775-7.783 6.442-14.001 14.001s-12.665 10.884-19.334 10.003c-2.218-0.446-5.221-1.221-9.002-2.333-3.771-1.118-6.996-1.663-9.665-1.663s-6.225 0.878-10.671 2.671c-3.549 1.324-8.327 3.89-14.328 7.661-5.996 3.771-10.113 6.12-12.329 6.991-5.777 3.117-8.665 4.668-8.665 4.668l-10.667 5.322c-2.669 1.324-5.45 3.437-8.338 6.328-2.888 2.893-4.771 5.896-5.66 9.006-0.887 2.66-1.999 7.998-3.332 16.004-1.333 8.009-3.115 13.777-5.333 17.326-2.662 4.441-6.44 8.887-11.334 13.329-4.883 4.441-9.326 6.681-13.329 6.681 3.559 0 3.559 2.98 0 8.997-3.559 6.010-6.669 10.342-9.338 12.992-0.89 0.897-3.559 3.78-8.002 8.679-4.444 4.892-8.222 9.102-11.332 12.675-3.108 3.554-5.786 7.661-8.002 12.336-2.218 4.668-2.669 8.551-1.333 11.668 0.441 0.439 0 1.111-1.336 1.996-1.333 0.878-2.994 1.782-4.999 2.669-1.996 0.88-3.888 1.663-5.66 2.333-1.786 0.656-3.12 0.992-4.005 0.992 0.894-1.791 1.891-5.004 3.005-9.669 1.111-4.675 2.333-8.121 3.664-10.342 0.894-1.775 4.668-8.229 11.334-19.32 11.563-18.666 16.887-32.46 16.004-41.345-2.669-0.88-4.451-0.446-5.338 1.326-0.89 1.772-1.562 4.219-2.001 7.334-0.444 3.101-0.883 5.322-1.336 6.664-1.333 2.669-4.778 5.562-10.337 8.679-5.553 3.099-9.002 6.216-10.333 9.333 0.448 0 0.995 0.208 1.667 0.67 0.67 0.446 1.231 0.654 1.67 0.654 0.451 3.998-1.882 9.109-6.996 15.344-5.114 6.216-7.215 10.657-6.333 13.329-3.559 2.669-6.669 7.895-9.338 15.661-2.667 7.783-4.892 12.787-6.669 15.012-1.775 2.657-3.991 4.99-6.662 6.996-2.669 1.994-5.996 4.215-10.001 6.662-4 2.445-6.669 4.107-8.002 4.999-0.892 0.437-2.664 2.428-5.333 5.987-14.664 17.784-19.108 27.341-13.329 28.672-5.777-1.331-10.557 2.998-14.335 13.006-3.78 9.996-4.999 17.672-3.668 23.003l-1.331 0.663c0.448 1.782 0.668 6.996 0.668 15.671 0 8.67 0.56 16.56 1.67 23.668 1.116 7.11 3.225 10.671 6.333 10.671-3.108-0.444-5.438 2.34-6.996 8.329-1.555 6.006-1.665 10.12-0.336 12.338 0.444 1.336 2.449 0.437 6.001-2.669 3.549-3.101 5.553-5.114 5.996-5.996 5.779 3.12 8.005 7.113 6.669 12.007-0.89 1.775-5.557 6.44-14.001 14.001-19.115 12.439-28.896 18.442-29.333 18.003 2.657 4.883 1.994 9.104-2.006 12.665-4.441-2.669-6.996-3.332-7.666-2.006-0.663 1.336-1.219 3.771-1.67 7.332-0.439 3.552-1.555 5.55-3.327 5.996-2.225 0.444-4.894 2.218-8.002 5.331 39.554 63.112 91.775 112.445 156.666 148.008 2.664 0.439 7.552 0.663 14.662 0.663 3.552-0.444 6.888-1.557 9.996-3.332 3.113-1.775 6.337-4.224 9.665-7.332 3.339-3.101 5.894-5.326 7.668-6.662 0.89 2.669-0.219 6.669-3.33 12.002 0.883 2.669 5.775 5.338 14.664 8.002 10.216 1.333 16.889 1.116 19.997-0.67-2.662 4.002-7.103 9.56-13.329 16.668l-3.332-3.327c-3.559 3.108-12.885 1.555-28-4.668-0.883-0.439-3.108-1.67-6.667-3.664-3.552-1.996-6.449-3.444-8.665-4.332-2.669-0.89-5.333-1.111-8.002-0.668 21.331 11.552 42.225 20.677 62.673 27.337 1.322-0.883 3.549-2.774 6.662-5.66 3.108-2.888 5.553-5.004 7.332-6.333-1.333 0.883-2.225 0.448-2.669-1.333-1.775-5.331-1.775-9.775 0-13.329 2.218-3.12 5.221-4.887 9.002-5.338 3.78-0.439 8.331-0.219 13.665 0.672 5.333 0.883 8.894 1.333 10.671 1.333l6.669-0.672c14.218-1.333 19.778 0 16.668 4.005 1.331-1.786 2.886-5.45 4.663-11.007 1.775-5.557 3.78-9.448 5.996-11.671 2.225 1.786 2.669 4.894 1.333 9.338-1.333 4.444-1.333 7.563 0 9.338 0.439 0.883 1.775 1.782 4 2.669 2.225 0.883 4.778 1.882 7.668 2.994 2.888 1.116 4.778 1.891 5.674 2.333 2.664 1.782 0.883 4.894-5.338 9.338-0.89 0.446-2.774 1.111-5.66 2.001-2.888 0.876-5.45 1.777-7.668 2.662-2.218 0.883-4.551 2.109-6.996 3.664-2.445 1.557-3.559 3.332-3.341 5.338 0.224 2.006 1.452 4.556 3.668 7.668 2.669 2.216 7.005 3.108 13.002 2.664 5.996-0.439 10.557-1.548 13.665-3.327 12.007-6.669 13.779-12.679 5.338-18.003 4.451-0.439 9.784-2.218 16.004-5.326 6.216-3.115 8.661-6.449 7.332-10.008 3.556 6.667 7.108 10.008 10.669 10.008 2.218-0.451 4.339-3.454 6.333-9.009 1.996-5.553 3.215-8.551 3.657-9.002 3.563-4.883 7.096-5.996 10.676-3.327 3.549 2.664 7.225 6.552 10.996 11.666 3.771 5.107 5.882 7.439 6.33 6.996-4.444 1.77-4.908 3.552-1.326 5.331 6.648 4 12.658 5.114 17.996 3.327 1.324-0.883 3.115-2.888 5.319-5.989 3.988-8.012 3.325-11.783-1.996-11.339 3.995-3.559 5.651-8.007 5.004-13.333-0.67-5.333-4.133-7.78-10.349-7.332-2.214 0-5.45 1.116-9.679 3.332-4.219 2.218-7.439 3.437-9.669 3.664-2.221 0.231-5.338-0.995-9.333-3.664-1.775-2.225-4.107-6.006-7.001-11.334-2.891-5.343-5.45-9.114-7.671-11.332-6.662-6.667-17.784-9.116-33.338-7.332 1.336 0 1.219-1.333-0.336-4.002-1.562-2.664-3.664-5.67-6.333-8.999-2.669-3.332-4.224-5.221-4.663-5.665-4.002-4.444-6.667-9.557-8.002-15.334 0-0.89-0.224-3.893-0.672-8.997-0.451-5.114-1.333-9.009-2.669-11.671 5.333 1.333 9.557-1.343 12.665-8.002 2.669-6.225 2.669-9.557 0-10.006 14.671 2.214 27.561 1.331 38.68-2.669 15.997-5.777 25.123-11.554 27.344-17.333 2.655 4.005 9.095 4.231 19.323 0.672 4.002-2.218 7.542-8.894 10.674-19.997 1.775-6.662 4.78-12.446 8.999-17.331 4.229-4.887 8.775-6.218 13.672-4l1.992 1.333c1.782 0.883 3.22 1.665 4.329 2.33 1.118 0.663 2.333 1.555 3.659 2.669 1.343 1.111 2.125 2.111 2.333 2.994 0.208 0.887-0.112 1.786-0.99 2.669-3.117 2.669-5.45 6.333-7.001 10.993-1.541 4.668-1.207 8.782 1.009 12.343 1.324 1.775 4.883 4.444 10.657 8.002 5.786 3.561 9.343 7.113 10.667 10.669 1.8 5.777-0.439 10.557-6.657 14.34-6.223 3.771-9.34 7.215-9.34 10.333 0 2.225 1.445 4.887 4.329 8.002 2.9 3.108 4.124 6.006 3.668 8.665 0 1.343-0.785 4.114-2.335 8.338-1.541 4.231-2.445 7.339-2.662 9.338-0.224 2.001 0.785 4.334 2.996 6.996 3.101 1.782 10.438 1.67 21.992-0.327 11.556-2.006 19.117-4.117 22.68-6.333 1.34-0.883 4.226-2.218 8.67-4.002 4.441-1.765 8.334-3.654 11.675-5.663 3.316-1.996 5.207-3.879 5.649-5.66h-3.325c3.108-2.676 5.004-5.777 5.658-9.338 0.672-3.568-0.99-6.228-4.985-8.012 2.653 0.451 6.223-0.219 10.667-1.996 7.113-2.664 7.337-5.114 0.67-7.332 1.326 0.451 3.213 0.887 5.651 1.336 2.445 0.444 4.325 1.114 5.665 1.996 0.88 0.448 1.996 1.219 3.325 2.335 1.343 1.111 2.333 1.782 3.005 1.994 0.67 0.219 1.66 0.451 3.003 0.672 1.326 0.219 2.655-0.117 3.979-0.999 0.465 0 1.455 1.114 3.005 3.332 1.541 2.216 3.229 4.441 4.995 6.66 1.784 2.218 3.325 3.327 4.668 3.327 1.317 0 2.55-0.546 3.65-1.658 1.125-1.116 1.996-2.333 2.671-3.668 0.67-1.336 1.324-2.781 1.996-4.327 0.67-1.555 1.214-2.786 1.663-3.668 0.878-2.218 3.003-4.56 6.328-6.996 3.325-2.438 5.434-4.778 6.328-6.996 0.448-1.336 1.319-4.67 2.662-10.010 1.326-5.333 3.117-8.997 5.331-10.993 2.221-2.006 5.553-3.668 9.994-4.999 0.89-0.451 2.902-0.224 6.001 0.658 3.101 0.894 5.667 1.116 7.664 0.672 2.013-0.439 3.003-2.214 3.003-5.333 2.662 2.669 3.988 4.451 3.988 5.333 0.455-5.779 1.887-10.449 4.348-14.001 2.445-3.549 6.328-5.114 11.666-4.663l-1.343-14.671c-1.326-2.218-4.658-3.881-10.003-4.99-5.338-1.116-8.663-2.123-10.006-3.005-1.326-0.444-4.553-3.11-9.669-8.005-5.114-4.894-7.208-7.783-6.328-8.665-7.542 8.446-18.893 10.891-33.996 7.332-16.882-2.667-28.448-5.333-34.664-8.002-7.106-3.561-12.005-6.888-14.671-9.996-0.446-0.444-1.207-2.006-2.326-4.668-1.111-2.664-2.221-5.114-3.325-7.332-1.125-2.218-2.109-3.33-2.996-3.33 2.676 0.432 5.667 2.555 8.999 6.326 3.341 3.78 5.45 5.882 6.33 6.333 11.545 7.552 21.102 10.221 28.703 7.946 9.775-2.669 11.332-6.228 4.658-10.671-0.871-0.883-3.22-1.217-6.991-0.999-3.771 0.219-6.33 0.117-7.671-0.336 4.012-0.883 7.334-2.109 10.020-3.654 2.653-1.555 3.325-3.668 1.989-6.333 7.106-4.002 8.446-8.446 4.005-13.34-5.786-5.786-12.658-8.222-20.665-7.332 1.343 0 1.343-0.892 0-2.667l-11.346-7.332c-0.88-0.437-3.771-1.546-8.663-3.332-4.89-1.765-8.229-3.78-10.003-5.996-1.326-1.779-1.996-4.444-1.996-8.012 0-3.561-0.224-6.23-0.67-8.005-0.439-1.786-2.223-2.216-5.322-1.333-1.343-2.664-5.45-4.778-12.338-6.323-6.888-1.555-11.442-3.888-13.665-6.996 2.653-3.561 2.445-7.113-0.672-10.671-5.338-4.451-10.003-4-13.999 1.333-2.221-0.89-3.893-3.108-5.004-6.669-1.102-3.559-2.779-6.003-4.988-7.332 3.117-4.89 2.655-8.455-1.324-10.667 0.432 0 1.438-0.451 2.987-1.336 1.55-0.887 3.213-1.996 5.004-3.332 1.775-1.336 2.874-2.006 3.325-2.006-1.775-3.991-4.229-5.989-7.337-5.989 2.669-7.115-0.656-14.898-9.987-23.337-1.793-1.775-4.572-3.549-8.343-5.333-3.797-1.775-7.232-3.215-10.349-4.329s-4.883-1.889-5.329-2.333c-4.444-4.007-7.785-8.114-9.996-12.334-2.214-4.229-2.55-8.334-1.009-12.338 1.56-4.012 5.667-6.664 12.345-8.007l0.647-5.329v-11.995l0.67-5.338c0.455-3.108 0.792-5.889 1.009-8.341 0.217-2.447 0.217-5.546 0-9.333-0.217-3.771-1.221-5.889-2.996-6.321-1.765-0.455-4.212 0-7.33 1.333-3.57 1.775-7.783 11.554-12.682 29.328-0.887 4.441-3.563 9.765-8.007 15.997-2.221-2.221-4.107-3.659-5.658-4.325-1.543-0.67-2.671-0.792-3.318-0.336-0.67 0.439-1.894 1.445-3.673 2.996-1.775 1.55-3.318 2.781-4.658 3.659-2.223 1.326-6.106 2.447-11.675 3.325-5.546 0.887-9.009 2.006-10.326 3.332-10.678-8.014-17.128-5.999-19.346 5.985-0.883-2.214-0.775-5.21 0.336-8.999 1.116-3.778 1.67-5.882 1.67-6.328-3.108-5.786-7.995-6.216-14.664-1.326-2.669 2.655-8.782 2.989-18.34 0.992-9.557-1.992-15.89-2.326-18.998-0.992 0.451 0 1.333-0.663 2.669-2.003 1.331-0.871 2.225-1.543 2.667-1.992-0.448-1.784-1.111-3.108-2.006-3.995-0.892-0.88-1.782-1.217-2.667-1.009-0.89 0.224-1.889 0.224-3.005 0-1.111-0.208-2.109-0.542-3.001-0.99-1.777-1.326-3.995-3.659-6.664-6.991-2.664-3.334-4.663-5.443-5.996-6.321 2.662-7.113 3.888-12.563 3.668-16.334-0.231-3.787-0.89-9.343-2.006-16.67s-1.67-13.226-1.67-17.676c0-7.094 2.113-15.341 6.333-24.661 4.224-9.333 9.221-15.773 15-19.337 3.12-1.775 8.455-2.877 16.004-3.318 7.554-0.453 12.89 0 15.997 1.326 2.669 1.317 4.663 2.884 5.996 4.658s2.449 4.348 3.332 7.671c0.89 3.325 1.562 5.658 2.006 6.984 3.108 8.455 8.885 12.897 17.319 13.345 5.354 0.446 9.221-0.128 11.682-1.663 2.445-1.557 3.437-3.666 2.989-6.337-0.448-2.66-1.333-5.441-2.655-8.331-1.34-2.893-3.003-6.106-5.006-9.672-1.987-3.57-3.218-6.232-3.647-8.016-0.89-3.554-1.679-8.549-2.333-15.007-0.67-6.44-1.233-10.333-1.679-11.673 0.897-0.434 4.224-0.656 9.996-0.656 0 0.88 0.336 2.335 1.006 4.332 0.656 1.996 0.992 3.22 0.992 3.659 2.23-3.563 5.786-5.546 10.676-5.994 4.89-0.446 8.453 1.326 10.674 5.331 0.897-1.336 3.563-4.675 8.009-10.013 4.441-5.322 6.886-9.765 7.337-13.329 0.446-1.791 1.324-4.668 2.653-8.679 1.343-3.995 1.791-6.776 1.343-8.341-0.446-1.534-2.671-2.326-6.664-2.326-1.775 0-2.891-0.67-3.325-1.996-0.462-1.343-0.462-2.996 0-4.995 0.448-1.996 1.009-3.893 1.663-5.667 0.663-1.765 1.55-3.668 2.655-5.667 1.133-1.982 1.679-3.211 1.679-3.657 7.991-14.655 18.891-18.659 32.665-12.005 0-12.883-3.115-19.993-9.35-21.319-3.514-0.883-7.503 1.361-11.946 6.683zM586.008 27.999c-0.878 4.444-1.326 7.993-1.277 10.646-0.465 3.563 1.102 8.343 4.649 14.337 3.554 5.992 5.329 10.557 5.329 13.665-7.11 1.775-9.775 7.559-8.014 17.333 0.894 6.671 7.334 15.558 19.337 26.666 8.453 7.559 11.108 18.237 8.007 32.002-1.343 5.779-2.461 14.232-3.341 25.342-0.878 11.115-1.775 18.891-2.669 23.332 0-1.326 2.109-2.55 6.344-3.659 4.222-1.102 6.776-2.557 7.664-4.315 0.887 1.317 1.992 3.771 3.332 7.32 1.326 3.563 2.671 6.223 3.979 8.007 0.897 1.333 2.781 2.996 5.677 5.004 2.891 1.996 4.778 3.211 5.665 3.659 0.871 0.439 2.884 1.877 5.985 4.329 3.115 2.445 5.674 4.325 7.678 5.658 2.013 1.333 4.658 2.333 8 2.989 3.341 0.67 5.667-0.322 6.991-2.989 2.23-2.671 1.791-6.776-1.324-12.338-3.117-5.562-3.117-9.452 0-11.682 0.453 1.343 0.887 4.243 1.324 8.686 0.455 4.444 1.791 7.776 4.005 10.013 2.669 2.653 5.217 4.219 7.671 4.651 2.445 0.462 4.658 0.128 6.65-0.999 2.013-1.111 4.346-2.646 7.001-4.658 2.669-1.996 5.111-3.222 7.334-3.659 6.664-2.223 14.671-7.113 24.004-14.671-0.446 0.453-0.446 1.006 0 1.679 0.448 0.654 1.326 1.324 2.671 1.996 1.326 0.654 2.541 1.324 3.659 1.996 1.102 0.663 2.316 1.198 3.659 1.653l1.996 0.67c3.101 0 5.329 0.217 6.657 0.672 1.324 0.439 3.236 0 5.665-1.343 2.431-1.326 4.11-2.326 4.988-2.996 0.894-0.654 2.445-1.877 4.668-3.659 2.221-1.775 3.787-3.117 4.649-3.995 1.343-0.878 3.787-2.445 7.337-4.668 3.563-2.221 6.344-3.995 8.343-5.319 2.013-1.326 3.785-3.341 5.319-5.985 1.55-2.685 2.127-5.571 1.679-8.686 2.671-0.448 7.993-2.214 16-5.322 1.343-0.88 4.107-1.672 8.341-2.326 4.222-0.67 7.001-1.679 8.334-2.996-64.396-68.041-142.411-110.042-233.963-126.042z" />
<glyph unicode="&#xe908;" glyph-name="food" d="M203.093 894.359c17.491-0.866 31.383-15.106 31.691-32.659v-170.697c-0.281-53.286-35.871-98.183-84.552-112.508l-0.834-0.21v-76.38c25.281-12.239 42.458-37.602 42.693-67.001v-362.868c0-41.255-33.444-74.699-74.699-74.699s-74.699 33.444-74.699 74.699v0 362.759c0.235 29.431 17.412 54.794 42.247 66.838l0.446 0.195v76.38c-49.515 14.535-85.105 59.433-85.386 112.686v170.7c0.431 17.598 14.452 31.784 31.943 32.477l0.064 0.002c17.554-0.695 31.576-14.881 32.006-32.438l0.001-0.041v-170.667c-0.001-0.13-0.002-0.284-0.002-0.439 0-17.362 8.33-32.779 21.212-42.471l0.136-0.098v213.78c0.34 17.797 14.581 32.158 32.298 32.688l0.049 0.001c17.491-0.866 31.383-15.106 31.691-32.659v-213.81c13.018 9.79 21.348 25.207 21.348 42.569 0 0.154-0.001 0.308-0.002 0.462v-0.024 170.667c0.297 17.83 14.555 32.235 32.298 32.767l0.049 0.001zM907.106 893.703c36.902-1.643 68.773-21.74 86.773-51.228l0.267-0.47c19.054-30.828 30.344-68.204 30.344-108.216s-11.291-77.387-30.86-109.113l0.515 0.898c-13.287-20.385-32.115-36.17-54.351-45.397l-0.788-0.29v-78.034c25.281-12.239 42.458-37.602 42.693-67.001v-362.868c0-41.255-33.444-74.699-74.699-74.699s-74.699 33.444-74.699 74.699v362.811c0.235 29.431 17.412 54.794 42.247 66.838l0.446 0.195v78.034c-23.023 9.517-41.851 25.301-54.859 45.23l-0.279 0.456c-19.054 30.828-30.344 68.204-30.344 108.216s11.291 77.387 30.86 109.113l-0.515-0.898c18.304 30.032 50.278 50.158 87.058 51.718l0.218 0.007zM907.106 829.663c-14.779-1.405-27.207-10.281-33.577-22.763l-0.11-0.238c-12.369-20.881-19.678-46.024-19.678-72.875s7.309-51.993 20.046-73.548l-0.368 0.673c5.258-13.761 18.352-23.357 33.687-23.357s28.429 9.596 33.604 23.11l0.083 0.247c12.369 20.881 19.678 46.024 19.678 72.875s-7.309 51.993-20.046 73.548l0.368-0.673c-6.506 12.66-18.916 21.482-33.493 22.857l-0.168 0.013zM512.263 754.964c165.036 0 298.824-133.788 298.824-298.824s-133.788-298.824-298.824-298.824c-165.036 0-298.824 133.788-298.824 298.824v0c0.283 164.922 133.902 298.541 298.797 298.824h0.027zM512.263 690.924c-129.668 0-234.785-105.117-234.785-234.785s105.117-234.785 234.785-234.785c129.668 0 234.785 105.117 234.785 234.785v0c0 0.14 0 0.307 0 0.473 0 129.407-104.905 234.312-234.312 234.312-0.166 0-0.333 0-0.499-0.001h0.026zM512.263 616.225c88.456 0 160.164-71.708 160.164-160.164s-71.708-160.164-160.164-160.164c-88.456 0-160.164 71.708-160.164 160.164v0c0.223 88.366 71.798 159.941 160.143 160.164h0.021zM512.263 552.185c-53.045 0-96.046-43.001-96.046-96.046s43.001-96.046 96.046-96.046c53.045 0 96.046 43.001 96.046 96.046v0c0.001 0.141 0.001 0.307 0.001 0.474 0 52.784-42.79 95.573-95.573 95.573-0.167 0-0.333 0-0.5-0.001h0.026zM907.133 445.453c-0.195 0.013-0.422 0.021-0.651 0.021-5.539 0-10.030-4.491-10.030-10.030 0-0.229 0.008-0.457 0.023-0.682l-0.002 0.031v-362.837c0-5.895 4.779-10.673 10.673-10.673s10.673 4.779 10.673 10.673v0 362.837c0.015 0.203 0.023 0.44 0.023 0.679 0 5.539-4.491 10.030-10.030 10.030-0.239 0-0.476-0.008-0.711-0.025l0.032 0.002zM117.392 445.453c-0.195 0.013-0.422 0.021-0.651 0.021-5.539 0-10.030-4.491-10.030-10.030 0-0.229 0.008-0.457 0.023-0.682l-0.002 0.031v-362.837c0-5.895 4.779-10.673 10.673-10.673s10.673 4.779 10.673 10.673v0 362.837c0.015 0.203 0.023 0.44 0.023 0.679 0 5.539-4.491 10.030-10.030 10.030-0.239 0-0.476-0.008-0.711-0.025l0.032 0.002z" />
<glyph unicode="&#xe909;" glyph-name="heart" d="M942.144 814.4c-49.919 50.529-119.209 81.824-195.808 81.824s-145.889-31.295-195.781-81.797l-38.427-38.427-38.4 38.4c-50.167 50.199-119.489 81.25-196.064 81.25-153.086 0-277.186-124.1-277.186-277.186 0-76.511 30.999-145.782 81.123-195.937l430.143-430.143 430.144 430.144c50.529 49.919 81.824 119.209 81.824 195.808s-31.295 145.889-81.797 195.781l-0.027 0.027z" />
<glyph unicode="&#xe90a;" glyph-name="coin" d="M511.998 960c-282.314 0-511.998-229.683-511.998-511.998s229.683-511.998 511.998-511.998 511.998 229.683 511.998 511.998-229.679 511.998-511.998 511.998zM511.998 3.383c-245.162 0-444.615 199.458-444.615 444.62s199.453 444.615 444.615 444.615 444.615-199.453 444.615-444.615-199.453-444.62-444.615-444.62zM545.689 478.233v191.29c19.064-7.080 35.698-20.070 47.264-37.638 10.237-15.541 31.131-19.844 46.667-9.612 15.541 10.233 19.844 31.126 9.607 46.667-24.205 36.752-61.501 61.703-103.538 70.497v53.521c0 18.607-15.084 33.691-33.691 33.691s-33.691-15.084-33.691-33.691v-53.42c-74.569-15.546-130.761-81.769-130.761-160.881s56.197-145.344 130.761-160.891v-191.29c-19.064 7.080-35.698 20.070-47.264 37.638-10.237 15.541-31.131 19.849-46.667 9.612-15.541-10.233-19.844-31.126-9.607-46.667 24.205-36.752 61.501-61.703 103.538-70.497v-53.516c0-18.607 15.084-33.691 33.691-33.691s33.691 15.084 33.691 33.691v53.415c74.569 15.546 130.761 81.769 130.761 160.881s-56.192 145.344-130.761 160.891zM414.928 578.657c0 41.647 26.443 77.139 63.378 90.841v-181.683c-36.935 13.703-63.378 49.194-63.378 90.841zM545.689 226.506v181.683c36.935-13.703 63.378-49.194 63.378-90.841s-26.438-77.139-63.378-90.841z" />
<glyph unicode="&#xe90b;" glyph-name="juicy" d="M502.511 264.272h331.025c203.822-26.055 73.569-418.384-85.834-303.445l-289.633 222.231c-107.292 85.811-108.817 85.811 44.442 81.215zM235.839 485.001l-148.662 295.822c-67.425 194.56 340.241 254.362 309.589 59.711l-68.972-358.628c-29.127-133.348-27.602-134.872-91.955 3.072zM370.711 492.669l70.565 323.334c68.972 194.628 424.528-16.862 278.938-148.662l-280.53-236.021c-105.768-85.811-105.768-87.359-68.949 61.303zM471.859 402.239l259.004 205.369c177.766 105.745 317.235-283.534 121.082-291.271l-366.364-4.551c-134.804 0-136.329-1.525-13.722 90.431z" />
<glyph unicode="&#xe90c;" glyph-name="search" d="M990 27.6l-235.6 235.6c58.4 71.2 93.6 162.4 93.6 261.8 0 228-185 413-413 413-228.2 0-413-185-413-413s184.8-413 413-413c99.4 0 190.4 35 261.6 93.4l235.6-235.4c16-16 41.8-16 57.8 0 16 15.8 16 41.8 0 57.6zM435 194.2c-182.6 0-331 148.4-331 330.8s148.4 331 331 331c182.4 0 331-148.6 331-331s-148.6-330.8-331-330.8z" />
<glyph unicode="&#xe90d;" glyph-name="sharer" horiz-adv-x="1026" d="M836.581 314.831c-0.387 0.003-0.844 0.005-1.301 0.005-52.909 0-100.7-21.918-134.786-57.171l-0.051-0.053-321.715 159.885c1.319 7.454 2.073 16.037 2.073 24.795 0 1.683-0.028 3.36-0.083 5.030l0.006-0.243c0.048 1.414 0.075 3.076 0.075 4.744 0 8.756-0.753 17.335-2.199 25.677l0.128-0.89 321.612 159.834c34.848-36.298 83.776-58.851 137.971-58.851 105.572 0 191.156 85.583 191.156 191.156s-85.583 191.156-191.156 191.156c-104.908 0-190.078-84.51-191.145-189.166l-0.001-0.101c-0.049-1.427-0.077-3.103-0.077-4.787 0-8.758 0.754-17.341 2.2-25.685l-0.128 0.89-321.612-159.782c-34.648 35.259-82.84 57.111-136.136 57.116h-0.001c-105.37-0.805-190.578-85.994-191.411-191.281v-0.080c0-104.583 84.781-189.364 189.364-189.364v0c0.387-0.003 0.844-0.005 1.301-0.005 52.909 0 100.7 21.918 134.786 57.171l0.051 0.053 321.612-159.834c-1.319-7.454-2.073-16.037-2.073-24.795 0-1.683 0.028-3.36 0.083-5.030l-0.006 0.243c0.006-104.578 84.785-189.353 189.364-189.353 104.583 0 189.364 84.781 189.364 189.364 0 103.863-83.618 188.196-187.207 189.352l-0.11 0.001z" />
<glyph unicode="&#xe90e;" glyph-name="shopping" d="M889.408-77.408h-756.704c-20.202 0.022-36.57 16.403-36.57 36.608 0 0.901 0.033 1.794 0.097 2.679l-0.007-0.119 48.832 683.488c1.377 19.062 17.161 34.010 36.444 34.048h659.204c0.027 0 0.058 0 0.090 0 19.317 0 35.14-14.962 36.512-33.93l0.007-0.119 48.832-683.488c0.057-0.766 0.090-1.659 0.090-2.56 0-20.218-16.39-36.608-36.608-36.608-0.032 0-0.063 0-0.095 0h0.005zM172-4.192h678.112l-43.488 610.272h-591.072zM681.92 715.904c-20.218 0-36.608 16.39-36.608 36.608v0c0.092 1.857 0.144 4.032 0.144 6.22 0 74.227-60.173 134.4-134.4 134.4s-134.4-60.173-134.4-134.4c0-2.188 0.052-4.363 0.156-6.525l-0.012 0.305c0-20.218-16.39-36.608-36.608-36.608s-36.608 16.39-36.608 36.608v0c0 114.592 92.896 207.488 207.488 207.488s207.488-92.896 207.488-207.488v0c0-20.218-16.39-36.608-36.608-36.608-0.011 0-0.023 0-0.034 0h0.002zM340.16 422.976c0 0 0 0 0 0-20.196 0-36.572 16.353-36.608 36.54v292.996c0 20.218 16.39 36.608 36.608 36.608s36.608-16.39 36.608-36.608v-292.992c0-20.218-16.39-36.608-36.608-36.608v0zM681.92 422.976c0 0 0 0 0 0-20.196 0-36.572 16.353-36.608 36.54v292.996c0 20.218 16.39 36.608 36.608 36.608s36.608-16.39 36.608-36.608v-292.992c0-20.218-16.39-36.608-36.608-36.608v0z" />
<glyph unicode="&#xe90f;" glyph-name="facebook, brand1, social1" d="M608 768h160v192h-160c-123.514 0-224-100.486-224-224v-96h-128v-192h128v-512h192v512h160l32 192h-192v96c0 17.346 14.654 32 32 32z" />
<glyph unicode="&#xe910;" glyph-name="placeholder" d="M515.338 735.59c-72.166 0-130.906-58.739-130.906-130.906s58.739-130.906 130.906-130.906 130.906 58.739 130.906 130.906-58.739 130.906-130.906 130.906zM515.338 511.181c-51.558 0-93.504 41.946-93.504 93.504s41.946 93.504 93.504 93.504 93.504-41.946 93.504-93.504-41.946-93.504-93.504-93.504zM765.611 854.958c-67.734 67.734-157.797 105.042-253.583 105.042-95.804 0-185.849-37.308-253.583-105.042-125.351-125.333-140.929-361.15-33.736-504.024l287.319-414.933 286.889 414.354c107.623 143.454 92.045 379.271-33.306 504.604zM768.584 372.215l-256.556-370.5-256.968 371.080c-97.225 129.634-83.293 342.599 29.846 455.72 60.665 60.665 141.322 94.084 227.121 94.084s166.456-33.418 227.14-94.084c113.14-113.121 127.072-326.086 29.416-456.3z" />
<glyph unicode="&#xe911;" glyph-name="favorite-heart-button" d="M512-23.040l-71.68 71.68c-266.24 235.52-440.32 394.24-440.32 588.8 0 158.72 122.88 281.6 281.6 281.6 87.040 0 174.080-40.96 230.4-107.52 56.32 66.56 143.36 107.52 230.4 107.52 158.72 0 281.6-122.88 281.6-281.6 0-194.56-174.080-353.28-440.32-588.8l-71.68-71.68z" />
<glyph unicode="&#xea9d;" glyph-name="youtube" d="M1013.8 652.8c0 0-10 70.6-40.8 101.6-39 40.8-82.6 41-102.6 43.4-143.2 10.4-358.2 10.4-358.2 10.4h-0.4c0 0-215 0-358.2-10.4-20-2.4-63.6-2.6-102.6-43.4-30.8-31-40.6-101.6-40.6-101.6s-10.2-82.8-10.2-165.8v-77.6c0-82.8 10.2-165.8 10.2-165.8s10-70.6 40.6-101.6c39-40.8 90.2-39.4 113-43.8 82-7.8 348.2-10.2 348.2-10.2s215.2 0.4 358.4 10.6c20 2.4 63.6 2.6 102.6 43.4 30.8 31 40.8 101.6 40.8 101.6s10.2 82.8 10.2 165.8v77.6c-0.2 82.8-10.4 165.8-10.4 165.8zM406.2 315.2v287.8l276.6-144.4-276.6-143.4z" />
<glyph unicode="&#xeac9;" glyph-name="linkedin" d="M928 960h-832c-52.8 0-96-43.2-96-96v-832c0-52.8 43.2-96 96-96h832c52.8 0 96 43.2 96 96v832c0 52.8-43.2 96-96 96zM384 128h-128v448h128v-448zM320 640c-35.4 0-64 28.6-64 64s28.6 64 64 64c35.4 0 64-28.6 64-64s-28.6-64-64-64zM832 128h-128v256c0 35.4-28.6 64-64 64s-64-28.6-64-64v-256h-128v448h128v-79.4c26.4 36.2 66.8 79.4 112 79.4 79.6 0 144-71.6 144-160v-288z" />
<glyph unicode="&#xead2;" glyph-name="pinterest2" d="M512 960c-282.4 0-512-229.6-512-512s229.6-512 512-512 512 229.6 512 512-229.6 512-512 512zM512 4.4c-45.8 0-89.8 7-131.4 19.8 18 29.4 45.2 77.8 55.2 116.2 5.4 20.8 27.6 105.4 27.6 105.4 14.4-27.6 56.8-51 101.6-51 133.8 0 230.2 123 230.2 276 0 146.6-119.6 256.2-273.4 256.2-191.4 0-293-128.6-293-268.4 0-65 34.6-146 90-171.8 8.4-4 12.8-2.2 14.8 6 1.4 6.2 9 36.2 12.4 50.4 1 4.4 0.6 8.4-3 12.8-18.4 22.2-33 63.2-33 101.2 0 97.8 74 192.6 200.2 192.6 109 0 185.2-74.2 185.2-180.4 0-120-60.6-203.2-139.4-203.2-43.6 0-76.2 36-65.6 80.2 12.6 52.8 36.8 109.6 36.8 147.6 0 34-18.2 62.4-56.2 62.4-44.6 0-80.2-46-80.2-107.8 0-39.2 13.2-65.8 13.2-65.8s-44-185.8-52-220.4c-9-38.4-5.4-92.2-1.6-127.2-165 64.4-282 224.8-282 412.8 0 245 198.6 443.6 443.6 443.6s443.6-198.6 443.6-443.6c0-245-198.6-443.6-443.6-443.6z" />
</font>
</defs>
</svg>
