<?xml version="1.0" standalone="no"?>
<!DOCTYPE svg PUBLIC "-//W3C//DTD SVG 1.1//EN" "http://www.w3.org/Graphics/SVG/1.1/DTD/svg11.dtd" >
<svg xmlns="http://www.w3.org/2000/svg" xmlns:xlink="http://www.w3.org/1999/xlink" version="1.1">
<metadata>
Created by FontForge 20161003 at Fri Sep 28 13:59:46 2018
 By www-data
Copyright 2017 The Playfair Display Project Authors (https://github.com/clauseggers/Playfair-Display), with Reserved Font Name "Playfair Display".
</metadata>
<defs>
<font id="PlayfairDisplayBlack" horiz-adv-x="0" >
  <font-face 
    font-family="PlayfairDisplayBlack"
    font-weight="900"
    font-stretch="normal"
    units-per-em="1000"
    panose-1="0 0 10 0 0 0 0 0 0 0"
    ascent="800"
    descent="-200"
    x-height="519"
    cap-height="708"
    bbox="-728 -244 1307 1166"
    underline-thickness="20"
    underline-position="-120"
    unicode-range="U+000D-FB02"
  />
<missing-glyph horiz-adv-x="562" 
d="M502 0h-442v772h442v-772zM96 742v-712h370v712h-370z" />
    <glyph glyph-name="IJ" unicode="IJ" horiz-adv-x="798" 
d="M373 688q-32 -2 -46.5 -8t-19.5 -23t-5 -55v-496q0 -38 5.5 -55t19.5 -23t46 -8v-20q-58 3 -167 3q-121 0 -178 -3v20q32 2 46.5 8t19.5 23t5 55v496q0 38 -5.5 55t-19.5 23t-46 8v20q57 -3 178 -3q108 0 167 3v-20zM383 -167q40 6 65.5 25t39.5 66t14 131v547
q0 38 -5.5 55t-19.5 23t-46 8v20q54 -3 167 -3q117 0 178 3v-20q-32 -2 -46.5 -8t-19.5 -23t-5 -55v-366v-83q0 -58 -3.5 -102t-13.5 -76q-24 -73 -101 -118t-204 -45v21z" />
    <glyph glyph-name="ij" unicode="ij" horiz-adv-x="610" 
d="M231.5 760q28.5 -22 28.5 -64t-28.5 -64t-80.5 -22q-53 0 -81 22t-28 64t28 64t81 22q52 0 80.5 -22zM533.5 760q28.5 -22 28.5 -64t-28.5 -64t-80.5 -22q-53 0 -81 22t-28 64t28 64t81 22q52 0 80.5 -22zM548 83q0 -95 -26 -154t-86 -88t-163 -29q-70 0 -112.5 19.5
t-42.5 62.5q0 29 27.5 49t76.5 20q46 0 75 -17t29 -48q0 -25 -18.5 -42t-49.5 -24l24 -1q48 0 67 29t19 95v106q-45 -75 -159 -75q-80 0 -113 40q-15 18 -22 48.5t-7 80.5v255q0 46 -12.5 67t-43.5 21v21q31 -3 62 -3q104 0 174 14v-429q0 -32 11.5 -47.5t37.5 -15.5
q29 0 50.5 20.5t21.5 51.5v300q0 46 -12.5 67t-43.5 21v21q31 -3 62 -3q104 0 174 14v-447z" />
    <glyph glyph-name="fi" unicode="fi" horiz-adv-x="672" 
d="M490 772q37 -10 71 -30q18 -11 31.5 -32t13.5 -44q0 -85 -114 -85q-56 0 -85 21.5t-29 61.5q0 32 23 54.5t65 32.5q-8 4 -25 7.5t-34 3.5q-80 0 -119 -72q-15 -26 -21 -63.5t-6 -108.5h91q93 0 145 2.5t101 9.5v-437q0 -41 14.5 -56.5t51.5 -15.5v-21q-116 4 -151 4
t-151 -4v21q31 0 43.5 15.5t12.5 56.5v317q0 46 -14.5 67t-51.5 21h-91v-405q0 -41 18.5 -56.5t57.5 -15.5v-21l-27 1q-105 3 -134 3q-34 0 -139 -3q-8 -1 -22 -1v21q37 0 51.5 15.5t14.5 56.5v405h-70v20h70q0 116 84 195q37 35 96 52t123 17q69 0 106 -10z" />
    <glyph glyph-name="fl" unicode="fl" horiz-adv-x="676" 
d="M598 93q0 -41 14.5 -56.5t51.5 -15.5v-21q-116 4 -151 4t-151 -4v21q31 0 43.5 15.5t12.5 56.5v601q0 37 -14 53q-13 15 -37 15q-28 0 -45.5 -8.5t-32.5 -27.5q-18 -22 -23 -58.5t-5 -120.5v-29h91v-20h-91v-405q0 -41 18.5 -56.5t57.5 -15.5v-21l-27 1q-105 3 -134 3
q-34 0 -139 -3q-8 -1 -22 -1v21q37 0 51.5 15.5t14.5 56.5v405h-70v20h70q0 73 20 122.5t58 81.5q37 31 85.5 45.5t99.5 14.5q19 0 65 -2q36 -3 79 -3q28 0 110 7v-691z" />
    <glyph glyph-name="f_f" unicode="ff" horiz-adv-x="697" 
d="M774.5 711q10.5 -22 10.5 -49q0 -32 -23.5 -56.5t-59.5 -24.5q-42 0 -66 22t-24 61q0 30 17.5 54t51.5 35q-7 9 -27 9q-31 0 -47 -19q-10 -12 -14.5 -32.5t-4.5 -58.5v-134h107v-20h-107v-395q0 -46 21.5 -64t64.5 -18v-21l-29 1q-120 3 -155 3q-30 0 -138 -4v21
q31 0 43.5 15.5t12.5 56.5v405h-147v-405q0 -41 12.5 -56.5t43.5 -15.5v-21l-24 1q-93 3 -116 3q-36 0 -141 -3q-8 -1 -21 -1v21q37 0 51.5 15.5t14.5 56.5v405h-70v20h70q0 52 20 98t57 76q30 24 73.5 37t96.5 13q74 0 122 -40q11 13 29 30q25 21 65 35.5t84 14.5
q72 0 120 -37q16 -12 26.5 -34zM415 617q7 39 23 66q-36 34 -86 34q-47 0 -69 -27t-22 -86v-86h147q0 60 7 99z" />
    <glyph glyph-name="f_f_i" unicode="ffi" horiz-adv-x="1019" 
d="M959.5 36.5q14.5 -15.5 51.5 -15.5v-21q-116 4 -151 4t-151 -4v21q31 0 43.5 15.5t12.5 56.5v317q0 46 -14.5 67t-51.5 21h-91v-405q0 -41 18.5 -56.5t57.5 -15.5v-21l-27 1q-105 3 -134 3q-34 0 -139 -3q-8 -1 -22 -1v21q37 0 51.5 15.5t14.5 56.5v405h-167v-405
q0 -41 12.5 -56.5t43.5 -15.5v-21l-24 1q-93 3 -116 3q-36 0 -141 -3q-8 -1 -21 -1v21q37 0 51.5 15.5t14.5 56.5v405h-70v20h70q0 52 20 97t57 77q33 30 82 45t108 15q50 0 86.5 -12.5t67.5 -35.5l10 9q40 35 100.5 52t132.5 17q57 0 94.5 -10.5t70.5 -30.5
q18 -11 30.5 -31t12.5 -44q0 -85 -114 -85q-56 0 -85 21.5t-29 61.5q0 32 23 54.5t65 32.5q-8 4 -25 7.5t-34 3.5q-29 0 -53 -10t-40 -25q-34 -32 -43.5 -74.5t-9.5 -134.5h91q93 0 145 2.5t101 9.5v-437q0 -41 14.5 -56.5zM488 689q-50 39 -122 39q-54 0 -79.5 -31.5
t-25.5 -102.5v-76h167q0 102 60 171z" />
    <glyph glyph-name="f_f_l" unicode="ffl" horiz-adv-x="1023" 
d="M959.5 36.5q14.5 -15.5 51.5 -15.5v-21q-116 4 -151 4t-151 -4v21q31 0 43.5 15.5t12.5 56.5v601q0 37 -14 53q-13 15 -37 15q-28 0 -45.5 -8.5t-32.5 -27.5q-17 -22 -22.5 -58.5t-5.5 -115.5v-34h91v-20h-91v-405q0 -41 18.5 -56.5t57.5 -15.5v-21l-27 1q-105 3 -134 3
q-34 0 -139 -3q-8 -1 -22 -1v21q37 0 51.5 15.5t14.5 56.5v405h-167v-405q0 -41 12.5 -56.5t43.5 -15.5v-21q-108 4 -140 4q-36 0 -141 -3q-8 -1 -21 -1v21q37 0 51.5 15.5t14.5 56.5v405h-70v20h70q0 52 20 97t57 77q33 30 82 45t108 15q85 0 145 -42l13 12
q37 31 85.5 45.5t99.5 14.5q19 0 65 -2q36 -3 79 -3q28 0 110 7v-691q0 -41 14.5 -56.5zM480 695q-49 33 -114 33q-54 0 -79.5 -31.5t-25.5 -102.5v-76h167q0 114 52 177z" />
    <glyph glyph-name="f_b.liga" unicode="fb" horiz-adv-x="956" 
d="M876 469q48 -64 48 -187q0 -159 -64 -227.5t-169 -68.5q-32 0 -53.5 2t-39.5 10q-37 15 -77 15q-30 0 -56 -8t-40 -21l-14 10q7 21 7 55v645q0 37 -14 53q-13 15 -37 15q-28 0 -45.5 -8.5t-32.5 -27.5q-18 -22 -23 -58t-5 -119v-31h91v-20h-91v-405q0 -41 18.5 -56.5
t57.5 -15.5v-21l-27 1q-105 3 -134 3q-34 0 -139 -3q-8 -1 -22 -1v21q37 0 51.5 15.5t14.5 56.5v405h-70v20h70q0 73 20 122.5t58 81.5q37 31 85.5 45.5t99.5 14.5q19 0 65 -2q36 -3 79 -3q28 0 110 7v-326q46 75 152 75q78 0 126 -64zM737 259q0 123 -18 172.5t-49 49.5
q-29 0 -50.5 -20.5t-21.5 -51.5v-391q23 -12 47 -12q92 0 92 253z" />
    <glyph glyph-name="f_f_b.liga" unicode="ffb" horiz-adv-x="1303" 
d="M1223 469q48 -64 48 -187q0 -159 -64 -227.5t-169 -68.5q-32 0 -53.5 2t-39.5 10q-37 15 -77 15q-30 0 -56 -8t-40 -21l-14 10q7 21 7 55v645q0 37 -14 53q-13 15 -37 15q-28 0 -45.5 -8.5t-32.5 -27.5q-18 -23 -23 -60.5t-5 -124.5v-23h91v-20h-91v-405
q0 -41 18.5 -56.5t57.5 -15.5v-21l-27 1q-105 3 -134 3q-34 0 -139 -3q-8 -1 -22 -1v21q37 0 51.5 15.5t14.5 56.5v405h-157v-405q0 -41 12.5 -56.5t43.5 -15.5v-21q-13 0 -20 1q-99 3 -130 3q-36 0 -141 -3q-8 -1 -21 -1v21q37 0 51.5 15.5t14.5 56.5v405h-70v20h70
q0 52 20 97t57 77q33 30 82 45t108 15q85 0 145 -42l13 12q37 31 85.5 45.5t99.5 14.5q19 0 65 -2q36 -3 79 -3q28 0 110 7v-326q46 75 152 75q78 0 126 -64zM480 695q-49 33 -114 33q-49 0 -72 -31.5t-23 -102.5v-76h157q0 114 52 177zM1084 259q0 123 -18 172.5t-49 49.5
q-29 0 -50.5 -20.5t-21.5 -51.5v-391q23 -12 47 -12q92 0 92 253z" />
    <glyph glyph-name="f_f_h.liga" unicode="ffh" horiz-adv-x="1313" 
d="M1258.5 36.5q12.5 -15.5 43.5 -15.5v-21q-108 4 -140 4q-34 0 -142 -4v21q26 0 36 15.5t10 56.5v325q0 32 -11.5 47.5t-37.5 15.5q-29 0 -50.5 -20.5t-21.5 -51.5v-316q0 -41 10 -56.5t36 -15.5v-21q-100 4 -132 4q-34 0 -150 -4v21q31 0 43.5 15.5t12.5 56.5v601
q0 37 -14 53q-13 15 -37 15q-28 0 -45.5 -8.5t-32.5 -27.5q-17 -22 -22.5 -57t-5.5 -112v-39h91v-20h-91v-405q0 -41 18.5 -56.5t57.5 -15.5v-21l-27 1q-105 3 -134 3q-34 0 -139 -3q-8 -1 -22 -1v21q37 0 51.5 15.5t14.5 56.5v405h-167v-405q0 -41 12.5 -56.5t43.5 -15.5
v-21l-24 1q-93 3 -116 3q-36 0 -141 -3q-8 -1 -21 -1v21q37 0 51.5 15.5t14.5 56.5v405h-70v20h70q0 52 20 97t57 77q33 30 82 45t108 15q85 0 145 -42l13 12q37 31 85.5 45.5t99.5 14.5q19 0 65 -2q36 -3 79 -3q28 0 110 7v-326q45 75 159 75q80 0 113 -40q15 -18 22 -48.5
t7 -80.5v-271q0 -41 12.5 -56.5zM480 695q-49 33 -114 33q-54 0 -79.5 -31.5t-25.5 -102.5v-76h167q0 114 52 177z" />
    <glyph glyph-name="f_f_j.liga" unicode="ffj" horiz-adv-x="1005" 
d="M699 518q93 0 145 2.5t101 9.5v-450q0 -86 -16 -134t-55 -84q-26 -24 -69 -37t-123 -13q-62 0 -106 14q-29 9 -45 25.5t-16 38.5q0 29 27.5 51t76.5 22q46 0 75 -17t29 -48q0 -24 -18 -40t-49 -23q12 -2 30 -2q47 0 67 49q12 28 12 151v47v330q0 46 -14.5 67t-51.5 21
h-91v-405q0 -41 18.5 -56.5t57.5 -15.5v-21l-27 1q-105 3 -134 3q-34 0 -139 -3q-8 -1 -22 -1v21q37 0 51.5 15.5t14.5 56.5v405h-157v-405q0 -41 12.5 -56.5t43.5 -15.5v-21q-13 0 -20 1q-99 3 -130 3q-36 0 -141 -3q-8 -1 -21 -1v21q37 0 51.5 15.5t14.5 56.5v405h-70v20
h70q0 51 20.5 96t56.5 78q34 30 83 45t107 15q50 0 86.5 -12.5t67.5 -36.5l10 10q37 35 96 52t123 17q69 0 106 -10t71 -30q18 -11 31.5 -32t13.5 -44q0 -85 -114 -85q-56 0 -85 21.5t-29 61.5q0 32 23 54.5t65 32.5q-8 4 -25 7.5t-34 3.5q-80 0 -119 -72q-15 -26 -21 -63.5
t-6 -108.5h91zM489 688q-53 40 -123 40q-49 0 -72 -31.5t-23 -102.5v-76h157q0 100 61 170z" />
    <glyph glyph-name="f_f_k.liga" unicode="ffk" horiz-adv-x="1299" 
d="M1271 56q7 -13 14.5 -21.5t16.5 -13.5v-21q-92 4 -121 4q-33 0 -141 -4v21q29 0 29 19q0 7 -4 15l-88 186q-6 11 -13.5 16t-18.5 6v-170q0 -41 14.5 -56.5t51.5 -15.5v-21q-116 4 -151 4t-151 -4v21q31 0 43.5 15.5t12.5 56.5v601q0 37 -14 53q-13 15 -37 15
q-28 0 -45.5 -8.5t-32.5 -27.5q-18 -22 -23 -58.5t-5 -118.5v-31h91v-20h-91v-405q0 -41 18.5 -56.5t57.5 -15.5v-21l-27 1q-105 3 -134 3q-34 0 -139 -3q-8 -1 -22 -1v21q37 0 51.5 15.5t14.5 56.5v405h-157v-405q0 -41 12.5 -56.5t43.5 -15.5v-21q-13 0 -20 1
q-99 3 -130 3q-36 0 -141 -3q-8 -1 -21 -1v21q37 0 51.5 15.5t14.5 56.5v405h-70v20h70q0 52 20 97t57 77q33 30 82 45t108 15q85 0 145 -42l13 12q37 31 85.5 45.5t99.5 14.5q19 0 65 -2q36 -3 79 -3q28 0 110 7v-502q28 0 43 15l77 72q35 32 35 65q0 26 -22.5 44t-57.5 21
v20q57 -3 120 -3q98 0 137 3v-20q-69 -19 -148 -98l-26 -26l159 -302q2 -4 9 -17zM480 695q-49 33 -114 33q-49 0 -72 -31.5t-23 -102.5v-76h157q0 114 52 177z" />
    <glyph glyph-name="f_h.liga" unicode="fh" horiz-adv-x="966" 
d="M598 458q45 75 159 75q80 0 113 -40q15 -18 22 -48.5t7 -80.5v-271q0 -41 12.5 -56.5t43.5 -15.5v-21q-108 4 -140 4q-34 0 -142 -4v21q26 0 36 15.5t10 56.5v325q0 32 -11.5 47.5t-37.5 15.5q-29 0 -50.5 -20.5t-21.5 -51.5v-316q0 -41 10 -56.5t36 -15.5v-21
q-100 4 -132 4q-34 0 -150 -4v21q31 0 43.5 15.5t12.5 56.5v601q0 37 -14 53q-13 15 -37 15q-28 0 -45.5 -8.5t-32.5 -27.5q-18 -23 -23 -60.5t-5 -124.5v-23h91v-20h-91v-405q0 -41 18.5 -56.5t57.5 -15.5v-21l-27 1q-105 3 -134 3q-34 0 -139 -3q-8 -1 -22 -1v21
q37 0 51.5 15.5t14.5 56.5v405h-70v20h70q0 73 20 122.5t58 81.5q37 31 85.5 45.5t99.5 14.5q19 0 65 -2q36 -3 79 -3q28 0 110 7v-326z" />
    <glyph glyph-name="f_idieresis.liga" unicode="f&#xef;" horiz-adv-x="672" 
d="M612.5 36.5q14.5 -15.5 51.5 -15.5v-21q-116 4 -151 4t-151 -4v21q31 0 43.5 15.5t12.5 56.5v317q0 46 -14.5 67t-51.5 21h-91v-405q0 -41 18.5 -56.5t57.5 -15.5v-21l-27 1q-105 3 -134 3q-34 0 -139 -3q-8 -1 -22 -1v21q37 0 51.5 15.5t14.5 56.5v405h-70v20h70
q0 137 63 197q70 67 181 67q90 0 123 -28.5t33 -68.5q0 -36 -26 -61.5t-61 -25.5q-36 0 -61.5 25.5t-25.5 61.5q0 25 13.5 46t36.5 32q-5 1 -16 1q-35 0 -51.5 -13t-22.5 -42t-6 -87v-104h91q93 0 145 2.5t101 9.5v-437q0 -41 14.5 -56.5zM693 746q26 -26 26 -61
q0 -36 -26 -61.5t-61 -25.5q-36 0 -61.5 25.5t-25.5 61.5q0 35 25.5 61t61.5 26q35 0 61 -26z" />
    <glyph glyph-name="f_igrave.liga" unicode="f&#xec;" horiz-adv-x="672" 
d="M612.5 36.5q14.5 -15.5 51.5 -15.5v-21q-116 4 -151 4t-151 -4v21q31 0 43.5 15.5t12.5 56.5v317q0 46 -14.5 67t-51.5 21h-91v-405q0 -41 18.5 -56.5t57.5 -15.5v-21l-27 1q-105 3 -134 3q-34 0 -139 -3q-8 -1 -22 -1v21q37 0 51.5 15.5t14.5 56.5v405h-70v20h70
q0 118 63 177q30 29 68.5 40t85.5 11q37 0 73 -12q-13 20 -13 40q0 28 21 46q19 16 43 16q16 0 31 -6.5t24 -17.5q12 -14 19 -30t16 -46q13 -40 22.5 -66t27.5 -62l-11 -9q-47 39 -83 62t-44 28q-26 16 -45 23t-41 7q-39 0 -58 -31q-19 -30 -19 -86v-84h91q93 0 145 2.5
t101 9.5v-437q0 -41 14.5 -56.5z" />
    <glyph glyph-name="f_j.liga" unicode="fj" horiz-adv-x="658" 
d="M490 772q37 -10 71 -30q18 -11 31.5 -32t13.5 -44q0 -85 -114 -85q-56 0 -85 21.5t-29 61.5q0 32 23 54.5t65 32.5q-8 4 -25 7.5t-34 3.5q-80 0 -119 -72q-15 -26 -21 -63.5t-6 -108.5h91q93 0 145 2.5t101 9.5v-450q0 -86 -16 -134t-55 -84q-26 -24 -69 -37t-123 -13
q-62 0 -106 14q-29 9 -45 25.5t-16 38.5q0 29 27.5 51t76.5 22q46 0 75 -17t29 -48q0 -24 -18 -40t-49 -23q12 -2 30 -2q47 0 67 49q12 28 12 151v47v330q0 46 -14.5 67t-51.5 21h-91v-405q0 -41 18.5 -56.5t57.5 -15.5v-21l-27 1q-105 3 -134 3q-34 0 -139 -3q-8 -1 -22 -1
v21q37 0 51.5 15.5t14.5 56.5v405h-70v20h70q0 116 84 195q37 35 96 52t123 17q69 0 106 -10z" />
    <glyph glyph-name="f_k.liga" unicode="fk" horiz-adv-x="952" 
d="M924 56q7 -13 14.5 -21.5t16.5 -13.5v-21q-92 4 -121 4q-33 0 -141 -4v21q29 0 29 19q0 7 -4 15l-88 186q-6 11 -13.5 16t-18.5 6v-170q0 -41 14.5 -56.5t51.5 -15.5v-21q-116 4 -151 4t-151 -4v21q31 0 43.5 15.5t12.5 56.5v601q0 37 -14 53q-13 15 -37 15
q-28 0 -45.5 -8.5t-32.5 -27.5q-18 -22 -23 -59t-5 -122v-27h91v-20h-91v-405q0 -41 18.5 -56.5t57.5 -15.5v-21l-27 1q-105 3 -134 3q-34 0 -139 -3q-8 -1 -22 -1v21q37 0 51.5 15.5t14.5 56.5v405h-70v20h70q0 73 20 122.5t58 81.5q37 31 85.5 45.5t99.5 14.5q19 0 65 -2
q36 -3 79 -3q28 0 110 7v-502q28 0 43 15l77 72q35 32 35 65q0 26 -22.5 44t-57.5 21v20q57 -3 120 -3q98 0 137 3v-20q-69 -19 -148 -98l-26 -26l159 -302q2 -4 9 -17z" />
    <glyph glyph-name=".notdef" horiz-adv-x="562" 
d="M502 0h-442v772h442v-772zM96 742v-712h370v712h-370z" />
    <glyph glyph-name=".null" 
 />
    <glyph glyph-name="nonmarkingreturn" unicode="&#xd;" horiz-adv-x="223" 
 />
    <glyph glyph-name="NULL" 
 />
    <glyph glyph-name="NULL" 
 />
    <glyph glyph-name="space" unicode=" " horiz-adv-x="223" 
 />
    <glyph glyph-name="exclam" unicode="!" horiz-adv-x="306" 
d="M227.5 747q31.5 -35 31.5 -91q0 -38 -10 -82t-31 -110q-25 -83 -39 -142.5t-17 -125.5h-18q-3 66 -17 125.5t-39 142.5q-21 66 -31 110t-10 82q0 57 29.5 91.5t76.5 34.5q43 0 74.5 -35zM226.5 136q25.5 -22 25.5 -64t-25.5 -64t-73.5 -22t-73.5 22t-25.5 64t25.5 64
t73.5 22t73.5 -22z" />
    <glyph glyph-name="quotedbl" unicode="&#x22;" horiz-adv-x="417" 
d="M169 708q23 -22 23 -58q0 -22 -7.5 -41.5t-23.5 -49.5q-25 -44 -43 -91h-14q-17 43 -41 85q-18 33 -25.5 52.5t-7.5 43.5q0 36 23 58.5t58 22.5t58 -22zM364 708q23 -22 23 -58q0 -22 -7.5 -41.5t-23.5 -49.5q-25 -44 -43 -91h-14q-17 43 -41 85q-18 33 -25.5 52.5
t-7.5 43.5q0 36 23 58.5t58 22.5t58 -22z" />
    <glyph glyph-name="numbersign" unicode="#" horiz-adv-x="609" 
d="M424 434l-32 -167h147l-4 -20h-147l-28 -146h-20l28 146h-167l-28 -146h-20l28 146h-147l4 20h147l32 167h-146l3 20h147l29 148h20l-29 -148h167l29 148h20l-29 -148h147l-3 -20h-148zM404 434h-167l-32 -167h167z" />
    <glyph glyph-name="dollar" unicode="$" horiz-adv-x="608" 
d="M521 55.5q-54 -48.5 -143 -63.5v-124h-20v121q-27 -3 -55 -3q-21 0 -31 1v-119h-20v121q-34 4 -57.5 11.5t-37 13.5t-17.5 8q-13 6 -26 10.5t-22 4.5t-14 -10.5t-8 -33.5h-23q4 68 4 290h23q9 -98 29 -154.5t55.5 -83t93.5 -33.5v271l-22 15q-58 38 -94.5 69.5t-60 72.5
t-23.5 93q0 82 56 128.5t144 57.5v121h20v-119q9 1 28 1q35 0 58 -4v122h20v-125q39 -8 84 -33q11 -6 19.5 -10t14.5 -4q9 0 14 10.5t8 33.5h23q-5 -72 -5 -244h-23q-15 98 -45 152.5t-90 70.5v-258l35 -23q53 -34 87 -64.5t54.5 -70t20.5 -91.5q0 -80 -54 -128.5zM272 693
v-183q27 -23 86 -63v248q-16 3 -37 3q-26 0 -49 -5zM211 576q8 -19 41 -49v160q-49 -18 -49 -68q0 -24 8 -43zM358 14v191q-42 32 -86 63v-257q10 -1 30 -1q24 0 56 4zM440 93q0 16 -3.5 27.5t-16.5 27.5t-42 40v-169q62 18 62 74z" />
    <glyph glyph-name="percent" unicode="%" horiz-adv-x="719" 
d="M665 811l-585 -866l-19 13l585 866zM328 717.5q47 -43.5 47 -119.5q0 -50 -22 -88t-61 -59t-88 -21q-77 0 -124.5 43.5t-47.5 119.5q0 49 22.5 87.5t61.5 59.5t88 21q77 0 124 -43.5zM145 594q0 -72 16 -109t45 -37q56 0 56 148q0 73 -15.5 110t-44.5 37q-57 0 -57 -149z
M640 273.5q47 -43.5 47 -119.5q0 -50 -22 -88t-61 -59t-88 -21q-77 0 -124.5 43.5t-47.5 119.5q0 49 22.5 87.5t61.5 59.5t88 21q77 0 124 -43.5zM457 150q0 -72 16 -109t45 -37q56 0 56 148q0 73 -15.5 110t-44.5 37q-57 0 -57 -149z" />
    <glyph glyph-name="ampersand" unicode="&#x26;" horiz-adv-x="938" 
d="M877.5 457q-48.5 -45 -143.5 -68q31 -20 49.5 -61.5t18.5 -92.5q0 -75 -47.5 -131.5t-132 -87t-192.5 -30.5q-125 0 -214.5 30t-136 86t-46.5 133q0 69 38 116.5t86.5 72t90.5 34.5q-55 20 -88 48.5t-33 75.5t33.5 76.5t83.5 43t102 13.5q37 0 60 -3.5t44 -10.5
q31 -10 53.5 -32t22.5 -57q0 -34 -26.5 -55t-64.5 -21t-62 18t-24 52q0 28 19.5 51.5t51.5 31.5q-22 8 -59 8q-57 0 -94 -35.5t-37 -103.5q0 -52 31 -94q33 9 52 9q17 0 26 -8t9 -21q0 -10 -8 -16t-20 -6q-25 0 -58 28q-44 -31 -67 -68.5t-23 -91.5q0 -94 77.5 -137
t229.5 -43q68 0 133.5 19t108 57t42.5 92q0 31 -8 58.5t-37 48.5l-67 -12l-72 -12q-113 -20 -162 -42t-49 -61q0 -35 36 -58t83 -23q11 0 27 2q-53 19 -53 75q0 36 27 55.5t70 19.5q44 0 68.5 -20.5t24.5 -56.5q0 -48 -41.5 -71t-115.5 -23t-119.5 35.5t-45.5 100.5
q0 91 72 140t208 69q28 4 41 7l46 7q98 16 145.5 37.5t47.5 63.5q0 37 -34 60.5t-77 23.5q-11 0 -27 -2q30 -11 46 -31.5t16 -43.5q0 -36 -26 -55t-69 -19q-44 0 -69.5 21t-25.5 56q0 43 33.5 68.5t101.5 25.5q77 0 122.5 -38.5t45.5 -106.5q0 -75 -48.5 -120z" />
    <glyph glyph-name="quotesingle" unicode="'" horiz-adv-x="222" 
d="M169 708q23 -22 23 -58q0 -22 -7.5 -41.5t-23.5 -49.5q-25 -44 -43 -91h-14q-17 43 -41 85q-18 33 -25.5 52.5t-7.5 43.5q0 36 23 58.5t58 22.5t58 -22z" />
    <glyph glyph-name="parenleft" unicode="(" horiz-adv-x="334" 
d="M97 599q-68 -120 -68 -287t68 -287t202 -207l15 12q-57 115 -84 229t-27 253t27.5 255t83.5 227l-15 12q-134 -87 -202 -207z" />
    <glyph glyph-name="parenright" unicode=")" horiz-adv-x="334" 
d="M237 599q68 -120 68 -287t-68 -287t-202 -207l-15 12q57 115 84 229t27 253t-27.5 255t-83.5 227l15 12q134 -87 202 -207z" />
    <glyph glyph-name="asterisk" unicode="*" horiz-adv-x="473" 
d="M429 445q0 -17 -9 -32q-18 -31 -45 -31q-14 0 -30 9q-15 9 -28 23.5t-39 48.5q-23 32 -36 48q6 -17 22 -53q16 -37 23 -58t7 -39q0 -28 -16.5 -41t-39.5 -13q-24 0 -40.5 13t-16.5 41q0 18 7 39t24 59l21 51l-36 -47q-22 -30 -37 -47t-30 -26q-17 -9 -29 -9
q-15 0 -27 8.5t-19 22.5q-10 17 -10 33q0 26 28 43q16 9 37.5 13.5t60.5 8.5l58 7q-12 2 -26 3.5t-30 4.5q-41 5 -63 9t-37 13q-28 16 -28 44q0 17 9 32q18 31 45 31q14 0 30 -9q15 -9 28 -23.5t39 -48.5q23 -32 36 -48q-6 17 -22 53q-16 37 -23 58t-7 39q0 28 16.5 41
t40.5 13t40 -13t16 -41q0 -18 -7 -38t-22 -54l-23 -57l36 47q22 30 37 47t30 26q17 9 29 9q15 0 27 -8.5t19 -22.5q10 -17 10 -33q0 -26 -28 -43q-16 -9 -37 -13t-59 -9l-57 -7q64 -10 55 -8q40 -5 61.5 -9t36.5 -13q28 -16 28 -44z" />
    <glyph glyph-name="plus" unicode="+" horiz-adv-x="565" 
d="M301 370h232v-30h-232v-235h-36v235h-233v30h233v236h36v-236z" />
    <glyph glyph-name="comma" unicode="," horiz-adv-x="278" 
d="M214 121q11 -15 18 -40t7 -55q0 -52 -27 -96t-79 -68l-9 18q26 12 46.5 34.5t28.5 47.5q5 14 5 33q0 15 -2 22q-26 -31 -73 -31q-40 0 -64 22.5t-24 63.5q0 39 26 62.5t68 23.5q54 0 79 -37z" />
    <glyph glyph-name="hyphen" unicode="-" horiz-adv-x="469" 
d="M415 222h-361v99h361v-99z" />
    <glyph glyph-name="period" unicode="." horiz-adv-x="282" 
d="M214.5 136q25.5 -22 25.5 -64t-25.5 -64t-73.5 -22t-73.5 22t-25.5 64t25.5 64t73.5 22t73.5 -22z" />
    <glyph glyph-name="slash" unicode="/" horiz-adv-x="366" 
d="M64 -14h-33l272 736h33z" />
    <glyph glyph-name="zero" unicode="0" horiz-adv-x="675" 
d="M494.5 500q66.5 -33 103.5 -93.5t37 -138.5q0 -80 -38 -144t-107 -101t-158 -37q-84 0 -150.5 33t-104 93.5t-37.5 139.5t38 143t106.5 101t158.5 37q85 0 151.5 -33zM278.5 483.5q-24.5 -31.5 -38 -90t-13.5 -138.5q0 -127 32 -189t82 -62q31 0 55.5 31.5t38 90.5
t13.5 139q0 127 -32 188.5t-82 61.5q-31 0 -55.5 -31.5z" />
    <glyph glyph-name="one" unicode="1" horiz-adv-x="392" 
d="M302 93q0 -41 12.5 -56.5t43.5 -15.5v-21q-108 4 -138 4q-35 0 -155 -3l-29 -1v21q43 0 64.5 18t21.5 64v246q0 48 -7.5 70.5t-25 30t-53.5 7.5v22q97 2 158.5 13.5t107.5 37.5v-437z" />
    <glyph glyph-name="two" unicode="2" horiz-adv-x="553" 
d="M426 499q48 -34 48 -94q0 -40 -25 -73.5t-60 -58.5t-93 -59q-72 -41 -102 -67h226q27 0 40.5 3.5t18.5 12t8 25.5h23q0 -136 4 -193q-22 5 -149 5h-329v21q-4 -4 44 41q57 51 97 93t70 96.5t30 113.5q0 51 -22 74.5t-67 23.5q-42 0 -74 -17t-60 -50l-17 12
q39 59 100.5 92t157.5 33q83 0 131 -34z" />
    <glyph glyph-name="three" unicode="3" horiz-adv-x="512" 
d="M395 502q53 -31 53 -85q0 -58 -62.5 -103.5t-176.5 -61.5q12 1 35 1q110 0 175 -41.5t65 -112.5q0 -73 -68 -130.5t-175 -88.5t-217 -31v21q63 3 126.5 30t106 77.5t42.5 120.5q0 59 -28 96.5t-76 41.5q-20 -9 -31.5 -13t-23.5 -4q-10 0 -15 3.5t-5 12.5q0 12 10 17.5
t26 5.5q10 0 19 -1t16 -2q77 50 77 127q0 43 -23.5 65t-66.5 22q-39 0 -72.5 -18.5t-56.5 -52.5l-18 10q34 57 87 91t141 34q83 0 136 -31z" />
    <glyph glyph-name="four" unicode="4" horiz-adv-x="550" 
d="M423 23v-164h-140v165h-281v21l405 488h16v-382h6q27 0 40.5 3.5t18.5 12t8 25.5h23q0 -121 4 -173q-22 4 -100 4zM283 151v201l-166 -201h166z" />
    <glyph glyph-name="five" unicode="5" horiz-adv-x="489" 
d="M423 366q-21 5 -139 5h-186l-19 -156q28 21 72.5 33.5t101.5 12.5q102 0 154.5 -45t52.5 -115q0 -74 -64 -131t-166 -87.5t-210 -30.5v18q65 1 123.5 28.5t95 78.5t36.5 120q0 62 -27 95t-80 33q-29 0 -51.5 -9.5t-44.5 -27.5l-16 11l40 323q20 -4 54 -4h199q22 0 33.5 7
t13.5 24h23q0 -128 4 -183z" />
    <glyph glyph-name="six" unicode="6" horiz-adv-x="591" 
d="M464 415.5q47 -26.5 74.5 -75.5t27.5 -114q0 -75 -36.5 -129.5t-98 -82.5t-134.5 -28q-120 0 -187.5 75t-67.5 210q0 139 69 236t169.5 149t200.5 67l4 -20q-66 -21 -114 -51.5t-84.5 -94.5t-50.5 -171q38 56 123 56q58 0 105 -26.5zM358.5 58.5q20.5 52.5 20.5 158.5
q0 101 -19 148.5t-51 47.5q-19 0 -41.5 -17t-35.5 -50q-3 -39 -3 -85q0 -90 11.5 -147t29.5 -82.5t38 -25.5q30 0 50.5 52.5z" />
    <glyph glyph-name="seven" unicode="7" horiz-adv-x="488" 
d="M492 497q-9 -19 -47 -87q-41 -74 -66.5 -126.5t-45 -120.5t-19.5 -141q1 -10 3 -36t2 -46q0 -36 -23 -62t-68 -26t-68 29t-23 80q0 53 29 110.5t69 108t105 123.5q26 29 60 68h-285q-27 0 -40.5 -3.5t-18.5 -12t-8 -25.5h-23q0 136 -4 193q22 -5 149 -5h322v-21z" />
    <glyph glyph-name="eight" unicode="8" horiz-adv-x="588" 
d="M390 419q54 -50 86.5 -85t55 -76t22.5 -85q0 -53 -34.5 -96t-95 -67t-135.5 -24q-69 0 -126 20t-91.5 59.5t-34.5 93.5q0 62 44 106t121 75q-64 57 -98 106t-34 109q0 83 67 125t164 42q64 0 113.5 -18.5t76.5 -51t27 -72.5q0 -46 -35.5 -80t-109.5 -66zM252.5 686
q-14.5 -18 -14.5 -49q0 -46 31 -90.5t89 -99.5q11 25 15.5 62t4.5 66q0 62 -22 95.5t-61 33.5q-28 0 -42.5 -18zM358 29.5q21 25.5 21 66.5q0 43 -22 81.5t-51 67.5t-89 82q-32 -52 -32 -148q0 -175 109 -175q43 0 64 25.5z" />
    <glyph glyph-name="nine" unicode="9" horiz-adv-x="582" 
d="M479.5 458q67.5 -75 67.5 -210q0 -123 -67.5 -210t-166 -133.5t-195.5 -58.5l-4 20q61 17 106 43.5t80 79.5t50 140q-19 -27 -50 -39.5t-70 -12.5q-58 0 -105 26.5t-74.5 75.5t-27.5 114q0 75 36.5 129.5t98 82.5t134.5 28q120 0 187.5 -75zM321 122q22 16 35 48
q4 36 4 88q0 90 -11.5 147t-29.5 82.5t-38 25.5q-30 0 -50.5 -52.5t-20.5 -158.5q0 -101 19 -148.5t51 -47.5q19 0 41 16z" />
    <glyph glyph-name="colon" unicode=":" horiz-adv-x="306" 
d="M226.5 511q25.5 -22 25.5 -64t-25.5 -64t-73.5 -22t-73.5 22t-25.5 64t25.5 64t73.5 22t73.5 -22zM226.5 136q25.5 -22 25.5 -64t-25.5 -64t-73.5 -22t-73.5 22t-25.5 64t25.5 64t73.5 22t73.5 -22z" />
    <glyph glyph-name="semicolon" unicode=";" horiz-adv-x="304" 
d="M226 121q11 -15 18 -40t7 -55q0 -52 -27 -96t-79 -68l-9 18q26 12 46.5 34.5t28.5 47.5q5 14 5 33q0 15 -2 22q-26 -31 -73 -31q-40 0 -64 22.5t-24 63.5q0 39 26 62.5t68 23.5q54 0 79 -37zM225.5 511q25.5 -22 25.5 -64t-25.5 -64t-73.5 -22t-73.5 22t-25.5 64t25.5 64
t73.5 22t73.5 -22z" />
    <glyph glyph-name="less" unicode="&#x3c;" horiz-adv-x="598" 
d="M531 546l-409 -191l409 -191l-17 -36l-487 227l487 227z" />
    <glyph glyph-name="equal" unicode="=" horiz-adv-x="627" 
d="M564 410h-501v30h501v-30zM564 270h-501v30h501v-30z" />
    <glyph glyph-name="greater" unicode="&#x3e;" horiz-adv-x="598" 
d="M67 546l409 -191l-409 -191l17 -36l487 227l-487 227z" />
    <glyph glyph-name="question" unicode="?" horiz-adv-x="540" 
d="M387 760.5q59 -21.5 91.5 -62.5t32.5 -96q0 -82 -73.5 -139t-201.5 -83v-146h-20v155q69 34 92.5 80.5t23.5 113.5q0 91 -30 135t-81 44q-28 0 -49 -5t-30 -14q33 -12 49 -33.5t16 -54.5q0 -36 -26.5 -60t-69.5 -24q-36 0 -59 23.5t-23 56.5q0 34 17 56.5t47 39.5
q28 16 68.5 25.5t89.5 9.5q77 0 136 -21.5zM301.5 136q25.5 -22 25.5 -64t-25.5 -64t-73.5 -22t-73.5 22t-25.5 64t25.5 64t73.5 22t73.5 -22z" />
    <glyph glyph-name="at" unicode="@" horiz-adv-x="888" 
d="M473 97q0 15 3 30q-47 -101 -137 -101q-54 0 -89 33t-35 103q0 68 33 142.5t88.5 124t118.5 49.5q33 0 53.5 -18t27.5 -45l10 49q94 0 151 14l-76 -357q-5 -25 -5 -39q0 -21 13 -21q4 0 16 5q46 22 90 67t73 111.5t29 149.5q0 131 -84.5 193.5t-216.5 62.5
q-123 0 -232.5 -69.5t-175.5 -186t-66 -249.5q0 -147 84 -217.5t226 -70.5q116 0 206 54l7 -13q-39 -27 -94 -43t-120 -16q-151 0 -240 75.5t-89 228.5q0 134 66.5 255t179.5 195.5t247 74.5q144 0 233 -68t89 -207q0 -107 -46 -190.5t-116 -130t-138 -46.5q-84 0 -84 71z
M452.5 115q20.5 29 41.5 90l34 169q1 22 -8.5 41.5t-26.5 19.5q-25 0 -53.5 -40.5t-48 -104.5t-19.5 -130q0 -42 8.5 -58t25.5 -16q26 0 46.5 29z" />
    <glyph glyph-name="A" unicode="A" horiz-adv-x="692" 
d="M668.5 36.5q15.5 -15.5 30.5 -16.5v-20q-72 3 -182 3q-114 0 -168 -3v20q38 2 54 9.5t16 26.5q0 18 -12 48l-59 164h-202l-17 -45q-33 -85 -33 -130q0 -41 23 -56t68 -17v-20q-75 3 -131 3q-47 0 -77 -3v20q25 4 47 31t45 86l222 571q32 -2 53 -2q20 0 52 2l242 -624
q13 -32 28.5 -47.5zM341 288l-91 250l-96 -250h187z" />
    <glyph glyph-name="B" unicode="B" horiz-adv-x="704" 
d="M562.5 340q63.5 -26 92.5 -64.5t29 -81.5q0 -98 -78 -146t-222 -48q-29 0 -49 1q-68 2 -133 2q-117 0 -174 -3v20q32 2 46.5 8t19.5 23t5 55v496q0 38 -5.5 55t-19.5 23t-46 8v20q57 -3 172 -3l115 1q20 1 46 1q132 0 201.5 -42.5t69.5 -114.5q0 -37 -26 -74.5t-78 -65.5
t-127 -37v-2q98 -5 161.5 -31zM321.5 681q-11.5 -7 -15.5 -25t-4 -54v-226h27q54 0 75.5 44.5t21.5 118.5q0 76 -16.5 112.5t-53.5 36.5q-23 0 -34.5 -7zM474 198q0 79 -38 120t-120 41h-14v-253q0 -36 5 -53t18.5 -23.5t41.5 -6.5q107 0 107 175z" />
    <glyph glyph-name="C" unicode="C" horiz-adv-x="717" 
d="M516 705q42 -17 82 -48q10 -9 19 -9q20 0 26 60h23q-4 -71 -4 -250h-23q-7 80 -26 126t-66 77q-47 30 -93 30q-104 0 -146 -100t-42 -239t42 -239t146 -100q46 0 93 30q47 29 66 78t26 139h23q0 -187 4 -260h-23q-3 32 -8.5 45.5t-15.5 13.5q-8 0 -21 -8
q-45 -32 -86 -48.5t-99 -16.5q-113 0 -198 43t-132 124.5t-47 194.5q0 110 48 195t134 132t196 47q60 0 102 -17z" />
    <glyph glyph-name="D" unicode="D" horiz-adv-x="811" 
d="M671 619.5q103 -88.5 103 -257.5q0 -109 -50.5 -190.5t-145.5 -126.5t-226 -45l-62 1q-60 2 -88 2q-117 0 -174 -3v20q32 2 46.5 8t19.5 23t5 55v496q0 38 -5.5 55t-19.5 23t-46 8v20q46 -3 136 -3h36l44 1q84 2 117 2q207 0 310 -88.5zM329.5 683q-15.5 -7 -21.5 -25
t-6 -54v-500q0 -36 6 -54t21.5 -25t47.5 -7q99 0 143 85.5t44 254.5t-45.5 250.5t-142.5 81.5q-31 0 -46.5 -7z" />
    <glyph glyph-name="E" unicode="E" horiz-adv-x="650" 
d="M607 0q-68 3 -229 3q-234 0 -350 -3v20q32 2 46.5 8t19.5 23t5 55v496q0 38 -5.5 55t-19.5 23t-46 8v20q116 -3 350 -3q147 0 209 3q-7 -94 -7 -168q0 -46 3 -72h-23q-18 116 -67 166.5t-117 50.5h-13q-27 0 -39.5 -4.5t-17 -17t-4.5 -41.5v-256h10q52 0 89 41t47 91h23
q-3 -42 -3 -94v-48q0 -51 6 -142h-23q-9 57 -46.5 94.5t-92.5 37.5h-10v-260q0 -29 4.5 -41.5t17 -17t39.5 -4.5h33q58 0 110 56.5t74 180.5h23q-3 -36 -3 -92q0 -102 7 -168z" />
    <glyph glyph-name="F" unicode="F" horiz-adv-x="608" 
d="M580 540q0 -46 3 -72h-23q-24 116 -73.5 166.5t-110.5 50.5h-13q-27 0 -39.5 -4.5t-17 -17t-4.5 -41.5v-256h10q52 0 89 41t47 91h23q-3 -42 -3 -94v-48q0 -51 6 -142h-23q-9 57 -46.5 94.5t-92.5 37.5h-10v-230q0 -42 8.5 -61t31 -25.5t71.5 -6.5v-23q-135 3 -206 3
q-47 0 -131 -2l-48 -1v20q32 2 46.5 8t19.5 23t5 55v496q0 38 -5.5 55t-19.5 23t-46 8v20q116 -3 350 -3q147 0 209 3q-7 -94 -7 -168z" />
    <glyph glyph-name="G" unicode="G" horiz-adv-x="756" 
d="M534 705q46 -17 84 -48q11 -9 20 -9q10 0 16 14.5t9 45.5h23q-4 -71 -4 -250h-23q-7 79 -26 125t-66 78q-21 14 -48.5 22t-54.5 8q-72 0 -116.5 -50.5t-63 -127.5t-18.5 -161q0 -174 42.5 -260t118.5 -86q31 0 49 12q21 15 21 50v100q0 50 -8 73.5t-28.5 32t-64.5 10.5
v20q68 -3 191 -3q103 0 154 3v-20q-18 -2 -26.5 -8t-11.5 -23t-3 -55v-198h-20q-1 21 -9 39t-22 18q-21 0 -68 -23q-100 -48 -169 -48q-186 0 -281 94t-95 268q0 110 49.5 195t137.5 132t201 47q64 0 110 -17z" />
    <glyph glyph-name="H" unicode="H" horiz-adv-x="829" 
d="M754.5 680q-14.5 -6 -19.5 -23t-5 -55v-496q0 -38 5.5 -55t19.5 -23t46 -8v-20q-54 3 -168 3q-115 0 -177 -3v20q32 2 46.5 8t19.5 23t5 55v240h-225v-240q0 -38 5.5 -55t19.5 -23t46 -8v-20q-58 3 -167 3q-121 0 -178 -3v20q32 2 46.5 8t19.5 23t5 55v496q0 38 -5.5 55
t-19.5 23t-46 8v20q57 -3 178 -3q108 0 167 3v-20q-32 -2 -46.5 -8t-19.5 -23t-5 -55v-236h225v236q0 38 -5.5 55t-19.5 23t-46 8v20q62 -3 177 -3q114 0 168 3v-20q-32 -2 -46.5 -8z" />
    <glyph glyph-name="I" unicode="I" horiz-adv-x="401" 
d="M373 688q-32 -2 -46.5 -8t-19.5 -23t-5 -55v-496q0 -38 5.5 -55t19.5 -23t46 -8v-20q-58 3 -167 3q-121 0 -178 -3v20q32 2 46.5 8t19.5 23t5 55v496q0 38 -5.5 55t-19.5 23t-46 8v20q57 -3 178 -3q108 0 167 3v-20z" />
    <glyph glyph-name="J" unicode="J" horiz-adv-x="390" 
d="M-25 -167q40 6 65.5 25t39.5 66t14 131v547q0 38 -5.5 55t-19.5 23t-46 8v20q54 -3 167 -3q117 0 178 3v-20q-32 -2 -46.5 -8t-19.5 -23t-5 -55v-366v-83q0 -58 -3.5 -102t-13.5 -76q-24 -73 -101 -118t-204 -45v21z" />
    <glyph glyph-name="K" unicode="K" horiz-adv-x="754" 
d="M736 44.5q13 -13.5 34 -24.5v-20q-84 3 -180 3q-74 0 -143 -3v20q32 2 44.5 5.5t12.5 13.5t-10 26l-145 245q-14 24 -23.5 33t-23.5 11v-248q0 -38 5.5 -55t19.5 -23t46 -8v-20q-58 3 -167 3q-121 0 -178 -3v20q32 2 46.5 8t19.5 23t5 55v496q0 38 -5.5 55t-19.5 23
t-46 8v20q57 -3 178 -3q108 0 167 3v-20q-32 -2 -46.5 -8t-19.5 -23t-5 -55v-226q40 3 78 30t93 89l34 38q44 50 44 90q0 29 -23 46.5t-59 19.5v19q84 -3 169 -3q61 0 101 3v-19q-87 -23 -164 -110l-98 -111l232 -387q14 -23 27 -36.5z" />
    <glyph glyph-name="L" unicode="L" horiz-adv-x="626" 
d="M383 688q-36 -2 -52.5 -8t-22.5 -23t-6 -55v-516q0 -28 4 -41t14 -17.5t33 -4.5h33q35 0 76 35t74 92.5t44 119.5h23q-3 -36 -3 -92q0 -108 7 -178q-68 3 -229 3q-234 0 -350 -3v20q32 2 46.5 8t19.5 23t5 55v496q0 38 -5.5 55t-19.5 23t-46 8v20q57 -3 178 -3
q115 0 177 3v-20z" />
    <glyph glyph-name="M" unicode="M" horiz-adv-x="965" 
d="M890.5 680q-14.5 -6 -19.5 -23t-5 -55v-496q0 -38 5.5 -55t19.5 -23t46 -8v-20q-61 3 -177 3q-121 0 -178 -3v20q36 2 52.5 8t22.5 23t6 55v511l-241 -616h-16l-282 642v-447q0 -74 6 -106.5t26.5 -47.5t68.5 -22v-20q-41 3 -112 3q-53 0 -83 -3v20q31 7 46 21.5t20 44.5
t5 90v426q0 38 -5.5 55t-19.5 23t-46 8v20q30 -3 83 -3q120 0 207 3l189 -425l164 422h87q116 0 177 3v-20q-32 -2 -46.5 -8z" />
    <glyph glyph-name="N" unicode="N" horiz-adv-x="732" 
d="M708 688q-31 -7 -46 -21.5t-20 -44.5t-5 -90v-532q-20 2 -33 2q-11 0 -37 -2l-443 484v-288q0 -74 6 -106.5t26.5 -47.5t68.5 -22v-20q-41 3 -112 3q-53 0 -83 -3v20q31 7 46 21.5t20 44.5t5 90v426q0 38 -5.5 55t-19.5 23t-46 8v20q30 -3 83 -3q54 0 92 3l409 -432v236
q0 74 -6 106.5t-26.5 47.5t-68.5 22v20q41 -3 112 -3q53 0 83 3v-20z" />
    <glyph glyph-name="O" unicode="O" horiz-adv-x="827" 
d="M612 679q85 -43 132 -124.5t47 -194.5q0 -110 -48 -195t-134 -132t-196 -47q-113 0 -198 43t-132 124.5t-47 194.5q0 110 48 195t134 132t196 47q113 0 198 -43zM323.5 659.5q-37.5 -44.5 -57.5 -124.5t-20 -183q0 -104 23 -183t62 -122t86 -43q49 0 86.5 44.5
t57.5 124.5t20 183q0 104 -23 183t-62 122t-86 43q-49 0 -86.5 -44.5z" />
    <glyph glyph-name="P" unicode="P" horiz-adv-x="678" 
d="M302 286v-170q0 -42 8.5 -61t31 -25.5t71.5 -6.5v-23q-135 3 -206 3q-47 0 -131 -2l-48 -1v20q32 2 46.5 8t19.5 23t5 55v496q0 38 -5.5 55t-19.5 23t-46 8v20q57 -3 172 -3l115 1q20 1 46 1q148 0 224.5 -53.5t76.5 -143.5q0 -55 -30 -105.5t-102 -84.5t-191 -34h-37z
M321.5 681q-11.5 -7 -15.5 -25t-4 -54v-296h27q70 0 96.5 52t26.5 141q0 97 -22 143t-74 46q-23 0 -34.5 -7z" />
    <glyph glyph-name="Q" unicode="Q" horiz-adv-x="827" 
d="M794 31q-5 -66 -23.5 -113t-49.5 -71q-22 -17 -55.5 -26t-69.5 -9q-61 0 -119 19t-147 59l-66 28q-19 7 -24 7q-20 -11 -42.5 -18t-41.5 -7q-21 0 -34 7.5t-13 22.5t14 23t41 8q35 0 76 -18q38 10 75 27q9 3 20.5 8t26.5 10q-99 10 -172.5 55t-113.5 123t-40 182
q0 110 48 195t134 132t196 47q113 0 198 -43t132 -124.5t47 -194.5q0 -108 -46 -192t-129 -131.5t-190 -50.5q-23 -3 -44.5 -10t-40.5 -15q-40 -16 -66 -23l39 -1q86 -3 146 -3q104 0 170 14q56 12 88 31t57 57zM269 169q23 -79 62 -122t86 -43q49 0 86.5 44.5t57.5 124.5
t20 183q0 104 -23 183t-62 122t-86 43q-49 0 -86.5 -44.5t-57.5 -124.5t-20 -183q0 -104 23 -183z" />
    <glyph glyph-name="R" unicode="R" horiz-adv-x="721" 
d="M746 40q-30 -30 -66 -42t-84 -12q-69 0 -107 24.5t-47 83.5l-15 100q-10 70 -27.5 106t-52.5 36h-45v-230q0 -38 5.5 -55t19.5 -23t46 -8v-20q-58 3 -167 3q-121 0 -178 -3v20q32 2 46.5 8t19.5 23t5 55v496q0 38 -5.5 55t-19.5 23t-46 8v20q57 -3 172 -3l115 1
q20 1 46 1q152 0 226.5 -43t74.5 -131q0 -75 -56 -128t-188 -65q102 -7 154 -38.5t64 -92.5l21 -104q7 -37 17 -51t28 -14t31 13zM321.5 681q-11.5 -7 -15.5 -25t-4 -54v-246h27q71 0 97 43.5t26 122.5q0 82 -22.5 124t-73.5 42q-23 0 -34.5 -7z" />
    <glyph glyph-name="S" unicode="S" horiz-adv-x="613" 
d="M394.5 711.5q35.5 -10.5 69.5 -29.5q11 -6 19.5 -10t14.5 -4q9 0 14 10.5t8 33.5h23q-5 -72 -5 -244h-23q-4 57 -26 109t-60 85t-88 33q-46 0 -74 -24.5t-28 -68.5q0 -34 15 -59t44 -48.5t95 -69.5q6 -3 11.5 -7t10.5 -8q55 -38 88 -67.5t53.5 -68.5t20.5 -90
q0 -65 -36.5 -109.5t-98.5 -66.5t-137 -22q-61 0 -101.5 10t-75.5 27q-22 14 -34 14q-9 0 -14 -10.5t-8 -33.5h-23q4 68 4 290h23q7 -119 50 -193t132 -74q55 0 87.5 26t32.5 72q0 57 -35.5 97.5t-110.5 90.5q-60 40 -96 70t-59 69.5t-23 91.5q0 63 34 105.5t90.5 63
t123.5 20.5q57 0 92.5 -10.5z" />
    <glyph glyph-name="T" unicode="T" horiz-adv-x="699" 
d="M669 510q0 -46 3 -72h-23q-33 131 -85 189t-112 58h-1v-572q0 -42 8.5 -61t31 -25.5t71.5 -6.5v-20q-141 3 -219 3q-71 0 -206 -3v20q49 0 71.5 6.5t31 25.5t8.5 61v572h-1q-61 0 -112.5 -57.5t-84.5 -189.5h-23q3 26 3 72q0 87 -7 198q95 -3 327 -3q231 0 326 3
q-7 -111 -7 -198z" />
    <glyph glyph-name="U" unicode="U" horiz-adv-x="693" 
d="M681 688q-31 -7 -46 -21.5t-20 -44.5t-5 -90v-241q0 -144 -41 -212q-27 -45 -79.5 -69t-135.5 -24q-121 0 -188 48q-49 35 -65.5 94t-16.5 160v314q0 38 -5 55t-19.5 23t-46.5 8v20q57 -3 176 -3q118 0 179 3v-20q-36 -2 -52.5 -8t-22.5 -23t-6 -55v-408q0 -96 30 -134.5
t95 -38.5q95 0 135 67.5t40 191.5v232q0 74 -6 106.5t-26.5 47.5t-68.5 22v20q41 -3 112 -3q53 0 83 3v-20z" />
    <glyph glyph-name="V" unicode="V" horiz-adv-x="693" 
d="M705 708v-20q-26 -13 -52.5 -47t-47.5 -93l-195 -548q-32 2 -53 2q-20 0 -52 -2l-262 624q-13 32 -28.5 47.5t-30.5 16.5v20q72 -3 182 -3q114 0 168 3v-20q-38 -2 -54 -9t-16 -28q0 -17 12 -47l173 -426l97 272q33 92 33 148q0 87 -82 90v20q75 -3 131 -3q47 0 77 3z
" />
    <glyph glyph-name="W" unicode="W" horiz-adv-x="1010" 
d="M1018 708v-20q-59 -29 -93 -140l-168 -548q-32 2 -53 2q-20 0 -52 -2l-130 397l-141 -397q-32 2 -53 2q-20 0 -52 -2l-232 624q-12 32 -28 47.5t-31 16.5v20q72 -3 177 -3q91 0 133 3v-20q-27 -5 -27 -40q0 -21 9 -44l145 -408l88 238l-68 207q-8 25 -20 35t-31 12v20
q67 -3 173 -3q104 0 155 3v-20q-36 -1 -52 -9t-16 -29q0 -19 10 -46l132 -401l77 247q27 89 27 140q0 50 -22.5 73t-64.5 25v20q75 -3 131 -3q47 0 77 3z" />
    <glyph glyph-name="X" unicode="X" horiz-adv-x="729" 
d="M724 31.5q11 -9.5 30 -10.5v-21q-14 0 -23 1q-114 3 -148 3q-38 0 -152 -3q-9 -1 -22 -1v21q33 0 47.5 4t14.5 13q0 7 -7 17l-167 238l-61 -76q-51 -64 -51 -117q0 -35 22 -56t61 -24v-20q-57 3 -173 3q-64 0 -97 -3v20q78 33 166 142l120 150l-228 326q-21 30 -32 39.5
t-30 10.5v21q15 0 25 -1q117 -3 156 -3q34 0 139 3q9 1 22 1v-21q-33 0 -47.5 -4t-14.5 -13q0 -7 7 -17l145 -206l57 70q50 59 50 105q0 28 -18 45t-52 20v20q57 -3 133 -3q64 0 97 3v-20q-32 -12 -68 -43.5t-67 -69.5l-119 -146l253 -358q21 -30 32 -39.5z" />
    <glyph glyph-name="Y" unicode="Y" horiz-adv-x="644" 
d="M636 709v-20q-51 -25 -106 -133l-93 -184v-266q0 -38 5.5 -55t19.5 -23t46 -8v-20q-58 3 -172 3q-119 0 -173 -3v20q32 2 46.5 8t19.5 23t5 55v184l-185 342q-16 29 -31 42.5t-27 13.5v21q62 -6 138 -6q86 0 220 6v-21q-40 0 -60 -4t-20 -19q0 -7 4 -15l143 -274l45 90
q47 94 47 149q0 71 -80 74v20q75 -3 131 -3q47 0 77 3z" />
    <glyph glyph-name="Z" unicode="Z" horiz-adv-x="607" 
d="M561 688l-303 -665h42q41 0 94 23.5t96 77t52 136.5h23q-3 -36 -3 -92q0 -102 7 -168q-74 3 -249 3q-195 0 -283 -3v20l303 665h-50q-47 0 -94 -20.5t-83 -69t-47 -127.5h-23q3 26 3 72q0 74 -7 168q62 -3 209 -3q216 0 313 3v-20z" />
    <glyph glyph-name="bracketleft" unicode="[" horiz-adv-x="340" 
d="M299 753h-41v-915h41v-19h-221v953h221v-19z" />
    <glyph glyph-name="backslash" unicode="\" horiz-adv-x="366" 
d="M302 -14h33l-272 736h-33z" />
    <glyph glyph-name="bracketright" unicode="]" horiz-adv-x="340" 
d="M41 753h41v-915h-41v-19h221v953h-221v-19z" />
    <glyph glyph-name="asciicircum" unicode="^" horiz-adv-x="524" 
d="M361 410q55 -57 117 -94l-8 -14q-65 10 -127.5 26.5t-100.5 33.5q-32 -17 -83.5 -33.5t-104.5 -26.5l-8 14q61 36 116 93t91 119h18q35 -61 90 -118z" />
    <glyph glyph-name="underscore" unicode="_" horiz-adv-x="619" 
d="M567 -181.402h-515v111.198h515v-111.198z" />
    <glyph glyph-name="grave" unicode="`" horiz-adv-x="304" 
d="M114 836q16 0 31 -6.5t24 -17.5q12 -14 19 -30t16 -46q13 -40 22.5 -66t27.5 -62l-11 -9q-31 26 -55.5 43t-56.5 37l-21 14t-25.5 18.5t-17.5 17.5q-17 20 -17 45q0 28 21 46q19 16 43 16z" />
    <glyph glyph-name="a" unicode="a" horiz-adv-x="531" 
d="M54.5 27.5q-32.5 34.5 -32.5 86.5q0 45 23.5 74.5t55.5 45.5t83 33q54 18 79 33t25 42v89q0 32 -16 57t-55 25q-31 0 -56 -17q34 -12 50.5 -35.5t16.5 -52.5q0 -39 -27.5 -62.5t-66.5 -23.5t-61.5 24.5t-22.5 62.5q0 30 15 52t47 40q56 32 160 32q55 0 95 -10.5t68 -39.5
q20 -21 26.5 -52.5t6.5 -87.5v-268q0 -25 3.5 -34t12.5 -9q7 0 15 4.5t15 10.5l10 -17q-43 -37 -123 -37q-60 0 -84 20.5t-26 55.5q-47 -76 -140 -76q-64 0 -96.5 34.5zM288 90v211q-9 -15 -33 -39q-27 -26 -41 -50.5t-14 -66.5q0 -72 51 -72q21 0 37 17z" />
    <glyph glyph-name="b" unicode="b" horiz-adv-x="601" 
d="M521 469q48 -64 48 -187q0 -159 -64 -227.5t-169 -68.5q-32 0 -53.5 2t-39.5 10q-37 15 -77 15q-30 0 -56 -8t-40 -21l-14 10q7 21 7 55v613q0 46 -12.5 67t-43.5 21v21q31 -3 62 -3q104 0 174 14v-324q46 75 152 75q78 0 126 -64zM382 259q0 123 -18 172.5t-49 49.5
q-29 0 -50.5 -20.5t-21.5 -51.5v-391q23 -12 47 -12q92 0 92 253z" />
    <glyph glyph-name="c" unicode="c" horiz-adv-x="503" 
d="M362.5 524.5q34.5 -8.5 56.5 -21.5q28 -16 44 -43t16 -61q0 -42 -27 -69.5t-69 -27.5q-43 0 -67.5 24.5t-24.5 65.5q0 36 23.5 63.5t58.5 36.5q-15 12 -40 12q-64 0 -90 -68.5t-26 -162.5q0 -96 36 -137t89 -41q73 0 121 67l17 -6q-22 -70 -74.5 -120t-134.5 -50
q-109 0 -175 65t-66 208q0 137 70.5 205.5t186.5 68.5q41 0 75.5 -8.5z" />
    <glyph glyph-name="d" unicode="d" horiz-adv-x="609" 
d="M549.5 43q12.5 -21 43.5 -21v-21q-31 3 -62 3q-104 0 -174 -14v71q-21 -39 -49.5 -57t-72.5 -18q-92 0 -148 68.5t-56 208.5q0 133 59.5 201.5t162.5 68.5q64 0 104 -25v154q0 46 -12.5 67t-43.5 21v21q31 -3 62 -3q104 0 174 14v-672q0 -46 12.5 -67zM335.5 58.5
q21.5 20.5 21.5 51.5v377q-22 13 -47 13q-47 0 -69.5 -59.5t-22.5 -180.5q0 -123 18 -172.5t49 -49.5q29 0 50.5 20.5z" />
    <glyph glyph-name="e" unicode="e" horiz-adv-x="503" 
d="M454 162l17 -6q-22 -70 -74.5 -120t-134.5 -50q-105 0 -168 65t-63 208q0 137 70.5 205.5t186.5 68.5q189 0 189 -224h-258q-1 -12 -1 -36q0 -96 33.5 -137t81.5 -41q73 0 121 67zM215 328h116q1 80 -11.5 131t-38.5 51q-56 0 -66 -182z" />
    <glyph glyph-name="f" unicode="f" horiz-adv-x="365" 
d="M416 745q16 -12 26.5 -34t10.5 -49q0 -32 -23.5 -56.5t-59.5 -24.5q-42 0 -66 22t-24 61q0 30 17.5 54t51.5 35q-7 9 -27 9q-31 0 -47 -19q-10 -12 -14.5 -32.5t-4.5 -58.5v-134h107v-20h-107v-395q0 -46 21.5 -64t64.5 -18v-21l-29 1q-120 3 -155 3q-30 0 -138 -4v21
q31 0 43.5 15.5t12.5 56.5v405h-60v20h60q0 87 15.5 133.5t55.5 80.5q25 21 65 35.5t84 14.5q72 0 120 -37z" />
    <glyph glyph-name="g" unicode="g" horiz-adv-x="570" 
d="M479.5 432.5q-15.5 14.5 -15.5 40.5q0 24 14 52q-44 -18 -65 -51q37 -39 37 -101q0 -79 -58.5 -119.5t-156.5 -40.5q-19 0 -28 1q-26 -18 -26 -42q0 -32 36 -32h97q102 0 159.5 -34.5t57.5 -107.5q0 -52 -33.5 -94t-103 -67t-173.5 -25q-103 0 -162 23t-59 65q0 29 29 53
t88 38l10 -16q-27 -33 -27 -64q0 -39 35.5 -60.5t99.5 -21.5q66 0 101.5 26.5t35.5 70.5q0 31 -23.5 49.5t-82.5 18.5h-54q-68 0 -104 26t-36 70q0 40 28.5 70t82.5 56q-76 10 -119.5 49.5t-43.5 107.5q0 79 58.5 119.5t156.5 40.5q105 0 162 -44q19 26 46 41t57 15
q33 0 51 -18.5t18 -47.5q0 -28 -15 -44.5t-38 -16.5q-21 0 -36.5 14.5zM265.5 263.5q10.5 32.5 10.5 109.5t-10.5 109.5t-30.5 32.5t-30.5 -32.5t-10.5 -109.5t10.5 -109.5t30.5 -32.5t30.5 32.5z" />
    <glyph glyph-name="h" unicode="h" horiz-adv-x="622" 
d="M254 458q45 75 159 75q80 0 113 -40q15 -18 22 -48.5t7 -80.5v-271q0 -41 12.5 -56.5t43.5 -15.5v-21q-108 4 -140 4q-34 0 -142 -4v21q26 0 36 15.5t10 56.5v325q0 32 -11.5 47.5t-37.5 15.5q-29 0 -50.5 -20.5t-21.5 -51.5v-316q0 -41 10 -56.5t36 -15.5v-21
q-100 4 -132 4q-34 0 -150 -4v21q31 0 43.5 15.5t12.5 56.5v569q0 46 -12.5 67t-43.5 21v21q31 -3 62 -3q104 0 174 14v-324z" />
    <glyph glyph-name="i" unicode="i" horiz-adv-x="330" 
d="M241.5 760q28.5 -22 28.5 -64t-28.5 -64t-80.5 -22q-53 0 -81 22t-28 64t28 64t81 22q52 0 80.5 -22zM257 93q0 -41 12.5 -56.5t43.5 -15.5v-21q-108 4 -142 4t-150 -4v21q31 0 43.5 15.5t12.5 56.5v317q0 46 -12.5 67t-43.5 21v21q32 -3 62 -3q104 0 174 14v-437z" />
    <glyph glyph-name="j" unicode="j" horiz-adv-x="317" 
d="M-21 -168q43 0 69 30.5t26 95.5v452q0 46 -12.5 67t-43.5 21v21q31 -3 62 -3q104 0 174 14v-450q0 -88 -16 -136t-55 -82q-59 -50 -204 -50v20zM233.5 760q28.5 -22 28.5 -64t-28.5 -64t-80.5 -22q-53 0 -81 22t-28 64t28 64t81 22q52 0 80.5 -22z" />
    <glyph glyph-name="k" unicode="k" horiz-adv-x="609" 
d="M580 56q7 -13 14.5 -21.5t16.5 -13.5v-21q-92 4 -121 4q-33 0 -141 -4v21q29 0 29 19q0 7 -4 15l-88 186q-6 11 -13.5 16t-18.5 6v-170q0 -41 12.5 -56.5t43.5 -15.5v-21q-108 4 -142 4t-150 -4v21q31 0 43.5 15.5t12.5 56.5v569q0 46 -12.5 67t-43.5 21v21q31 -3 62 -3
q104 0 174 14v-500q28 0 43 15l77 72q35 32 35 65q0 26 -22.5 44t-57.5 21v20q57 -3 120 -3q98 0 137 3v-20q-69 -19 -148 -98l-26 -26l159 -302q2 -4 9 -17z" />
    <glyph glyph-name="l" unicode="l" horiz-adv-x="328" 
d="M254 93q0 -41 12.5 -56.5t43.5 -15.5v-21q-108 4 -142 4t-150 -4v21q31 0 43.5 15.5t12.5 56.5v569q0 46 -12.5 67t-43.5 21v21q31 -3 62 -3q104 0 174 14v-689z" />
    <glyph glyph-name="m" unicode="m" horiz-adv-x="916" 
d="M861.5 36.5q12.5 -15.5 43.5 -15.5v-21q-108 4 -140 4t-132 -4v21q20 0 28 15t8 57v325q0 32 -11.5 47.5t-37.5 15.5t-47.5 -22t-26.5 -52q2 -24 2 -43v-271q0 -42 10 -57t36 -15v-21q-100 4 -130 4q-32 0 -132 -4v21q20 0 28 15.5t8 56.5v325q0 32 -9 47.5t-30 15.5
q-29 0 -50.5 -20.5t-21.5 -51.5v-316q0 -42 8 -57t28 -15v-21q-92 4 -122 4q-34 0 -150 -4v21q31 0 43.5 15.5t12.5 56.5v317q0 46 -12.5 67t-43.5 21v21q32 -3 62 -3q104 0 174 14v-72q42 75 149 75q80 0 113 -40q15 -18 22 -47q25 48 66.5 67.5t99.5 19.5q80 0 113 -40
q15 -18 22 -48.5t7 -80.5v-271q0 -41 12.5 -56.5z" />
    <glyph glyph-name="n" unicode="n" horiz-adv-x="625" 
d="M529 493q15 -18 22 -48.5t7 -80.5v-271q0 -41 12.5 -56.5t43.5 -15.5v-21q-108 4 -140 4q-34 0 -142 -4v21q26 0 36 15.5t10 56.5v325q0 32 -11.5 47.5t-37.5 15.5q-29 0 -50.5 -20.5t-21.5 -51.5v-316q0 -41 10 -56.5t36 -15.5v-21q-100 4 -132 4q-34 0 -150 -4v21
q31 0 43.5 15.5t12.5 56.5v317q0 46 -12.5 67t-43.5 21v21q32 -3 62 -3q104 0 174 14v-72q45 75 159 75q80 0 113 -40z" />
    <glyph glyph-name="o" unicode="o" horiz-adv-x="576" 
d="M478 468.5q67 -64.5 67 -209.5t-67 -209t-190 -64t-190 64t-67 209t67 209.5t190 64.5t190 -64.5zM237 450q-19 -63 -19 -191t19 -190.5t51 -62.5t51 62.5t19 190.5t-19 191t-51 63t-51 -63z" />
    <glyph glyph-name="p" unicode="p" horiz-adv-x="612" 
d="M532 469q48 -64 48 -187q0 -159 -64 -227.5t-169 -68.5q-58 0 -93 19v-83q0 -46 21.5 -64t64.5 -18v-21l-29 1q-120 3 -155 3q-30 0 -138 -4v21q31 0 43.5 15.5t12.5 56.5v497q0 46 -12.5 67t-43.5 21v21q31 -3 62 -3q104 0 174 14v-71q46 75 152 75q78 0 126 -64z
M368.5 75.5q24.5 59.5 24.5 183.5q0 123 -18 172.5t-49 49.5q-29 0 -50.5 -20.5t-21.5 -51.5v-385q13 -8 35 -8q55 0 79.5 59.5z" />
    <glyph glyph-name="q" unicode="q" horiz-adv-x="600" 
d="M549.5 -144.5q12.5 -15.5 43.5 -15.5v-21q-108 4 -138 4q-35 0 -155 -3l-29 -1v21q43 0 64.5 18t21.5 64v139q-21 -39 -49.5 -57t-72.5 -18q-92 0 -148 68.5t-56 208.5q0 133 59.5 201.5t162.5 68.5q38 0 65 -3.5t50 -13.5q30 -10 64 -10q31 0 57.5 8t40.5 21l14 -10
q-7 -21 -7 -55v-558q0 -41 12.5 -56.5zM335.5 58.5q21.5 20.5 21.5 51.5v392q-21 11 -47 11q-92 0 -92 -253q0 -123 18 -172.5t49 -49.5q29 0 50.5 20.5z" />
    <glyph glyph-name="r" unicode="r" horiz-adv-x="481" 
d="M456.5 503q21.5 -30 21.5 -71q0 -45 -25.5 -71.5t-66.5 -26.5q-43 0 -66 19.5t-23 52.5q0 59 51 93q-18 0 -32 -7q-25 -11 -42 -35.5t-17 -53.5v-300q0 -47 19.5 -64.5t66.5 -17.5v-21q-13 0 -22 1q-105 3 -140 3q-31 0 -139 -3q-8 -1 -21 -1v21q31 0 43.5 15.5
t12.5 56.5v317q0 46 -12.5 67t-43.5 21v21q32 -3 62 -3q104 0 174 14v-72q38 75 129 75q49 0 70.5 -30z" />
    <glyph glyph-name="s" unicode="s" horiz-adv-x="472" 
d="M304.5 524.5q34.5 -8.5 52.5 -18.5q11 -6 18 -6q21 0 25 32h20q-4 -52 -4 -180h-20q-8 66 -37.5 111.5t-85.5 45.5q-25 0 -42 -15t-17 -41q0 -33 22 -58.5t69 -62.5q2 -1 29 -23q56 -46 82 -81.5t26 -87.5q0 -44 -27 -79.5t-73.5 -55t-101.5 -19.5q-63 0 -103 25
q-17 9 -28 13t-22 4q-19 0 -28 -35h-20q4 57 4 200h20q9 -82 44 -132t88 -50q25 0 41.5 14t16.5 41q0 28 -11.5 50t-28 39.5t-53.5 50.5q-42 39 -64 62t-37.5 53.5t-15.5 67.5q0 43 26 76t69 50.5t93 17.5q39 0 73.5 -8.5z" />
    <glyph glyph-name="t" unicode="t" horiz-adv-x="350" 
d="M252 519h98v-20h-98v-415q0 -20 7 -28t23 -8q12 0 27 7t27 22l15 -12q-46 -79 -142 -79q-69 0 -103 34q-21 21 -27.5 52t-6.5 87v340h-76v20h76v118q54 0 97.5 10.5t82.5 33.5v-162z" />
    <glyph glyph-name="u" unicode="u" horiz-adv-x="622" 
d="M548 109q0 -46 12.5 -67t43.5 -21v-21q-31 3 -62 3q-104 0 -174 -14v72q-45 -75 -159 -75q-80 0 -113 40q-15 18 -22 48.5t-7 80.5v255q0 46 -12.5 67t-43.5 21v21q31 -3 62 -3q104 0 174 14v-429q0 -32 11.5 -47.5t37.5 -15.5q29 0 50.5 20.5t21.5 51.5v300
q0 46 -12.5 67t-43.5 21v21q31 -3 62 -3q104 0 174 14v-421z" />
    <glyph glyph-name="v" unicode="v" horiz-adv-x="520" 
d="M521 519v-21q-21 -7 -38.5 -29t-32.5 -68l-135 -401q-16 2 -48 2q-33 0 -49 -2l-174 442q-22 56 -58 56v21q79 -6 178 -6q50 0 130 6v-21q-31 0 -44.5 -4t-13.5 -21q0 -3 2 -13l109 -303l46 138q19 58 19 102q0 47 -20 73t-53 28v21q37 -4 105 -4q57 0 77 4z" />
    <glyph glyph-name="w" unicode="w" horiz-adv-x="798" 
d="M801 519v-21q-21 -8 -38.5 -29.5t-32.5 -67.5l-125 -401q-16 2 -48 2q-33 0 -49 -2l-119 346l-91 -346q-16 2 -48 2q-33 0 -49 -2l-154 442q-12 35 -27 45.5t-31 10.5v21q79 -6 178 -6q50 0 130 6v-21q-31 0 -44.5 -5t-13.5 -20q0 -3 2 -13l83 -277l86 335h1q32 -2 48 -2
q20 0 58 2l114 -366l43 143q16 55 16 96q0 50 -22 77t-59 30v21q37 -4 115 -4q57 0 77 4z" />
    <glyph glyph-name="x" unicode="x" horiz-adv-x="547" 
d="M531.5 36q10.5 -12 24.5 -15v-21q-100 4 -131 4q-30 0 -138 -4v21q14 0 22 5t8 13q0 9 -5 16l-98 148l-9 -11q-37 -47 -37 -93q0 -33 19.5 -54.5t51.5 -24.5v-20q-61 3 -163 3q-40 0 -67 -3v20q25 12 46.5 31.5t47.5 50.5l101 116l-153 230q-16 25 -27 36t-25 14v21
q116 -4 151 -4q26 0 118 4v-21q-14 0 -22 -5t-8 -13t5 -16l87 -131l17 20q37 46 37 85q0 26 -16.5 42.5t-46.5 18.5v20q61 -3 133 -3q40 0 67 3v-20q-41 -18 -94 -82l-86 -100l163 -246q17 -23 27.5 -35z" />
    <glyph glyph-name="y" unicode="y" horiz-adv-x="529" 
d="M525 519v-21q-21 -7 -38.5 -29t-32.5 -68l-125 -372l-42 -121q-18 -52 -44 -72q-31 -24 -93 -24q-50 0 -93 23.5t-43 70.5q0 35 27 56t71 21q42 0 66 -19t24 -55q0 -24 -16.5 -45.5t-48.5 -31.5q10 -2 34 -2q69 0 95 80l5 17l-233 515q-15 34 -29.5 45t-28.5 11v21
q80 -6 163 -6q65 0 145 6v-21q-29 0 -44.5 -4t-15.5 -18q0 -8 4 -16l123 -293l42 128q19 58 19 102q0 47 -20 73t-53 28v21q37 -4 105 -4q57 0 77 4z" />
    <glyph glyph-name="z" unicode="z" horiz-adv-x="472" 
d="M223 15h14q66 0 115.5 44.5t57.5 146.5h20q0 -150 4 -210q-83 4 -196 4q-100 0 -212 -5l224 508h-20q-65 0 -112 -44.5t-55 -146.5h-20q0 150 -4 210q83 -4 196 -4q100 0 212 5z" />
    <glyph glyph-name="braceleft" unicode="{" horiz-adv-x="353" 
d="M342 763q-31 -1 -45 -15t-19.5 -57.5t-5.5 -139.5q0 -123 -62.5 -177.5t-170.5 -74.5q107 -20 170 -75t63 -177q0 -100 5.5 -144t19.5 -57.5t45 -14.5v-19q-95 0 -148 21t-77.5 71.5t-24.5 142.5q0 96 -6.5 146.5t-22.5 72t-47 24.5h-5v18h5q31 2 47 23.5t22.5 72
t6.5 147.5q0 89 24.5 138.5t78 71t147.5 21.5v-19z" />
    <glyph glyph-name="bar" unicode="|" horiz-adv-x="274" 
d="M197 -195h-120v1053h120v-1053z" />
    <glyph glyph-name="braceright" unicode="}" horiz-adv-x="353" 
d="M11 763q31 -1 45 -15t19.5 -57.5t5.5 -139.5q0 -123 62.5 -177.5t170.5 -74.5q-107 -20 -170 -75t-63 -177q0 -100 -5.5 -144t-19.5 -57.5t-45 -14.5v-19q95 0 148 21t77.5 71.5t24.5 142.5q0 96 6.5 146.5t22.5 72t47 24.5h5v18h-5q-31 2 -47 23.5t-22.5 72t-6.5 147.5
q0 89 -24.5 138.5t-78 71t-147.5 21.5v-19z" />
    <glyph glyph-name="asciitilde" unicode="~" horiz-adv-x="681" 
d="M283.5 393q32.5 -12 79.5 -37q45 -24 76.5 -36t66.5 -12q80 0 110 78l18 -3q-5 -56 -28 -98.5t-58.5 -66t-75.5 -23.5q-39 0 -71.5 12t-79.5 37q-45 24 -76.5 36t-66.5 12q-80 0 -110 -78l-18 3q5 56 28 98.5t58.5 66t75.5 23.5q39 0 71.5 -12z" />
    <glyph glyph-name="uni00A0" unicode="&#xa0;" horiz-adv-x="223" 
 />
    <glyph glyph-name="exclamdown" unicode="&#xa1;" horiz-adv-x="295" 
d="M221.5 511q25.5 -22 25.5 -64t-25.5 -64t-73.5 -22t-73.5 22t-25.5 64t25.5 64t73.5 22t73.5 -22zM173 212.5q14 -49.5 41 -130.5q20 -56 29.5 -89.5t9.5 -60.5q0 -57 -29 -88.5t-76 -31.5q-48 0 -77.5 32t-29.5 88q0 25 9 57t29 90q26 73 41 128t18 111h18
q3 -56 17 -105.5z" />
    <glyph glyph-name="cent" unicode="&#xa2;" horiz-adv-x="515" 
d="M409.5 38.5q-50.5 -49.5 -128.5 -52.5v-167h-22v167q-104 4 -166 69.5t-62 203.5q0 128 62 196t166 77v176h22v-175h7q41 0 75.5 -8.5t56.5 -21.5q28 -16 44 -43t16 -61q0 -42 -27 -69.5t-69 -27.5q-43 0 -67.5 24.5t-24.5 65.5q0 36 23.5 63.5t58.5 36.5q-15 12 -40 12
q-64 0 -90 -68.5t-26 -162.5q0 -96 36 -137t89 -41q73 0 121 67l17 -6q-21 -68 -71.5 -117.5z" />
    <glyph glyph-name="sterling" unicode="&#xa3;" horiz-adv-x="699" 
d="M630.5 228q37.5 -35 37.5 -91q0 -73 -45 -112t-134 -39q-42 0 -78.5 8.5t-90.5 25.5q-34 12 -73 22q-4 1 -19.5 4.5t-29.5 3.5q-28 0 -55 -10q-19 -27 -41 -40.5t-44 -13.5q-27 0 -27 20q0 16 21.5 30t63.5 22q11 27 14.5 56t3.5 82v62v39h-77v20h77v80h-77v20h77v22
q0 297 272 297q38 0 69.5 -6t50.5 -16q29 -15 45.5 -38.5t16.5 -53.5q0 -37 -24.5 -62t-63.5 -25q-41 0 -65.5 22t-24.5 58q0 32 17 56.5t48 35.5q-23 10 -57 10q-40 0 -61.5 -23.5t-30.5 -77t-9 -151.5v-48h105v-20h-105v-46q0 -12 -2 -34h107v-20h-111
q-10 -46 -35.5 -83.5t-75.5 -94.5q-27 -28 -48 -55q59 54 105.5 74t87.5 20q29 0 49.5 -3t53.5 -10q20 -5 42 -8.5t45 -3.5q29 0 47.5 16.5t18.5 40.5q0 27 -17 43.5t-48 22.5l4 16q53 -9 90.5 -44z" />
    <glyph glyph-name="currency" unicode="&#xa4;" horiz-adv-x="669" 
d="M621 463l-69 -69q19 -46 19 -94q0 -49 -20 -94l70 -69l-123 -123l-70 69q-46 -19 -94 -19q-49 0 -93 19l-69 -69l-123 123l68 68q-19 46 -19 95q0 48 19 94l-68 69l123 123l68 -69q45 20 94 20q47 0 95 -20l69 69zM269.5 375.5q-27.5 -31.5 -27.5 -75.5t27.5 -75
t66.5 -31q38 0 65.5 31t27.5 75t-27.5 75.5t-65.5 31.5q-39 0 -66.5 -31.5z" />
    <glyph glyph-name="yen" unicode="&#xa5;" horiz-adv-x="698" 
d="M669 709v-20q-51 -25 -106 -133l-93 -184v-65h115v-20h-115v-80h115v-20h-115v-81q0 -38 5.5 -55t19.5 -23t46 -8v-20q-59 3 -172 3q-119 0 -173 -3v20q32 2 46.5 8t19.5 23t5 55v81h-115v20h115v80h-115v20h106l-176 325q-16 29 -31 42.5t-27 13.5v21q62 -6 138 -6
q86 0 220 6v-21q-40 0 -60 -4t-20 -19q0 -7 4 -15l143 -274l45 90q47 94 47 149q0 71 -80 74v20q75 -3 131 -3q47 0 77 3z" />
    <glyph glyph-name="brokenbar" unicode="&#xa6;" horiz-adv-x="278" 
d="M199 384h-120v474h120v-474zM199 -195h-120v521h120v-521z" />
    <glyph glyph-name="section" unicode="&#xa7;" horiz-adv-x="630" 
d="M568.5 201.5q-30.5 -39.5 -99.5 -74.5q40 -35 58 -68t18 -73q0 -53 -33.5 -92t-93 -60.5t-135.5 -21.5q-85 0 -137 26q-29 15 -44 37t-15 57q0 33 24.5 57t63.5 24q41 0 65.5 -22t24.5 -58q0 -29 -15.5 -53t-40.5 -35q5 -4 24.5 -9t40.5 -5q52 0 76.5 24.5t24.5 61.5
q0 33 -11.5 54.5t-32.5 38.5t-68 48l-44 29q-72 48 -108.5 77.5t-57.5 63t-21 76.5q0 49 30.5 88.5t99.5 74.5q-40 35 -58 68t-18 73q0 53 33.5 92t93 60.5t135.5 21.5q85 0 137 -26q29 -15 44 -37t15 -57q0 -33 -24.5 -57t-63.5 -24q-41 0 -65.5 22t-24.5 58q0 29 15.5 53
t40.5 35q-5 4 -24.5 9t-40.5 5q-52 0 -76.5 -24.5t-24.5 -61.5q0 -33 11.5 -54.5t32.5 -38.5t68 -48l44 -29q72 -48 108.5 -77.5t57.5 -63t21 -76.5q0 -49 -30.5 -88.5zM442 149q13 20 13 55q0 28 -14.5 50.5t-50 50t-109.5 75.5q-64 43 -92 65q-13 -20 -13 -55
q0 -28 14.5 -50.5t50 -50t109.5 -75.5q65 -43 92 -65z" />
    <glyph glyph-name="dieresis" unicode="&#xa8;" horiz-adv-x="512" 
d="M197.5 746q26.5 -26 26.5 -61q0 -36 -26 -61.5t-61 -25.5q-36 0 -61.5 25.5t-25.5 61.5q0 35 25.5 61t61.5 26q34 0 60.5 -26zM435.5 746q26.5 -26 26.5 -61q0 -36 -26 -61.5t-61 -25.5q-36 0 -61.5 25.5t-25.5 61.5q0 35 25.5 61t61.5 26q34 0 60.5 -26z" />
    <glyph glyph-name="copyright" unicode="&#xa9;" horiz-adv-x="872" 
d="M635.5 728.5q91.5 -53.5 145 -145t53.5 -199.5t-53.5 -199.5t-145 -145t-199.5 -53.5t-199.5 53.5t-145 145t-53.5 199.5t53.5 199.5t145 145t199.5 53.5t199.5 -53.5zM256.5 700.5q-82.5 -49.5 -130.5 -133.5t-48 -183t48 -183t130.5 -133.5t179.5 -49.5t179.5 49.5
t130.5 133.5t48 183t-48 183t-130.5 133.5t-179.5 49.5t-179.5 -49.5zM536.5 649.5q34.5 -8.5 57.5 -21.5q28 -17 44 -44t16 -60q0 -42 -27 -69.5t-69 -27.5q-43 0 -67.5 24.5t-24.5 65.5q0 36 23.5 63.5t58.5 36.5q-10 6 -25.5 10.5t-31.5 4.5q-17 0 -30 -4
q-34 -11 -51.5 -62t-17.5 -168q0 -113 36 -160.5t89 -47.5q73 0 121 97l17 -6q-22 -70 -74.5 -120t-134.5 -50q-109 0 -175 65t-66 208q0 137 70.5 205.5t186.5 68.5q40 0 74.5 -8.5z" />
    <glyph glyph-name="ordfeminine" unicode="&#xaa;" horiz-adv-x="495" 
d="M382.5 692q40.5 -30 40.5 -97v-172q0 -10 3.5 -14t11.5 -4q13 0 21 7l11 -15q-53 -37 -130 -37q-41 0 -58 12t-19 35q-24 -24 -56 -35.5t-66 -11.5q-47 0 -75 19.5t-28 59.5t32 62.5t113 45.5q34 10 57 24t23 32v18q0 44 -14.5 63t-43.5 19q-24 0 -41 -11q24 -7 37 -25.5
t13 -38.5q0 -31 -24.5 -49t-58.5 -18q-35 0 -56.5 18t-21.5 47q0 24 16 43t42 30q29 12 62 17.5t78 5.5q91 0 131.5 -30zM252 556.5q-8 -10.5 -19 -22.5q-28 -31 -28 -75q0 -20 8 -32t20 -12q18 0 30 10v149q-3 -7 -11 -17.5z" />
    <glyph glyph-name="guillemotleft" unicode="&#xab;" horiz-adv-x="614" 
d="M342 531q-15 -65 -52 -149t-69 -123q32 -39 69 -123t52 -148l-14 -4q-80 83 -152.5 147t-153.5 118v20q80 54 152.5 118t153.5 148zM558 491q-10 -53 -38.5 -125.5t-52.5 -106.5q24 -34 52.5 -106t38.5 -125l-14 -4q-73 73 -135 126.5t-131 98.5v20q68 45 129.5 98.5
t136.5 127.5z" />
    <glyph glyph-name="logicalnot" unicode="&#xac;" horiz-adv-x="632" 
d="M569 165h-36v175h-465v30h501v-205z" />
    <glyph glyph-name="uni00AD" unicode="&#xad;" horiz-adv-x="469" 
 />
    <glyph glyph-name="registered" unicode="&#xae;" horiz-adv-x="656" 
d="M468 744.5q64 -37.5 101.5 -101.5t37.5 -140t-37.5 -140t-101.5 -101.5t-140 -37.5t-140 37.5t-101.5 101.5t-37.5 140t37.5 140t101.5 101.5t140 37.5t140 -37.5zM447.5 289.5q54.5 33.5 86 90t31.5 123.5t-31.5 123.5t-86 90t-119.5 33.5t-119.5 -33.5t-86 -90
t-31.5 -123.5t31.5 -123.5t86 -90t119.5 -33.5t119.5 33.5zM503 364q-20 -17 -58 -17q-70 0 -78 45l-13 72q-4 23 -12.5 32t-33.5 12v-104q0 -23 4 -29t19 -8v-15l-71 1l-76 -1v15q15 2 19 8t4 29v219q0 23 -4 29.5t-19 8.5v15q16 -1 72 -1l86 1q67 0 96.5 -20t29.5 -59
q0 -25 -24 -48t-82 -32q50 -4 69 -17t25 -41l17 -71q3 -17 13 -17q6 0 11 4zM312 655.5q-4 -5.5 -4 -19.5v-110h4q27 0 42 17.5t15 50.5q0 32 -11 49.5t-32 17.5q-10 0 -14 -5.5z" />
    <glyph glyph-name="macron" unicode="&#xaf;" horiz-adv-x="452" 
d="M402 687h-352v25h352v-25z" />
    <glyph glyph-name="degree" unicode="&#xb0;" horiz-adv-x="297" 
d="M234.5 787q35.5 -33 35.5 -87t-35.5 -87.5t-86.5 -33.5q-50 0 -85.5 33.5t-35.5 87.5t35.5 87t85.5 33q51 0 86.5 -33zM81.5 775q-29.5 -28 -29.5 -76q0 -49 29 -76t67 -27t67.5 27t29.5 76q0 48 -30 76t-67 28t-66.5 -28z" />
    <glyph glyph-name="plusminus" unicode="&#xb1;" horiz-adv-x="567" 
d="M533 0h-501v30h501v-30zM303 370h232v-30h-232v-235h-36v235h-233v30h233v236h36v-236z" />
    <glyph glyph-name="uni00B2" unicode="&#xb2;" horiz-adv-x="359" 
d="M267.5 736q32.5 -19 32.5 -55q0 -34 -26 -58t-84 -59q-9 -5 -26.5 -15.5t-30.5 -19.5h137q22 0 30.5 7.5t16.5 26.5l17 -3q-14 -78 -15 -125q-12 3 -38 3h-260v20l41 33q59 45 92 83t33 87q0 23 -15 36.5t-42 13.5q-52 0 -83 -44l-15 8q49 80 151 80q52 0 84.5 -19z" />
    <glyph glyph-name="uni00B3" unicode="&#xb3;" horiz-adv-x="334" 
d="M261 736.5q35 -19.5 35 -52.5q0 -35 -35 -59.5t-98 -35.5q61 4 103.5 -22t42.5 -70q0 -68 -85 -104t-205 -45v17q85 12 132 48t47 92q0 30 -14 50.5t-39 22.5q-5 -2 -16.5 -8t-20.5 -6q-15 0 -15 12q0 10 11.5 12.5t32.5 1.5q25 13 35.5 33.5t10.5 39.5q0 23 -16 38
t-44 15q-25 0 -47 -13t-36 -35l-15 8q44 80 148 80q53 0 88 -19.5z" />
    <glyph glyph-name="acute" unicode="&#xb4;" horiz-adv-x="304" 
d="M254 775q0 -26 -17 -46q-9 -11 -22.5 -21.5t-24.5 -17.5t-17 -11q-32 -20 -56.5 -37t-55.5 -43l-11 9q18 36 27.5 62t22.5 66q9 30 16 46t19 30q9 11 23.5 17.5t30.5 6.5q25 0 44 -16q21 -16 21 -45z" />
    <glyph glyph-name="paragraph" unicode="&#xb6;" horiz-adv-x="790" 
d="M561 707l102 -1q58 0 87 2v-19q-41 -2 -54 -17.5t-13 -50.5v-696q0 -38 5 -55t19.5 -23t46.5 -8v-20q-70 3 -207 3q-114 0 -168 -3v20q42 2 63.5 11t29.5 28.5t8 56.5v52q-235 0 -342 100.5t-107 272.5q0 102 49 181t141 123.5t218 44.5q46 0 122 -2zM463 615
q-12 -41 -22 -105t-12 -134q-78 0 -149 -5t-115.5 -11t-44.5 -9q0 -4 43.5 -9.5t114.5 -10t151 -4.5q2 -72 12 -136t22 -103.5t18 -39.5v608q-6 0 -18 -41z" />
    <glyph glyph-name="periodcentered" unicode="&#xb7;" horiz-adv-x="288" 
d="M217.5 354q25.5 -22 25.5 -64t-25.5 -64t-73.5 -22t-73.5 22t-25.5 64t25.5 64t73.5 22t73.5 -22z" />
    <glyph glyph-name="cedilla" unicode="&#xb8;" horiz-adv-x="348" 
d="M145 -60q36 15 79 15q36 0 55 -16t19 -42q0 -42 -43.5 -63.5t-114.5 -21.5q-54 0 -90 13l6 18q22 -5 48 -5q25 0 43.5 9.5t18.5 28.5q0 25 -28 25q-20 0 -33 -7l30 106h27z" />
    <glyph glyph-name="uni00B9" unicode="&#xb9;" horiz-adv-x="297" 
d="M220 507q0 -28 15 -38.5t52 -10.5v-21q-50 2 -127 2t-127 -2v21q37 0 55.5 10.5t18.5 38.5v129q0 29 -7 42.5t-23.5 18t-50.5 4.5v21q69 1 112.5 8t81.5 23v-246z" />
    <glyph glyph-name="ordmasculine" unicode="&#xba;" horiz-adv-x="478" 
d="M390 675q56 -47 56 -134t-56 -134t-151 -47t-151 47t-56 134t56 134t151 47t151 -47zM199 541q0 -163 40 -163t40 163t-40 163t-40 -163z" />
    <glyph glyph-name="guillemotright" unicode="&#xbb;" horiz-adv-x="614" 
d="M439.5 387q72.5 -64 152.5 -118v-20q-81 -54 -153.5 -118t-152.5 -147l-14 4q15 64 52 148t69 123q-32 39 -69 123t-52 149l14 4q81 -84 153.5 -148zM206.5 367.5q61.5 -53.5 129.5 -98.5v-20q-69 -45 -131 -98.5t-135 -126.5l-14 4q10 53 38.5 125t52.5 106
q-24 34 -52.5 106.5t-38.5 125.5l14 4q75 -74 136.5 -127.5z" />
    <glyph glyph-name="onequarter" unicode="&#xbc;" horiz-adv-x="720" 
d="M692 811l-585 -866l-19 13l585 866zM235 507q0 -28 15 -38.5t52 -10.5v-21q-50 2 -127 2t-127 -2v21q37 0 55.5 10.5t18.5 38.5v129q0 29 -7 42.5t-23.5 18t-50.5 4.5v21q69 1 112.5 8t81.5 23v-246zM651 118q-10 -28 -14 -103q-12 3 -38 3h-30v-117h-83v117h-197v21
l259 279h21v-231h18q22 0 30.5 7.5t16.5 26.5zM486 87v141l-131 -141h131z" />
    <glyph glyph-name="onehalf" unicode="&#xbd;" horiz-adv-x="734" 
d="M676 811l-585 -866l-19 13l585 866zM232 507q0 -28 15 -38.5t52 -10.5v-21q-50 2 -127 2t-127 -2v21q37 0 55.5 10.5t18.5 38.5v129q0 29 -7 42.5t-23.5 18t-50.5 4.5v21q69 1 112.5 8t81.5 23v-246zM635.5 299q32.5 -19 32.5 -55q0 -34 -26 -58t-84 -59
q-9 -5 -26.5 -15.5t-30.5 -19.5h137q22 0 30.5 7.5t16.5 26.5l17 -3q-14 -78 -15 -125q-12 3 -38 3h-260v20l41 33q59 45 92 83t33 87q0 23 -15 36.5t-42 13.5q-52 0 -83 -44l-15 8q49 80 151 80q52 0 84.5 -19z" />
    <glyph glyph-name="threequarters" unicode="&#xbe;" horiz-adv-x="758" 
d="M730 811l-585 -866l-19 13l585 866zM281 736.5q35 -19.5 35 -52.5q0 -35 -35 -59.5t-98 -35.5q61 4 103.5 -22t42.5 -70q0 -68 -85 -104t-205 -45v17q85 12 132 48t47 92q0 30 -14 50.5t-39 22.5q-5 -2 -16.5 -8t-20.5 -6q-15 0 -15 12q0 10 11.5 12.5t32.5 1.5
q25 13 35.5 33.5t10.5 39.5q0 23 -16 38t-44 15q-25 0 -47 -13t-36 -35l-15 8q44 80 148 80q53 0 88 -19.5zM696 118q-10 -28 -14 -103q-12 3 -38 3h-30v-117h-83v117h-197v21l259 279h21v-231h18q22 0 30.5 7.5t16.5 26.5zM531 87v141l-131 -141h131z" />
    <glyph glyph-name="questiondown" unicode="&#xbf;" horiz-adv-x="536" 
d="M385.5 512q25.5 -22 25.5 -64t-25.5 -64t-73.5 -22t-73.5 22t-25.5 64t25.5 64t73.5 22t73.5 -22zM322 185q-69 -34 -92.5 -80.5t-23.5 -113.5q0 -81 30 -120t81 -39q28 0 49 5t30 14q-33 12 -49 33.5t-16 54.5q0 36 26.5 60t69.5 24q36 0 59 -23.5t23 -56.5
q0 -34 -17 -56.5t-47 -39.5q-28 -16 -68.5 -25.5t-89.5 -9.5q-77 0 -136 21.5t-91.5 62.5t-32.5 96q0 75 74 127t201 75v131h20v-140z" />
    <glyph glyph-name="Agrave" unicode="&#xc0;" horiz-adv-x="692" 
d="M668.5 36.5q15.5 -15.5 30.5 -16.5v-20q-72 3 -182 3q-114 0 -168 -3v20q38 2 54 9.5t16 26.5q0 18 -12 48l-59 164h-202l-17 -45q-33 -85 -33 -130q0 -41 23 -56t68 -17v-20q-75 3 -131 3q-47 0 -77 -3v20q25 4 47 31t45 86l222 571q32 -2 53 -2q20 0 52 2l242 -624
q13 -32 28.5 -47.5zM341 288l-91 250l-96 -250h187zM283 919q12 -12 33 -36q44 -55 96 -99l-7 -12q-63 19 -134 30q-29 5 -46 9t-33 12q-18 9 -28 25t-10 34q0 14 6 26q9 18 26.5 28t36.5 10q15 0 31 -7q17 -8 29 -20z" />
    <glyph glyph-name="Aacute" unicode="&#xc1;" horiz-adv-x="692" 
d="M668.5 36.5q15.5 -15.5 30.5 -16.5v-20q-72 3 -182 3q-114 0 -168 -3v20q38 2 54 9.5t16 26.5q0 18 -12 48l-59 164h-202l-17 -45q-33 -85 -33 -130q0 -41 23 -56t68 -17v-20q-75 3 -131 3q-47 0 -77 -3v20q25 4 47 31t45 86l222 571q32 -2 53 -2q20 0 52 2l242 -624
q13 -32 28.5 -47.5zM341 288l-91 250l-96 -250h187zM453 946q19 0 36.5 -10t26.5 -28q6 -12 6 -26q0 -18 -10 -34t-28 -25q-16 -8 -33 -12t-46 -9q-71 -11 -134 -30l-7 12q52 44 96 99q21 24 33 36t29 20q16 7 31 7z" />
    <glyph glyph-name="Acircumflex" unicode="&#xc2;" horiz-adv-x="692" 
d="M668.5 36.5q15.5 -15.5 30.5 -16.5v-20q-72 3 -182 3q-114 0 -168 -3v20q38 2 54 9.5t16 26.5q0 18 -12 48l-59 164h-202l-17 -45q-33 -85 -33 -130q0 -41 23 -56t68 -17v-20q-75 3 -131 3q-47 0 -77 -3v20q25 4 47 31t45 86l222 571q32 -2 53 -2q20 0 52 2l242 -624
q13 -32 28.5 -47.5zM341 288l-91 250l-96 -250h187zM448 861.5q58 -46.5 123 -77.5l-5 -15q-68 10 -135 27t-106 34q-33 -17 -89 -34t-112 -27l-5 15q64 30 121.5 76.5t95.5 95.5h18q36 -48 94 -94.5z" />
    <glyph glyph-name="Atilde" unicode="&#xc3;" horiz-adv-x="692" 
d="M668.5 36.5q15.5 -15.5 30.5 -16.5v-20q-72 3 -182 3q-114 0 -168 -3v20q38 2 54 9.5t16 26.5q0 18 -12 48l-59 164h-202l-17 -45q-33 -85 -33 -130q0 -41 23 -56t68 -17v-20q-75 3 -131 3q-47 0 -77 -3v20q25 4 47 31t45 86l222 571q32 -2 53 -2q20 0 52 2l242 -624
q13 -32 28.5 -47.5zM341 288l-91 250l-96 -250h187zM317 928.5q27 -9.5 58 -26.5q32 -16 51.5 -23t46.5 -7q57 0 97 53l14 -7q-19 -78 -58.5 -115.5t-89.5 -37.5q-38 0 -64 9t-61 27q-29 16 -49.5 23.5t-47.5 7.5q-56 0 -97 -54l-14 7q19 78 59 115.5t90 37.5q38 0 65 -9.5z
" />
    <glyph glyph-name="Adieresis" unicode="&#xc4;" horiz-adv-x="692" 
d="M668.5 36.5q15.5 -15.5 30.5 -16.5v-20q-72 3 -182 3q-114 0 -168 -3v20q38 2 54 9.5t16 26.5q0 18 -12 48l-59 164h-202l-17 -45q-33 -85 -33 -130q0 -41 23 -56t68 -17v-20q-75 3 -131 3q-47 0 -77 -3v20q25 4 47 31t45 86l222 571q32 -2 53 -2q20 0 52 2l242 -624
q13 -32 28.5 -47.5zM341 288l-91 250l-96 -250h187zM276.5 910q26.5 -26 26.5 -61q0 -36 -26 -61.5t-61 -25.5q-36 0 -61.5 25.5t-25.5 61.5q0 35 25.5 61t61.5 26q34 0 60.5 -26zM534.5 910q26.5 -26 26.5 -61q0 -36 -26 -61.5t-61 -25.5q-36 0 -61.5 25.5t-25.5 61.5
q0 35 25.5 61t61.5 26q34 0 60.5 -26z" />
    <glyph glyph-name="Aring" unicode="&#xc5;" horiz-adv-x="692" 
d="M668.5 36.5q15.5 -15.5 30.5 -16.5v-20q-72 3 -182 3q-114 0 -168 -3v20q38 2 54 9.5t16 26.5q0 18 -12 48l-59 164h-202l-17 -45q-33 -85 -33 -130q0 -41 23 -56t68 -17v-20q-75 3 -131 3q-47 0 -77 -3v20q25 4 47 31t45 86l222 571q32 -2 53 -2q20 0 52 2l242 -624
q13 -32 28.5 -47.5zM341 288l-91 250l-96 -250h187zM427.5 917q34.5 -28 34.5 -73q0 -46 -34.5 -74t-82.5 -28t-82 28t-34 74q0 45 34 73t82 28t82.5 -28zM284 902q-27 -22 -27 -59q0 -38 26.5 -59t61.5 -21t62 21t27 59q0 37 -27 59t-62 22q-34 0 -61 -22z" />
    <glyph glyph-name="AE" unicode="&#xc6;" horiz-adv-x="912" 
d="M869 0q-68 3 -229 3q-213 0 -320 -3v20q32 2 46.5 8t19.5 23t5 55v240h-162l-139 -242q-18 -31 -18 -49q0 -17 17 -25t52 -10v-20q-30 3 -91 3q-43 0 -67 -3v20q17 1 33 15t36 49l332 576q-6 15 -20 20.5t-44 7.5v20l91 -2l38 66h24l-38 -66q80 -1 205 -1q147 0 209 3
q-7 -83 -7 -148q0 -46 3 -72h-23q-15 105 -53.5 151t-90.5 46h-13q-31 0 -45.5 -5.5t-20 -22.5t-5.5 -55v-236h40q32 0 51 19.5t27.5 42.5t17.5 60h23q-3 -39 -3 -88v-44q0 -47 6 -132h-23q-10 56 -31.5 89t-67.5 33h-40v-240q0 -38 5.5 -55t20 -22.5t45.5 -5.5h33
q28 0 58 21.5t54 70t32 125.5h23q-3 -36 -3 -92q0 -90 7 -148zM391 366v236q0 18 -1 26l-150 -262h151z" />
    <glyph glyph-name="Ccedilla" unicode="&#xc7;" horiz-adv-x="717" 
d="M516 705q42 -17 82 -48q10 -9 19 -9q20 0 26 60h23q-4 -71 -4 -250h-23q-7 80 -26 126t-66 77q-47 30 -93 30q-104 0 -146 -100t-42 -239t42 -239t146 -100q46 0 93 30q47 29 66 78t26 139h23q0 -187 4 -260h-23q-3 32 -8.5 45.5t-15.5 13.5q-8 0 -21 -8
q-45 -32 -86 -48.5t-99 -16.5q-113 0 -198 43t-132 124.5t-47 194.5q0 110 48 195t134 132t196 47q60 0 102 -17zM412 -60q40 15 89 15q41 0 62.5 -16t21.5 -42q0 -42 -51.5 -63.5t-136.5 -21.5q-61 0 -100 13l6 18q28 -5 58 -5q37 0 64.5 9.5t27.5 28.5q0 25 -48 25
q-20 0 -33 -7l32 111h27z" />
    <glyph glyph-name="Egrave" unicode="&#xc8;" horiz-adv-x="650" 
d="M607 0q-68 3 -229 3q-234 0 -350 -3v20q32 2 46.5 8t19.5 23t5 55v496q0 38 -5.5 55t-19.5 23t-46 8v20q116 -3 350 -3q147 0 209 3q-7 -94 -7 -168q0 -46 3 -72h-23q-18 116 -67 166.5t-117 50.5h-13q-27 0 -39.5 -4.5t-17 -17t-4.5 -41.5v-256h10q52 0 89 41t47 91h23
q-3 -42 -3 -94v-48q0 -51 6 -142h-23q-9 57 -46.5 94.5t-92.5 37.5h-10v-260q0 -29 4.5 -41.5t17 -17t39.5 -4.5h33q58 0 110 56.5t74 180.5h23q-3 -36 -3 -92q0 -102 7 -168zM258 919q12 -12 33 -36q44 -55 96 -99l-7 -12q-63 19 -134 30q-29 5 -46 9t-33 12q-18 9 -28 25
t-10 34q0 14 6 26q9 18 26.5 28t36.5 10q15 0 31 -7q17 -8 29 -20z" />
    <glyph glyph-name="Eacute" unicode="&#xc9;" horiz-adv-x="650" 
d="M607 0q-68 3 -229 3q-234 0 -350 -3v20q32 2 46.5 8t19.5 23t5 55v496q0 38 -5.5 55t-19.5 23t-46 8v20q116 -3 350 -3q147 0 209 3q-7 -94 -7 -168q0 -46 3 -72h-23q-18 116 -67 166.5t-117 50.5h-13q-27 0 -39.5 -4.5t-17 -17t-4.5 -41.5v-256h10q52 0 89 41t47 91h23
q-3 -42 -3 -94v-48q0 -51 6 -142h-23q-9 57 -46.5 94.5t-92.5 37.5h-10v-260q0 -29 4.5 -41.5t17 -17t39.5 -4.5h33q58 0 110 56.5t74 180.5h23q-3 -36 -3 -92q0 -102 7 -168zM428 946q19 0 36.5 -10t26.5 -28q6 -12 6 -26q0 -18 -10 -34t-28 -25q-16 -8 -33 -12t-46 -9
q-71 -11 -134 -30l-7 12q52 44 96 99q21 24 33 36t29 20q16 7 31 7z" />
    <glyph glyph-name="Ecircumflex" unicode="&#xca;" horiz-adv-x="650" 
d="M607 0q-68 3 -229 3q-234 0 -350 -3v20q32 2 46.5 8t19.5 23t5 55v496q0 38 -5.5 55t-19.5 23t-46 8v20q116 -3 350 -3q147 0 209 3q-7 -94 -7 -168q0 -46 3 -72h-23q-18 116 -67 166.5t-117 50.5h-13q-27 0 -39.5 -4.5t-17 -17t-4.5 -41.5v-256h10q52 0 89 41t47 91h23
q-3 -42 -3 -94v-48q0 -51 6 -142h-23q-9 57 -46.5 94.5t-92.5 37.5h-10v-260q0 -29 4.5 -41.5t17 -17t39.5 -4.5h33q58 0 110 56.5t74 180.5h23q-3 -36 -3 -92q0 -102 7 -168zM423 861.5q58 -46.5 123 -77.5l-5 -15q-68 10 -135 27t-106 34q-33 -17 -89 -34t-112 -27l-5 15
q64 30 121.5 76.5t95.5 95.5h18q36 -48 94 -94.5z" />
    <glyph glyph-name="Edieresis" unicode="&#xcb;" horiz-adv-x="650" 
d="M607 0q-68 3 -229 3q-234 0 -350 -3v20q32 2 46.5 8t19.5 23t5 55v496q0 38 -5.5 55t-19.5 23t-46 8v20q116 -3 350 -3q147 0 209 3q-7 -94 -7 -168q0 -46 3 -72h-23q-18 116 -67 166.5t-117 50.5h-13q-27 0 -39.5 -4.5t-17 -17t-4.5 -41.5v-256h10q52 0 89 41t47 91h23
q-3 -42 -3 -94v-48q0 -51 6 -142h-23q-9 57 -46.5 94.5t-92.5 37.5h-10v-260q0 -29 4.5 -41.5t17 -17t39.5 -4.5h33q58 0 110 56.5t74 180.5h23q-3 -36 -3 -92q0 -102 7 -168zM251.5 910q26.5 -26 26.5 -61q0 -36 -26 -61.5t-61 -25.5q-36 0 -61.5 25.5t-25.5 61.5
q0 35 25.5 61t61.5 26q34 0 60.5 -26zM509.5 910q26.5 -26 26.5 -61q0 -36 -26 -61.5t-61 -25.5q-36 0 -61.5 25.5t-25.5 61.5q0 35 25.5 61t61.5 26q34 0 60.5 -26z" />
    <glyph glyph-name="Igrave" unicode="&#xcc;" horiz-adv-x="401" 
d="M373 688q-32 -2 -46.5 -8t-19.5 -23t-5 -55v-496q0 -38 5.5 -55t19.5 -23t46 -8v-20q-58 3 -167 3q-121 0 -178 -3v20q32 2 46.5 8t19.5 23t5 55v496q0 38 -5.5 55t-19.5 23t-46 8v20q57 -3 178 -3q108 0 167 3v-20zM144 919q12 -12 33 -36q44 -55 96 -99l-7 -12
q-63 19 -134 30q-29 5 -46 9t-33 12q-18 9 -28 25t-10 34q0 14 6 26q9 18 26.5 28t36.5 10q15 0 31 -7q17 -8 29 -20z" />
    <glyph glyph-name="Iacute" unicode="&#xcd;" horiz-adv-x="401" 
d="M373 688q-32 -2 -46.5 -8t-19.5 -23t-5 -55v-496q0 -38 5.5 -55t19.5 -23t46 -8v-20q-58 3 -167 3q-121 0 -178 -3v20q32 2 46.5 8t19.5 23t5 55v496q0 38 -5.5 55t-19.5 23t-46 8v20q57 -3 178 -3q108 0 167 3v-20zM314 946q19 0 36.5 -10t26.5 -28q6 -12 6 -26
q0 -18 -10 -34t-28 -25q-16 -8 -33 -12t-46 -9q-71 -11 -134 -30l-7 12q52 44 96 99q21 24 33 36t29 20q16 7 31 7z" />
    <glyph glyph-name="Icircumflex" unicode="&#xce;" horiz-adv-x="401" 
d="M373 688q-32 -2 -46.5 -8t-19.5 -23t-5 -55v-496q0 -38 5.5 -55t19.5 -23t46 -8v-20q-58 3 -167 3q-121 0 -178 -3v20q32 2 46.5 8t19.5 23t5 55v496q0 38 -5.5 55t-19.5 23t-46 8v20q57 -3 178 -3q108 0 167 3v-20zM309 861.5q58 -46.5 123 -77.5l-5 -15q-68 10 -135 27
t-106 34q-33 -17 -89 -34t-112 -27l-5 15q64 30 121.5 76.5t95.5 95.5h18q36 -48 94 -94.5z" />
    <glyph glyph-name="Idieresis" unicode="&#xcf;" horiz-adv-x="401" 
d="M373 688q-32 -2 -46.5 -8t-19.5 -23t-5 -55v-496q0 -38 5.5 -55t19.5 -23t46 -8v-20q-58 3 -167 3q-121 0 -178 -3v20q32 2 46.5 8t19.5 23t5 55v496q0 38 -5.5 55t-19.5 23t-46 8v20q57 -3 178 -3q108 0 167 3v-20zM137.5 910q26.5 -26 26.5 -61q0 -36 -26 -61.5
t-61 -25.5q-36 0 -61.5 25.5t-25.5 61.5q0 35 25.5 61t61.5 26q34 0 60.5 -26zM395.5 910q26.5 -26 26.5 -61q0 -36 -26 -61.5t-61 -25.5q-36 0 -61.5 25.5t-25.5 61.5q0 35 25.5 61t61.5 26q34 0 60.5 -26z" />
    <glyph glyph-name="Eth" unicode="&#xd0;" horiz-adv-x="811" 
d="M671 619.5q103 -88.5 103 -257.5q0 -109 -50.5 -190.5t-145.5 -126.5t-226 -45l-62 1q-60 2 -88 2q-117 0 -174 -3v20q32 2 46.5 8t19.5 23t5 55v496q0 38 -5.5 55t-19.5 23t-46 8v20q46 -3 136 -3h36l44 1q84 2 117 2q207 0 310 -88.5zM329.5 683q-15.5 -7 -21.5 -25
t-6 -54v-500q0 -36 6 -54t21.5 -25t47.5 -7q99 0 143 85.5t44 254.5t-45.5 250.5t-142.5 81.5q-31 0 -46.5 -7zM412 346h-404v20h404v-20z" />
    <glyph glyph-name="Ntilde" unicode="&#xd1;" horiz-adv-x="732" 
d="M708 688q-31 -7 -46 -21.5t-20 -44.5t-5 -90v-532q-20 2 -33 2q-11 0 -37 -2l-443 484v-288q0 -74 6 -106.5t26.5 -47.5t68.5 -22v-20q-41 3 -112 3q-53 0 -83 -3v20q31 7 46 21.5t20 44.5t5 90v426q0 38 -5.5 55t-19.5 23t-46 8v20q30 -3 83 -3q54 0 92 3l409 -432v236
q0 74 -6 106.5t-26.5 47.5t-68.5 22v20q41 -3 112 -3q53 0 83 3v-20zM354 928.5q27 -9.5 58 -26.5q32 -16 51.5 -23t46.5 -7q57 0 97 53l14 -7q-19 -78 -58.5 -115.5t-89.5 -37.5q-38 0 -64 9t-61 27q-29 16 -49.5 23.5t-47.5 7.5q-56 0 -97 -54l-14 7q19 78 59 115.5
t90 37.5q38 0 65 -9.5z" />
    <glyph glyph-name="Ograve" unicode="&#xd2;" horiz-adv-x="827" 
d="M612 679q85 -43 132 -124.5t47 -194.5q0 -110 -48 -195t-134 -132t-196 -47q-113 0 -198 43t-132 124.5t-47 194.5q0 110 48 195t134 132t196 47q113 0 198 -43zM323.5 659.5q-37.5 -44.5 -57.5 -124.5t-20 -183q0 -104 23 -183t62 -122t86 -43q49 0 86.5 44.5
t57.5 124.5t20 183q0 104 -23 183t-62 122t-86 43q-49 0 -86.5 -44.5zM350 919q12 -12 33 -36q44 -55 96 -99l-7 -12q-63 19 -134 30q-29 5 -46 9t-33 12q-18 9 -28 25t-10 34q0 14 6 26q9 18 26.5 28t36.5 10q15 0 31 -7q17 -8 29 -20z" />
    <glyph glyph-name="Oacute" unicode="&#xd3;" horiz-adv-x="827" 
d="M612 679q85 -43 132 -124.5t47 -194.5q0 -110 -48 -195t-134 -132t-196 -47q-113 0 -198 43t-132 124.5t-47 194.5q0 110 48 195t134 132t196 47q113 0 198 -43zM323.5 659.5q-37.5 -44.5 -57.5 -124.5t-20 -183q0 -104 23 -183t62 -122t86 -43q49 0 86.5 44.5
t57.5 124.5t20 183q0 104 -23 183t-62 122t-86 43q-49 0 -86.5 -44.5zM520 946q19 0 36.5 -10t26.5 -28q6 -12 6 -26q0 -18 -10 -34t-28 -25q-16 -8 -33 -12t-46 -9q-71 -11 -134 -30l-7 12q52 44 96 99q21 24 33 36t29 20q16 7 31 7z" />
    <glyph glyph-name="Ocircumflex" unicode="&#xd4;" horiz-adv-x="827" 
d="M612 679q85 -43 132 -124.5t47 -194.5q0 -110 -48 -195t-134 -132t-196 -47q-113 0 -198 43t-132 124.5t-47 194.5q0 110 48 195t134 132t196 47q113 0 198 -43zM323.5 659.5q-37.5 -44.5 -57.5 -124.5t-20 -183q0 -104 23 -183t62 -122t86 -43q49 0 86.5 44.5
t57.5 124.5t20 183q0 104 -23 183t-62 122t-86 43q-49 0 -86.5 -44.5zM515 861.5q58 -46.5 123 -77.5l-5 -15q-68 10 -135 27t-106 34q-33 -17 -89 -34t-112 -27l-5 15q64 30 121.5 76.5t95.5 95.5h18q36 -48 94 -94.5z" />
    <glyph glyph-name="Otilde" unicode="&#xd5;" horiz-adv-x="827" 
d="M612 679q85 -43 132 -124.5t47 -194.5q0 -110 -48 -195t-134 -132t-196 -47q-113 0 -198 43t-132 124.5t-47 194.5q0 110 48 195t134 132t196 47q113 0 198 -43zM323.5 659.5q-37.5 -44.5 -57.5 -124.5t-20 -183q0 -104 23 -183t62 -122t86 -43q49 0 86.5 44.5
t57.5 124.5t20 183q0 104 -23 183t-62 122t-86 43q-49 0 -86.5 -44.5zM384 928.5q27 -9.5 58 -26.5q32 -16 51.5 -23t46.5 -7q57 0 97 53l14 -7q-19 -78 -58.5 -115.5t-89.5 -37.5q-38 0 -64 9t-61 27q-29 16 -49.5 23.5t-47.5 7.5q-56 0 -97 -54l-14 7q19 78 59 115.5
t90 37.5q38 0 65 -9.5z" />
    <glyph glyph-name="Odieresis" unicode="&#xd6;" horiz-adv-x="827" 
d="M612 679q85 -43 132 -124.5t47 -194.5q0 -110 -48 -195t-134 -132t-196 -47q-113 0 -198 43t-132 124.5t-47 194.5q0 110 48 195t134 132t196 47q113 0 198 -43zM323.5 659.5q-37.5 -44.5 -57.5 -124.5t-20 -183q0 -104 23 -183t62 -122t86 -43q49 0 86.5 44.5
t57.5 124.5t20 183q0 104 -23 183t-62 122t-86 43q-49 0 -86.5 -44.5zM343.5 910q26.5 -26 26.5 -61q0 -36 -26 -61.5t-61 -25.5q-36 0 -61.5 25.5t-25.5 61.5q0 35 25.5 61t61.5 26q34 0 60.5 -26zM601.5 910q26.5 -26 26.5 -61q0 -36 -26 -61.5t-61 -25.5
q-36 0 -61.5 25.5t-25.5 61.5q0 35 25.5 61t61.5 26q34 0 60.5 -26z" />
    <glyph glyph-name="multiply" unicode="&#xd7;" horiz-adv-x="482" 
d="M242 377l173 173l22 -22l-173 -172l173 -173l-22 -22l-173 173l-174 -174l-22 22l174 173l-175 175l22 22z" />
    <glyph glyph-name="Oslash" unicode="&#xd8;" horiz-adv-x="827" 
d="M748.5 546.5q42.5 -79.5 42.5 -186.5q0 -110 -48 -195t-134 -132t-196 -47q-120 0 -208 48l-85 -117l-21 14l84 116q-71 47 -109 123t-38 178q0 110 48 195t134 132t196 47q108 0 193 -40l69 101l19 -13l-67 -99q78 -45 120.5 -124.5zM323.5 659.5
q-37.5 -44.5 -57.5 -124.5t-20 -183q0 -107 26 -193l268 430q-23 55 -57 85t-73 30q-49 0 -86.5 -44.5zM503.5 48.5q37.5 44.5 57.5 124.5t20 183q0 119 -30 206l-269 -433q24 -60 59 -92.5t76 -32.5q49 0 86.5 44.5z" />
    <glyph glyph-name="Ugrave" unicode="&#xd9;" horiz-adv-x="693" 
d="M681 688q-31 -7 -46 -21.5t-20 -44.5t-5 -90v-241q0 -144 -41 -212q-27 -45 -79.5 -69t-135.5 -24q-121 0 -188 48q-49 35 -65.5 94t-16.5 160v314q0 38 -5 55t-19.5 23t-46.5 8v20q57 -3 176 -3q118 0 179 3v-20q-36 -2 -52.5 -8t-22.5 -23t-6 -55v-408q0 -96 30 -134.5
t95 -38.5q95 0 135 67.5t40 191.5v232q0 74 -6 106.5t-26.5 47.5t-68.5 22v20q41 -3 112 -3q53 0 83 3v-20zM299 919q12 -12 33 -36q44 -55 96 -99l-7 -12q-63 19 -134 30q-29 5 -46 9t-33 12q-18 9 -28 25t-10 34q0 14 6 26q9 18 26.5 28t36.5 10q15 0 31 -7q17 -8 29 -20z
" />
    <glyph glyph-name="Uacute" unicode="&#xda;" horiz-adv-x="693" 
d="M681 688q-31 -7 -46 -21.5t-20 -44.5t-5 -90v-241q0 -144 -41 -212q-27 -45 -79.5 -69t-135.5 -24q-121 0 -188 48q-49 35 -65.5 94t-16.5 160v314q0 38 -5 55t-19.5 23t-46.5 8v20q57 -3 176 -3q118 0 179 3v-20q-36 -2 -52.5 -8t-22.5 -23t-6 -55v-408q0 -96 30 -134.5
t95 -38.5q95 0 135 67.5t40 191.5v232q0 74 -6 106.5t-26.5 47.5t-68.5 22v20q41 -3 112 -3q53 0 83 3v-20zM469 946q19 0 36.5 -10t26.5 -28q6 -12 6 -26q0 -18 -10 -34t-28 -25q-16 -8 -33 -12t-46 -9q-71 -11 -134 -30l-7 12q52 44 96 99q21 24 33 36t29 20q16 7 31 7z
" />
    <glyph glyph-name="Ucircumflex" unicode="&#xdb;" horiz-adv-x="693" 
d="M681 688q-31 -7 -46 -21.5t-20 -44.5t-5 -90v-241q0 -144 -41 -212q-27 -45 -79.5 -69t-135.5 -24q-121 0 -188 48q-49 35 -65.5 94t-16.5 160v314q0 38 -5 55t-19.5 23t-46.5 8v20q57 -3 176 -3q118 0 179 3v-20q-36 -2 -52.5 -8t-22.5 -23t-6 -55v-408q0 -96 30 -134.5
t95 -38.5q95 0 135 67.5t40 191.5v232q0 74 -6 106.5t-26.5 47.5t-68.5 22v20q41 -3 112 -3q53 0 83 3v-20zM464 861.5q58 -46.5 123 -77.5l-5 -15q-68 10 -135 27t-106 34q-33 -17 -89 -34t-112 -27l-5 15q64 30 121.5 76.5t95.5 95.5h18q36 -48 94 -94.5z" />
    <glyph glyph-name="Udieresis" unicode="&#xdc;" horiz-adv-x="693" 
d="M681 688q-31 -7 -46 -21.5t-20 -44.5t-5 -90v-241q0 -144 -41 -212q-27 -45 -79.5 -69t-135.5 -24q-121 0 -188 48q-49 35 -65.5 94t-16.5 160v314q0 38 -5 55t-19.5 23t-46.5 8v20q57 -3 176 -3q118 0 179 3v-20q-36 -2 -52.5 -8t-22.5 -23t-6 -55v-408q0 -96 30 -134.5
t95 -38.5q95 0 135 67.5t40 191.5v232q0 74 -6 106.5t-26.5 47.5t-68.5 22v20q41 -3 112 -3q53 0 83 3v-20zM292.5 910q26.5 -26 26.5 -61q0 -36 -26 -61.5t-61 -25.5q-36 0 -61.5 25.5t-25.5 61.5q0 35 25.5 61t61.5 26q34 0 60.5 -26zM550.5 910q26.5 -26 26.5 -61
q0 -36 -26 -61.5t-61 -25.5q-36 0 -61.5 25.5t-25.5 61.5q0 35 25.5 61t61.5 26q34 0 60.5 -26z" />
    <glyph glyph-name="Yacute" unicode="&#xdd;" horiz-adv-x="644" 
d="M636 709v-20q-51 -25 -106 -133l-93 -184v-266q0 -38 5.5 -55t19.5 -23t46 -8v-20q-58 3 -172 3q-119 0 -173 -3v20q32 2 46.5 8t19.5 23t5 55v184l-185 342q-16 29 -31 42.5t-27 13.5v21q62 -6 138 -6q86 0 220 6v-21q-40 0 -60 -4t-20 -19q0 -7 4 -15l143 -274l45 90
q47 94 47 149q0 71 -80 74v20q75 -3 131 -3q47 0 77 3zM456 946q19 0 36.5 -10t26.5 -28q6 -12 6 -26q0 -18 -10 -34t-28 -25q-16 -8 -33 -12t-46 -9q-71 -11 -134 -30l-7 12q52 44 96 99q21 24 33 36t29 20q16 7 31 7z" />
    <glyph glyph-name="Thorn" unicode="&#xde;" horiz-adv-x="648" 
d="M302 152v-46q0 -38 5.5 -55t19.5 -23t46 -8v-20q-58 3 -167 3q-121 0 -178 -3v20q32 2 46.5 8t19.5 23t5 55v496q0 38 -5.5 55t-19.5 23t-46 8v20q57 -3 178 -3q108 0 167 3v-20q-32 -2 -46.5 -8t-19.5 -23t-5 -55v-29h32q153 0 227 -46.5t74 -143.5q0 -103 -73 -167
t-250 -64h-10zM302 554v-382q70 0 96.5 53.5t26.5 146.5q0 92 -26.5 137t-89.5 45h-7z" />
    <glyph glyph-name="germandbls" unicode="&#xdf;" horiz-adv-x="705" 
d="M481 762q53 -20 80 -54t27 -77q0 -72 -67 -125t-173 -73q168 -19 254.5 -86.5t86.5 -163.5q0 -62 -34.5 -107t-91.5 -67.5t-123 -22.5q-154 0 -154 114q0 44 22.5 70.5t61.5 26.5q36 0 58 -23t22 -59q0 -37 -22 -64t-53 -41q12 -6 29 -6q49 0 72.5 46.5t23.5 120.5
q0 85 -27 136t-61.5 73.5t-80.5 39.5q-22 -11 -34 -11q-8 0 -14 4t-6 12t6 13t16 5q16 0 32 -7q49 32 68 73t19 107q0 151 -83 151q-38 0 -55 -22.5t-21.5 -68.5t-4.5 -143v-544q-72 14 -160 14q-22 0 -76 -3v21q31 0 43.5 15.5t12.5 56.5v419q0 132 71.5 201t209.5 69
q73 0 126 -20z" />
    <glyph glyph-name="agrave" unicode="&#xe0;" horiz-adv-x="531" 
d="M54.5 27.5q-32.5 34.5 -32.5 86.5q0 45 23.5 74.5t55.5 45.5t83 33q54 18 79 33t25 42v89q0 32 -16 57t-55 25q-31 0 -56 -17q34 -12 50.5 -35.5t16.5 -52.5q0 -39 -27.5 -62.5t-66.5 -23.5t-61.5 24.5t-22.5 62.5q0 30 15 52t47 40q56 32 160 32q55 0 95 -10.5t68 -39.5
q20 -21 26.5 -52.5t6.5 -87.5v-268q0 -25 3.5 -34t12.5 -9q7 0 15 4.5t15 10.5l10 -17q-43 -37 -123 -37q-60 0 -84 20.5t-26 55.5q-47 -76 -140 -76q-64 0 -96.5 34.5zM288 90v211q-9 -15 -33 -39q-27 -26 -41 -50.5t-14 -66.5q0 -72 51 -72q21 0 37 17zM185 836
q16 0 31 -6.5t24 -17.5q12 -14 19 -30t16 -46q13 -40 22.5 -66t27.5 -62l-11 -9q-31 26 -55.5 43t-56.5 37l-21 14t-25.5 18.5t-17.5 17.5q-17 20 -17 45q0 28 21 46q19 16 43 16z" />
    <glyph glyph-name="aacute" unicode="&#xe1;" horiz-adv-x="531" 
d="M54.5 27.5q-32.5 34.5 -32.5 86.5q0 45 23.5 74.5t55.5 45.5t83 33q54 18 79 33t25 42v89q0 32 -16 57t-55 25q-31 0 -56 -17q34 -12 50.5 -35.5t16.5 -52.5q0 -39 -27.5 -62.5t-66.5 -23.5t-61.5 24.5t-22.5 62.5q0 30 15 52t47 40q56 32 160 32q55 0 95 -10.5t68 -39.5
q20 -21 26.5 -52.5t6.5 -87.5v-268q0 -25 3.5 -34t12.5 -9q7 0 15 4.5t15 10.5l10 -17q-43 -37 -123 -37q-60 0 -84 20.5t-26 55.5q-47 -76 -140 -76q-64 0 -96.5 34.5zM288 90v211q-9 -15 -33 -39q-27 -26 -41 -50.5t-14 -66.5q0 -72 51 -72q21 0 37 17zM401 775
q0 -26 -17 -46q-9 -11 -22.5 -21.5t-24.5 -17.5t-17 -11q-32 -20 -56.5 -37t-55.5 -43l-11 9q18 36 27.5 62t22.5 66q9 30 16 46t19 30q9 11 23.5 17.5t30.5 6.5q25 0 44 -16q21 -16 21 -45z" />
    <glyph glyph-name="acircumflex" unicode="&#xe2;" horiz-adv-x="531" 
d="M54.5 27.5q-32.5 34.5 -32.5 86.5q0 45 23.5 74.5t55.5 45.5t83 33q54 18 79 33t25 42v89q0 32 -16 57t-55 25q-31 0 -56 -17q34 -12 50.5 -35.5t16.5 -52.5q0 -39 -27.5 -62.5t-66.5 -23.5t-61.5 24.5t-22.5 62.5q0 30 15 52t47 40q56 32 160 32q55 0 95 -10.5t68 -39.5
q20 -21 26.5 -52.5t6.5 -87.5v-268q0 -25 3.5 -34t12.5 -9q7 0 15 4.5t15 10.5l10 -17q-43 -37 -123 -37q-60 0 -84 20.5t-26 55.5q-47 -76 -140 -76q-64 0 -96.5 34.5zM288 90v211q-9 -15 -33 -39q-27 -26 -41 -50.5t-14 -66.5q0 -72 51 -72q21 0 37 17zM359.5 714
q49.5 -57 105.5 -94l-8 -14q-59 10 -116 26.5t-92 33.5q-29 -17 -75 -33.5t-93 -26.5l-8 14q55 36 104.5 93t82.5 119h18q32 -61 81.5 -118z" />
    <glyph glyph-name="atilde" unicode="&#xe3;" horiz-adv-x="531" 
d="M54.5 27.5q-32.5 34.5 -32.5 86.5q0 45 23.5 74.5t55.5 45.5t83 33q54 18 79 33t25 42v89q0 32 -16 57t-55 25q-31 0 -56 -17q34 -12 50.5 -35.5t16.5 -52.5q0 -39 -27.5 -62.5t-66.5 -23.5t-61.5 24.5t-22.5 62.5q0 30 15 52t47 40q56 32 160 32q55 0 95 -10.5t68 -39.5
q20 -21 26.5 -52.5t6.5 -87.5v-268q0 -25 3.5 -34t12.5 -9q7 0 15 4.5t15 10.5l10 -17q-43 -37 -123 -37q-60 0 -84 20.5t-26 55.5q-47 -76 -140 -76q-64 0 -96.5 34.5zM288 90v211q-9 -15 -33 -39q-27 -26 -41 -50.5t-14 -66.5q0 -72 51 -72q21 0 37 17zM246.5 789
q21.5 -9 48.5 -27q25 -15 41.5 -22.5t38.5 -7.5q45 0 77 53l14 -7q-16 -83 -50.5 -123t-77.5 -40q-31 0 -52 9t-50 27q-23 16 -40.5 23.5t-39.5 7.5q-44 0 -77 -54l-14 7q16 83 50.5 123t78.5 40q31 0 52.5 -9z" />
    <glyph glyph-name="adieresis" unicode="&#xe4;" horiz-adv-x="531" 
d="M54.5 27.5q-32.5 34.5 -32.5 86.5q0 45 23.5 74.5t55.5 45.5t83 33q54 18 79 33t25 42v89q0 32 -16 57t-55 25q-31 0 -56 -17q34 -12 50.5 -35.5t16.5 -52.5q0 -39 -27.5 -62.5t-66.5 -23.5t-61.5 24.5t-22.5 62.5q0 30 15 52t47 40q56 32 160 32q55 0 95 -10.5t68 -39.5
q20 -21 26.5 -52.5t6.5 -87.5v-268q0 -25 3.5 -34t12.5 -9q7 0 15 4.5t15 10.5l10 -17q-43 -37 -123 -37q-60 0 -84 20.5t-26 55.5q-47 -76 -140 -76q-64 0 -96.5 34.5zM288 90v211q-9 -15 -33 -39q-27 -26 -41 -50.5t-14 -66.5q0 -72 51 -72q21 0 37 17zM211.5 746
q26.5 -26 26.5 -61q0 -36 -26 -61.5t-61 -25.5q-36 0 -61.5 25.5t-25.5 61.5q0 35 25.5 61t61.5 26q34 0 60.5 -26zM449.5 746q26.5 -26 26.5 -61q0 -36 -26 -61.5t-61 -25.5q-36 0 -61.5 25.5t-25.5 61.5q0 35 25.5 61t61.5 26q34 0 60.5 -26z" />
    <glyph glyph-name="aring" unicode="&#xe5;" horiz-adv-x="531" 
d="M54.5 27.5q-32.5 34.5 -32.5 86.5q0 45 23.5 74.5t55.5 45.5t83 33q54 18 79 33t25 42v89q0 32 -16 57t-55 25q-31 0 -56 -17q34 -12 50.5 -35.5t16.5 -52.5q0 -39 -27.5 -62.5t-66.5 -23.5t-61.5 24.5t-22.5 62.5q0 30 15 52t47 40q56 32 160 32q55 0 95 -10.5t68 -39.5
q20 -21 26.5 -52.5t6.5 -87.5v-268q0 -25 3.5 -34t12.5 -9q7 0 15 4.5t15 10.5l10 -17q-43 -37 -123 -37q-60 0 -84 20.5t-26 55.5q-47 -76 -140 -76q-64 0 -96.5 34.5zM288 90v211q-9 -15 -33 -39q-27 -26 -41 -50.5t-14 -66.5q0 -72 51 -72q21 0 37 17zM351.5 773
q34.5 -28 34.5 -73q0 -46 -34.5 -74t-82.5 -28t-82 28t-34 74q0 45 34 73t82 28t82.5 -28zM208 758q-27 -22 -27 -59q0 -38 26.5 -59t61.5 -21t62 21t27 59q0 37 -27 59t-62 22q-34 0 -61 -22z" />
    <glyph glyph-name="ae" unicode="&#xe6;" horiz-adv-x="738" 
d="M689 162l17 -6q-21 -70 -71 -120t-128 -50q-65 0 -114.5 27.5t-76.5 86.5q-34 -57 -74 -82t-91 -25q-64 0 -96.5 34.5t-32.5 86.5q0 45 23.5 74.5t55.5 45.5t83 33q54 18 79 33t25 42v89q0 32 -16 57t-55 25q-31 0 -56 -17q34 -12 50.5 -35.5t16.5 -52.5
q0 -39 -27.5 -62.5t-66.5 -23.5t-61.5 24.5t-22.5 62.5q0 30 15 52t47 40q56 32 160 32q90 0 138 -29q55 29 123 29q87 0 133 -53.5t46 -170.5h-238q-1 -12 -1 -36q0 -96 30.5 -137t74.5 -41q67 0 111 67zM488 467q-14 -43 -18 -139h96q1 80 -9 131t-31 51q-24 0 -38 -43z
M279.5 83.5q14.5 10.5 27.5 35.5q-21 61 -21 140q0 14 2 40q-15 -19 -31 -34q-29 -29 -43 -53.5t-14 -66.5q0 -38 13.5 -55t34.5 -17q17 0 31.5 10.5z" />
    <glyph glyph-name="ccedilla" unicode="&#xe7;" horiz-adv-x="503" 
d="M362.5 524.5q34.5 -8.5 56.5 -21.5q28 -16 44 -43t16 -61q0 -42 -27 -69.5t-69 -27.5q-43 0 -67.5 24.5t-24.5 65.5q0 36 23.5 63.5t58.5 36.5q-15 12 -40 12q-64 0 -90 -68.5t-26 -162.5q0 -96 36 -137t89 -41q73 0 121 67l17 -6q-22 -70 -74.5 -120t-134.5 -50
q-109 0 -175 65t-66 208q0 137 70.5 205.5t186.5 68.5q41 0 75.5 -8.5zM243 -60q36 15 79 15q36 0 55 -16t19 -42q0 -42 -43.5 -63.5t-114.5 -21.5q-54 0 -90 13l6 18q22 -5 48 -5q25 0 43.5 9.5t18.5 28.5q0 25 -28 25q-20 0 -33 -7l30 106h27z" />
    <glyph glyph-name="egrave" unicode="&#xe8;" horiz-adv-x="503" 
d="M454 162l17 -6q-22 -70 -74.5 -120t-134.5 -50q-105 0 -168 65t-63 208q0 137 70.5 205.5t186.5 68.5q189 0 189 -224h-258q-1 -12 -1 -36q0 -96 33.5 -137t81.5 -41q73 0 121 67zM215 328h116q1 80 -11.5 131t-38.5 51q-56 0 -66 -182zM195 836q16 0 31 -6.5t24 -17.5
q12 -14 19 -30t16 -46q13 -40 22.5 -66t27.5 -62l-11 -9q-31 26 -55.5 43t-56.5 37l-21 14t-25.5 18.5t-17.5 17.5q-17 20 -17 45q0 28 21 46q19 16 43 16z" />
    <glyph glyph-name="eacute" unicode="&#xe9;" horiz-adv-x="503" 
d="M454 162l17 -6q-22 -70 -74.5 -120t-134.5 -50q-105 0 -168 65t-63 208q0 137 70.5 205.5t186.5 68.5q189 0 189 -224h-258q-1 -12 -1 -36q0 -96 33.5 -137t81.5 -41q73 0 121 67zM215 328h116q1 80 -11.5 131t-38.5 51q-56 0 -66 -182zM411 775q0 -26 -17 -46
q-9 -11 -22.5 -21.5t-24.5 -17.5t-17 -11q-32 -20 -56.5 -37t-55.5 -43l-11 9q18 36 27.5 62t22.5 66q9 30 16 46t19 30q9 11 23.5 17.5t30.5 6.5q25 0 44 -16q21 -16 21 -45z" />
    <glyph glyph-name="ecircumflex" unicode="&#xea;" horiz-adv-x="503" 
d="M454 162l17 -6q-22 -70 -74.5 -120t-134.5 -50q-105 0 -168 65t-63 208q0 137 70.5 205.5t186.5 68.5q189 0 189 -224h-258q-1 -12 -1 -36q0 -96 33.5 -137t81.5 -41q73 0 121 67zM215 328h116q1 80 -11.5 131t-38.5 51q-56 0 -66 -182zM369.5 714q49.5 -57 105.5 -94
l-8 -14q-59 10 -116 26.5t-92 33.5q-29 -17 -75 -33.5t-93 -26.5l-8 14q55 36 104.5 93t82.5 119h18q32 -61 81.5 -118z" />
    <glyph glyph-name="edieresis" unicode="&#xeb;" horiz-adv-x="503" 
d="M454 162l17 -6q-22 -70 -74.5 -120t-134.5 -50q-105 0 -168 65t-63 208q0 137 70.5 205.5t186.5 68.5q189 0 189 -224h-258q-1 -12 -1 -36q0 -96 33.5 -137t81.5 -41q73 0 121 67zM215 328h116q1 80 -11.5 131t-38.5 51q-56 0 -66 -182zM221.5 746q26.5 -26 26.5 -61
q0 -36 -26 -61.5t-61 -25.5q-36 0 -61.5 25.5t-25.5 61.5q0 35 25.5 61t61.5 26q34 0 60.5 -26zM459.5 746q26.5 -26 26.5 -61q0 -36 -26 -61.5t-61 -25.5q-36 0 -61.5 25.5t-25.5 61.5q0 35 25.5 61t61.5 26q34 0 60.5 -26z" />
    <glyph glyph-name="igrave" unicode="&#xec;" horiz-adv-x="330" 
d="M257 93q0 -41 12.5 -56.5t43.5 -15.5v-21q-108 4 -142 4t-150 -4v21q31 0 43.5 15.5t12.5 56.5v317q0 46 -12.5 67t-43.5 21v21q32 -3 62 -3q104 0 174 14v-437zM84 836q16 0 31 -6.5t24 -17.5q12 -14 19 -30t16 -46q13 -40 22.5 -66t27.5 -62l-11 -9q-31 26 -55.5 43
t-56.5 37l-21 14t-25.5 18.5t-17.5 17.5q-17 20 -17 45q0 28 21 46q19 16 43 16z" />
    <glyph glyph-name="iacute" unicode="&#xed;" horiz-adv-x="330" 
d="M257 93q0 -41 12.5 -56.5t43.5 -15.5v-21q-108 4 -142 4t-150 -4v21q31 0 43.5 15.5t12.5 56.5v317q0 46 -12.5 67t-43.5 21v21q32 -3 62 -3q104 0 174 14v-437zM300 775q0 -26 -17 -46q-9 -11 -22.5 -21.5t-24.5 -17.5t-17 -11q-32 -20 -56.5 -37t-55.5 -43l-11 9
q18 36 27.5 62t22.5 66q9 30 16 46t19 30q9 11 23.5 17.5t30.5 6.5q25 0 44 -16q21 -16 21 -45z" />
    <glyph glyph-name="icircumflex" unicode="&#xee;" horiz-adv-x="330" 
d="M257 93q0 -41 12.5 -56.5t43.5 -15.5v-21q-108 4 -142 4t-150 -4v21q31 0 43.5 15.5t12.5 56.5v317q0 46 -12.5 67t-43.5 21v21q32 -3 62 -3q104 0 174 14v-437zM258.5 714q49.5 -57 105.5 -94l-8 -14q-59 10 -116 26.5t-92 33.5q-29 -17 -75 -33.5t-93 -26.5l-8 14
q55 36 104.5 93t82.5 119h18q32 -61 81.5 -118z" />
    <glyph glyph-name="idieresis" unicode="&#xef;" horiz-adv-x="330" 
d="M257 93q0 -41 12.5 -56.5t43.5 -15.5v-21q-108 4 -142 4t-150 -4v21q31 0 43.5 15.5t12.5 56.5v317q0 46 -12.5 67t-43.5 21v21q32 -3 62 -3q104 0 174 14v-437zM110.5 746q26.5 -26 26.5 -61q0 -36 -26 -61.5t-61 -25.5q-36 0 -61.5 25.5t-25.5 61.5q0 35 25.5 61
t61.5 26q34 0 60.5 -26zM348.5 746q26.5 -26 26.5 -61q0 -36 -26 -61.5t-61 -25.5q-36 0 -61.5 25.5t-25.5 61.5q0 35 25.5 61t61.5 26q34 0 60.5 -26z" />
    <glyph glyph-name="eth" unicode="&#xf0;" horiz-adv-x="575" 
d="M487 523q56 -97 56 -217q0 -162 -67 -242t-187 -80q-122 0 -189.5 61.5t-67.5 201.5q0 151 65 218.5t168 67.5q41 0 71 -13q-23 80 -67 136l-149 -72l-9 18l144 70q-49 56 -127 93l8 17q98 -31 178 -81l144 70l9 -18l-134 -65q98 -68 154 -165zM359 298q0 126 -19 205
q-17 5 -29 5q-47 0 -69.5 -61t-22.5 -187q0 -129 19 -192.5t51 -63.5q70 0 70 294z" />
    <glyph glyph-name="ntilde" unicode="&#xf1;" horiz-adv-x="625" 
d="M529 493q15 -18 22 -48.5t7 -80.5v-271q0 -41 12.5 -56.5t43.5 -15.5v-21q-108 4 -140 4q-34 0 -142 -4v21q26 0 36 15.5t10 56.5v325q0 32 -11.5 47.5t-37.5 15.5q-29 0 -50.5 -20.5t-21.5 -51.5v-316q0 -41 10 -56.5t36 -15.5v-21q-100 4 -132 4q-34 0 -150 -4v21
q31 0 43.5 15.5t12.5 56.5v317q0 46 -12.5 67t-43.5 21v21q32 -3 62 -3q104 0 174 14v-72q45 75 159 75q80 0 113 -40zM295.5 789q21.5 -9 48.5 -27q25 -15 41.5 -22.5t38.5 -7.5q45 0 77 53l14 -7q-16 -83 -50.5 -123t-77.5 -40q-31 0 -52 9t-50 27q-23 16 -40.5 23.5
t-39.5 7.5q-44 0 -77 -54l-14 7q16 83 50.5 123t78.5 40q31 0 52.5 -9z" />
    <glyph glyph-name="ograve" unicode="&#xf2;" horiz-adv-x="576" 
d="M478 468.5q67 -64.5 67 -209.5t-67 -209t-190 -64t-190 64t-67 209t67 209.5t190 64.5t190 -64.5zM237 450q-19 -63 -19 -191t19 -190.5t51 -62.5t51 62.5t19 190.5t-19 191t-51 63t-51 -63zM204 836q16 0 31 -6.5t24 -17.5q12 -14 19 -30t16 -46q13 -40 22.5 -66
t27.5 -62l-11 -9q-31 26 -55.5 43t-56.5 37l-21 14t-25.5 18.5t-17.5 17.5q-17 20 -17 45q0 28 21 46q19 16 43 16z" />
    <glyph glyph-name="oacute" unicode="&#xf3;" horiz-adv-x="576" 
d="M478 468.5q67 -64.5 67 -209.5t-67 -209t-190 -64t-190 64t-67 209t67 209.5t190 64.5t190 -64.5zM237 450q-19 -63 -19 -191t19 -190.5t51 -62.5t51 62.5t19 190.5t-19 191t-51 63t-51 -63zM420 775q0 -26 -17 -46q-9 -11 -22.5 -21.5t-24.5 -17.5t-17 -11
q-32 -20 -56.5 -37t-55.5 -43l-11 9q18 36 27.5 62t22.5 66q9 30 16 46t19 30q9 11 23.5 17.5t30.5 6.5q25 0 44 -16q21 -16 21 -45z" />
    <glyph glyph-name="ocircumflex" unicode="&#xf4;" horiz-adv-x="576" 
d="M478 468.5q67 -64.5 67 -209.5t-67 -209t-190 -64t-190 64t-67 209t67 209.5t190 64.5t190 -64.5zM237 450q-19 -63 -19 -191t19 -190.5t51 -62.5t51 62.5t19 190.5t-19 191t-51 63t-51 -63zM378.5 714q49.5 -57 105.5 -94l-8 -14q-59 10 -116 26.5t-92 33.5
q-29 -17 -75 -33.5t-93 -26.5l-8 14q55 36 104.5 93t82.5 119h18q32 -61 81.5 -118z" />
    <glyph glyph-name="otilde" unicode="&#xf5;" horiz-adv-x="576" 
d="M478 468.5q67 -64.5 67 -209.5t-67 -209t-190 -64t-190 64t-67 209t67 209.5t190 64.5t190 -64.5zM237 450q-19 -63 -19 -191t19 -190.5t51 -62.5t51 62.5t19 190.5t-19 191t-51 63t-51 -63zM265.5 789q21.5 -9 48.5 -27q25 -15 41.5 -22.5t38.5 -7.5q45 0 77 53l14 -7
q-16 -83 -50.5 -123t-77.5 -40q-31 0 -52 9t-50 27q-23 16 -40.5 23.5t-39.5 7.5q-44 0 -77 -54l-14 7q16 83 50.5 123t78.5 40q31 0 52.5 -9z" />
    <glyph glyph-name="odieresis" unicode="&#xf6;" horiz-adv-x="576" 
d="M478 468.5q67 -64.5 67 -209.5t-67 -209t-190 -64t-190 64t-67 209t67 209.5t190 64.5t190 -64.5zM237 450q-19 -63 -19 -191t19 -190.5t51 -62.5t51 62.5t19 190.5t-19 191t-51 63t-51 -63zM230.5 746q26.5 -26 26.5 -61q0 -36 -26 -61.5t-61 -25.5q-36 0 -61.5 25.5
t-25.5 61.5q0 35 25.5 61t61.5 26q34 0 60.5 -26zM468.5 746q26.5 -26 26.5 -61q0 -36 -26 -61.5t-61 -25.5q-36 0 -61.5 25.5t-25.5 61.5q0 35 25.5 61t61.5 26q34 0 60.5 -26z" />
    <glyph glyph-name="divide" unicode="&#xf7;" horiz-adv-x="623" 
d="M352.5 538q16.5 -16 16.5 -39t-16.5 -39t-39.5 -16t-39 16t-16 39t16.5 39t38.5 16q23 0 39.5 -16zM565 340h-501v30h501v-30zM352.5 250q16.5 -16 16.5 -39t-16.5 -39.5t-39.5 -16.5t-39 16.5t-16 39.5t16.5 39t38.5 16q23 0 39.5 -16z" />
    <glyph glyph-name="oslash" unicode="&#xf8;" horiz-adv-x="576" 
d="M545 259q0 -145 -67 -209t-190 -64q-90 0 -148 32l-64 -91l-19 13l63 91q-89 65 -89 228q0 145 67 209.5t190 64.5q91 0 148 -33l64 92l19 -13l-63 -91q89 -67 89 -229zM237 450q-19 -63 -19 -191q0 -53 3 -94l129 230q-8 60 -24 89t-38 29q-32 0 -51 -63zM339 68.5
q19 62.5 19 190.5q0 59 -4 96l-128 -231q8 -60 24 -89t38 -29q32 0 51 62.5z" />
    <glyph glyph-name="ugrave" unicode="&#xf9;" horiz-adv-x="622" 
d="M548 109q0 -46 12.5 -67t43.5 -21v-21q-31 3 -62 3q-104 0 -174 -14v72q-45 -75 -159 -75q-80 0 -113 40q-15 18 -22 48.5t-7 80.5v255q0 46 -12.5 67t-43.5 21v21q31 -3 62 -3q104 0 174 14v-429q0 -32 11.5 -47.5t37.5 -15.5q29 0 50.5 20.5t21.5 51.5v300
q0 46 -12.5 67t-43.5 21v21q31 -3 62 -3q104 0 174 14v-421zM211 836q16 0 31 -6.5t24 -17.5q12 -14 19 -30t16 -46q13 -40 22.5 -66t27.5 -62l-11 -9q-31 26 -55.5 43t-56.5 37l-21 14t-25.5 18.5t-17.5 17.5q-17 20 -17 45q0 28 21 46q19 16 43 16z" />
    <glyph glyph-name="uacute" unicode="&#xfa;" horiz-adv-x="622" 
d="M548 109q0 -46 12.5 -67t43.5 -21v-21q-31 3 -62 3q-104 0 -174 -14v72q-45 -75 -159 -75q-80 0 -113 40q-15 18 -22 48.5t-7 80.5v255q0 46 -12.5 67t-43.5 21v21q31 -3 62 -3q104 0 174 14v-429q0 -32 11.5 -47.5t37.5 -15.5q29 0 50.5 20.5t21.5 51.5v300
q0 46 -12.5 67t-43.5 21v21q31 -3 62 -3q104 0 174 14v-421zM427 775q0 -26 -17 -46q-9 -11 -22.5 -21.5t-24.5 -17.5t-17 -11q-32 -20 -56.5 -37t-55.5 -43l-11 9q18 36 27.5 62t22.5 66q9 30 16 46t19 30q9 11 23.5 17.5t30.5 6.5q25 0 44 -16q21 -16 21 -45z" />
    <glyph glyph-name="ucircumflex" unicode="&#xfb;" horiz-adv-x="622" 
d="M548 109q0 -46 12.5 -67t43.5 -21v-21q-31 3 -62 3q-104 0 -174 -14v72q-45 -75 -159 -75q-80 0 -113 40q-15 18 -22 48.5t-7 80.5v255q0 46 -12.5 67t-43.5 21v21q31 -3 62 -3q104 0 174 14v-429q0 -32 11.5 -47.5t37.5 -15.5q29 0 50.5 20.5t21.5 51.5v300
q0 46 -12.5 67t-43.5 21v21q31 -3 62 -3q104 0 174 14v-421zM385.5 714q49.5 -57 105.5 -94l-8 -14q-59 10 -116 26.5t-92 33.5q-29 -17 -75 -33.5t-93 -26.5l-8 14q55 36 104.5 93t82.5 119h18q32 -61 81.5 -118z" />
    <glyph glyph-name="udieresis" unicode="&#xfc;" horiz-adv-x="622" 
d="M548 109q0 -46 12.5 -67t43.5 -21v-21q-31 3 -62 3q-104 0 -174 -14v72q-45 -75 -159 -75q-80 0 -113 40q-15 18 -22 48.5t-7 80.5v255q0 46 -12.5 67t-43.5 21v21q31 -3 62 -3q104 0 174 14v-429q0 -32 11.5 -47.5t37.5 -15.5q29 0 50.5 20.5t21.5 51.5v300
q0 46 -12.5 67t-43.5 21v21q31 -3 62 -3q104 0 174 14v-421zM237.5 746q26.5 -26 26.5 -61q0 -36 -26 -61.5t-61 -25.5q-36 0 -61.5 25.5t-25.5 61.5q0 35 25.5 61t61.5 26q34 0 60.5 -26zM475.5 746q26.5 -26 26.5 -61q0 -36 -26 -61.5t-61 -25.5q-36 0 -61.5 25.5
t-25.5 61.5q0 35 25.5 61t61.5 26q34 0 60.5 -26z" />
    <glyph glyph-name="yacute" unicode="&#xfd;" horiz-adv-x="529" 
d="M525 519v-21q-21 -7 -38.5 -29t-32.5 -68l-125 -372l-42 -121q-18 -52 -44 -72q-31 -24 -93 -24q-50 0 -93 23.5t-43 70.5q0 35 27 56t71 21q42 0 66 -19t24 -55q0 -24 -16.5 -45.5t-48.5 -31.5q10 -2 34 -2q69 0 95 80l5 17l-233 515q-15 34 -29.5 45t-28.5 11v21
q80 -6 163 -6q65 0 145 6v-21q-29 0 -44.5 -4t-15.5 -18q0 -8 4 -16l123 -293l42 128q19 58 19 102q0 47 -20 73t-53 28v21q37 -4 105 -4q57 0 77 4zM392 775q0 -26 -17 -46q-9 -11 -22.5 -21.5t-24.5 -17.5t-17 -11q-32 -20 -56.5 -37t-55.5 -43l-11 9q18 36 27.5 62
t22.5 66q9 30 16 46t19 30q9 11 23.5 17.5t30.5 6.5q25 0 44 -16q21 -16 21 -45z" />
    <glyph glyph-name="thorn" unicode="&#xfe;" horiz-adv-x="601" 
d="M521 469q48 -64 48 -187q0 -159 -64 -227.5t-169 -68.5q-58 0 -93 19v-83q0 -46 21.5 -64t64.5 -18v-21l-29 1q-120 3 -155 3q-30 0 -138 -4v21q31 0 43.5 15.5t12.5 56.5v750q0 46 -12.5 67t-43.5 21v21q31 -3 62 -3q104 0 174 14v-324q46 75 152 75q78 0 126 -64z
M357.5 75.5q24.5 59.5 24.5 183.5q0 123 -18 172.5t-49 49.5q-29 0 -50.5 -20.5t-21.5 -51.5v-385q13 -8 35 -8q55 0 79.5 59.5z" />
    <glyph glyph-name="ydieresis" unicode="&#xff;" horiz-adv-x="529" 
d="M525 519v-21q-21 -7 -38.5 -29t-32.5 -68l-125 -372l-42 -121q-18 -52 -44 -72q-31 -24 -93 -24q-50 0 -93 23.5t-43 70.5q0 35 27 56t71 21q42 0 66 -19t24 -55q0 -24 -16.5 -45.5t-48.5 -31.5q10 -2 34 -2q69 0 95 80l5 17l-233 515q-15 34 -29.5 45t-28.5 11v21
q80 -6 163 -6q65 0 145 6v-21q-29 0 -44.5 -4t-15.5 -18q0 -8 4 -16l123 -293l42 128q19 58 19 102q0 47 -20 73t-53 28v21q37 -4 105 -4q57 0 77 4zM202.5 746q26.5 -26 26.5 -61q0 -36 -26 -61.5t-61 -25.5q-36 0 -61.5 25.5t-25.5 61.5q0 35 25.5 61t61.5 26
q34 0 60.5 -26zM440.5 746q26.5 -26 26.5 -61q0 -36 -26 -61.5t-61 -25.5q-36 0 -61.5 25.5t-25.5 61.5q0 35 25.5 61t61.5 26q34 0 60.5 -26z" />
    <glyph glyph-name="Amacron" unicode="&#x100;" horiz-adv-x="692" 
d="M668.5 36.5q15.5 -15.5 30.5 -16.5v-20q-72 3 -182 3q-114 0 -168 -3v20q38 2 54 9.5t16 26.5q0 18 -12 48l-59 164h-202l-17 -45q-33 -85 -33 -130q0 -41 23 -56t68 -17v-20q-75 3 -131 3q-47 0 -77 -3v20q25 4 47 31t45 86l222 571q32 -2 53 -2q20 0 52 2l242 -624
q13 -32 28.5 -47.5zM341 288l-91 250l-96 -250h187zM561 819h-432v25h432v-25z" />
    <glyph glyph-name="amacron" unicode="&#x101;" horiz-adv-x="531" 
d="M54.5 27.5q-32.5 34.5 -32.5 86.5q0 45 23.5 74.5t55.5 45.5t83 33q54 18 79 33t25 42v89q0 32 -16 57t-55 25q-31 0 -56 -17q34 -12 50.5 -35.5t16.5 -52.5q0 -39 -27.5 -62.5t-66.5 -23.5t-61.5 24.5t-22.5 62.5q0 30 15 52t47 40q56 32 160 32q55 0 95 -10.5t68 -39.5
q20 -21 26.5 -52.5t6.5 -87.5v-268q0 -25 3.5 -34t12.5 -9q7 0 15 4.5t15 10.5l10 -17q-43 -37 -123 -37q-60 0 -84 20.5t-26 55.5q-47 -76 -140 -76q-64 0 -96.5 34.5zM288 90v211q-9 -15 -33 -39q-27 -26 -41 -50.5t-14 -66.5q0 -72 51 -72q21 0 37 17zM442 687h-352v25
h352v-25z" />
    <glyph glyph-name="Abreve" unicode="&#x102;" horiz-adv-x="692" 
d="M668.5 36.5q15.5 -15.5 30.5 -16.5v-20q-72 3 -182 3q-114 0 -168 -3v20q38 2 54 9.5t16 26.5q0 18 -12 48l-59 164h-202l-17 -45q-33 -85 -33 -130q0 -41 23 -56t68 -17v-20q-75 3 -131 3q-47 0 -77 -3v20q25 4 47 31t45 86l222 571q32 -2 53 -2q20 0 52 2l242 -624
q13 -32 28.5 -47.5zM341 288l-91 250l-96 -250h187zM574 909q-23 -59 -84 -102.5t-155 -43.5t-155 43.5t-84 102.5l12 11q90 -58 227 -58t227 58z" />
    <glyph glyph-name="abreve" unicode="&#x103;" horiz-adv-x="531" 
d="M54.5 27.5q-32.5 34.5 -32.5 86.5q0 45 23.5 74.5t55.5 45.5t83 33q54 18 79 33t25 42v89q0 32 -16 57t-55 25q-31 0 -56 -17q34 -12 50.5 -35.5t16.5 -52.5q0 -39 -27.5 -62.5t-66.5 -23.5t-61.5 24.5t-22.5 62.5q0 30 15 52t47 40q56 32 160 32q55 0 95 -10.5t68 -39.5
q20 -21 26.5 -52.5t6.5 -87.5v-268q0 -25 3.5 -34t12.5 -9q7 0 15 4.5t15 10.5l10 -17q-43 -37 -123 -37q-60 0 -84 20.5t-26 55.5q-47 -76 -140 -76q-64 0 -96.5 34.5zM288 90v211q-9 -15 -33 -39q-27 -26 -41 -50.5t-14 -66.5q0 -72 51 -72q21 0 37 17zM467 779
q-20 -70 -68 -118t-131 -48t-131 48t-68 118l17 9q69 -56 182 -56t182 56z" />
    <glyph glyph-name="Aogonek" unicode="&#x104;" horiz-adv-x="692" 
d="M668.5 36.5q15.5 -15.5 30.5 -16.5v-20q-72 3 -182 3q-114 0 -168 -3v20q38 2 54 9.5t16 26.5q0 18 -12 48l-59 164h-202l-17 -45q-33 -85 -33 -130q0 -41 23 -56t68 -17v-20q-75 3 -131 3q-47 0 -77 -3v20q25 4 47 31t45 86l222 571q32 -2 53 -2q20 0 52 2l242 -624
q13 -32 28.5 -47.5zM341 288l-91 250l-96 -250h187zM601.5 -42q-27.5 -25 -27.5 -48q0 -20 9.5 -29t30.5 -9q17 0 36 6.5t30 16.5l13 -15q-29 -36 -65 -52t-88 -16q-48 0 -73.5 18.5t-25.5 52.5q0 43 54.5 73.5t153.5 46.5h38q-58 -20 -85.5 -45z" />
    <glyph glyph-name="aogonek" unicode="&#x105;" horiz-adv-x="531" 
d="M54.5 27.5q-32.5 34.5 -32.5 86.5q0 45 23.5 74.5t55.5 45.5t83 33q54 18 79 33t25 42v89q0 32 -16 57t-55 25q-31 0 -56 -17q34 -12 50.5 -35.5t16.5 -52.5q0 -39 -27.5 -62.5t-66.5 -23.5t-61.5 24.5t-22.5 62.5q0 30 15 52t47 40q56 32 160 32q55 0 95 -10.5t68 -39.5
q20 -21 26.5 -52.5t6.5 -87.5v-268q0 -25 3.5 -34t12.5 -9q7 0 15 4.5t15 10.5l10 -17q-43 -37 -123 -37q-60 0 -84 20.5t-26 55.5q-47 -76 -140 -76q-64 0 -96.5 34.5zM288 90v211q-9 -15 -33 -39q-27 -26 -41 -50.5t-14 -66.5q0 -72 51 -72q21 0 37 17zM463 -4
q-36 -18 -52 -41t-16 -45q0 -38 40 -38q17 0 36 6.5t30 16.5l13 -15q-29 -36 -65 -52t-88 -16q-48 0 -73.5 18.5t-25.5 52.5q0 43 46.5 73.5t131.5 46.5l48 10q-6 -8 -25 -17z" />
    <glyph glyph-name="Cacute" unicode="&#x106;" horiz-adv-x="717" 
d="M516 705q42 -17 82 -48q10 -9 19 -9q20 0 26 60h23q-4 -71 -4 -250h-23q-7 80 -26 126t-66 77q-47 30 -93 30q-104 0 -146 -100t-42 -239t42 -239t146 -100q46 0 93 30q47 29 66 78t26 139h23q0 -187 4 -260h-23q-3 32 -8.5 45.5t-15.5 13.5q-8 0 -21 -8
q-45 -32 -86 -48.5t-99 -16.5q-113 0 -198 43t-132 124.5t-47 194.5q0 110 48 195t134 132t196 47q60 0 102 -17zM497 946q19 0 36.5 -10t26.5 -28q6 -12 6 -26q0 -18 -10 -34t-28 -25q-16 -8 -33 -12t-46 -9q-71 -11 -134 -30l-7 12q52 44 96 99q21 24 33 36t29 20
q16 7 31 7z" />
    <glyph glyph-name="cacute" unicode="&#x107;" horiz-adv-x="503" 
d="M362.5 524.5q34.5 -8.5 56.5 -21.5q28 -16 44 -43t16 -61q0 -42 -27 -69.5t-69 -27.5q-43 0 -67.5 24.5t-24.5 65.5q0 36 23.5 63.5t58.5 36.5q-15 12 -40 12q-64 0 -90 -68.5t-26 -162.5q0 -96 36 -137t89 -41q73 0 121 67l17 -6q-22 -70 -74.5 -120t-134.5 -50
q-109 0 -175 65t-66 208q0 137 70.5 205.5t186.5 68.5q41 0 75.5 -8.5zM403 775q0 -26 -17 -46q-9 -11 -22.5 -21.5t-24.5 -17.5t-17 -11q-32 -20 -56.5 -37t-55.5 -43l-11 9q18 36 27.5 62t22.5 66q9 30 16 46t19 30q9 11 23.5 17.5t30.5 6.5q25 0 44 -16q21 -16 21 -45z
" />
    <glyph glyph-name="Ccircumflex" unicode="&#x108;" horiz-adv-x="717" 
d="M516 705q42 -17 82 -48q10 -9 19 -9q20 0 26 60h23q-4 -71 -4 -250h-23q-7 80 -26 126t-66 77q-47 30 -93 30q-104 0 -146 -100t-42 -239t42 -239t146 -100q46 0 93 30q47 29 66 78t26 139h23q0 -187 4 -260h-23q-3 32 -8.5 45.5t-15.5 13.5q-8 0 -21 -8
q-45 -32 -86 -48.5t-99 -16.5q-113 0 -198 43t-132 124.5t-47 194.5q0 110 48 195t134 132t196 47q60 0 102 -17zM492 861.5q58 -46.5 123 -77.5l-5 -15q-68 10 -135 27t-106 34q-33 -17 -89 -34t-112 -27l-5 15q64 30 121.5 76.5t95.5 95.5h18q36 -48 94 -94.5z" />
    <glyph glyph-name="ccircumflex" unicode="&#x109;" horiz-adv-x="503" 
d="M362.5 524.5q34.5 -8.5 56.5 -21.5q28 -16 44 -43t16 -61q0 -42 -27 -69.5t-69 -27.5q-43 0 -67.5 24.5t-24.5 65.5q0 36 23.5 63.5t58.5 36.5q-15 12 -40 12q-64 0 -90 -68.5t-26 -162.5q0 -96 36 -137t89 -41q73 0 121 67l17 -6q-22 -70 -74.5 -120t-134.5 -50
q-109 0 -175 65t-66 208q0 137 70.5 205.5t186.5 68.5q41 0 75.5 -8.5zM361.5 714q49.5 -57 105.5 -94l-8 -14q-59 10 -116 26.5t-92 33.5q-29 -17 -75 -33.5t-93 -26.5l-8 14q55 36 104.5 93t82.5 119h18q32 -61 81.5 -118z" />
    <glyph glyph-name="Cdotaccent" unicode="&#x10a;" horiz-adv-x="717" 
d="M516 705q42 -17 82 -48q10 -9 19 -9q20 0 26 60h23q-4 -71 -4 -250h-23q-7 80 -26 126t-66 77q-47 30 -93 30q-104 0 -146 -100t-42 -239t42 -239t146 -100q46 0 93 30q47 29 66 78t26 139h23q0 -187 4 -260h-23q-3 32 -8.5 45.5t-15.5 13.5q-8 0 -21 -8
q-45 -32 -86 -48.5t-99 -16.5q-113 0 -198 43t-132 124.5t-47 194.5q0 110 48 195t134 132t196 47q60 0 102 -17zM463.5 910q25.5 -22 25.5 -64t-25.5 -64t-73.5 -22t-73.5 22t-25.5 64t25.5 64t73.5 22t73.5 -22z" />
    <glyph glyph-name="cdotaccent" unicode="&#x10b;" horiz-adv-x="503" 
d="M362.5 524.5q34.5 -8.5 56.5 -21.5q28 -16 44 -43t16 -61q0 -42 -27 -69.5t-69 -27.5q-43 0 -67.5 24.5t-24.5 65.5q0 36 23.5 63.5t58.5 36.5q-15 12 -40 12q-64 0 -90 -68.5t-26 -162.5q0 -96 36 -137t89 -41q73 0 121 67l17 -6q-22 -70 -74.5 -120t-134.5 -50
q-109 0 -175 65t-66 208q0 137 70.5 205.5t186.5 68.5q41 0 75.5 -8.5zM351.5 760q28.5 -22 28.5 -64t-28.5 -64t-80.5 -22q-53 0 -81 22t-28 64t28 64t81 22q52 0 80.5 -22z" />
    <glyph glyph-name="Ccaron" unicode="&#x10c;" horiz-adv-x="717" 
d="M516 705q42 -17 82 -48q10 -9 19 -9q20 0 26 60h23q-4 -71 -4 -250h-23q-7 80 -26 126t-66 77q-47 30 -93 30q-104 0 -146 -100t-42 -239t42 -239t146 -100q46 0 93 30q47 29 66 78t26 139h23q0 -187 4 -260h-23q-3 32 -8.5 45.5t-15.5 13.5q-8 0 -21 -8
q-45 -32 -86 -48.5t-99 -16.5q-113 0 -198 43t-132 124.5t-47 194.5q0 110 48 195t134 132t196 47q60 0 102 -17zM612 931q-64 -30 -121.5 -76.5t-95.5 -95.5h-18q-36 48 -94 94.5t-123 77.5l5 15q68 -10 135 -27t106 -34q33 17 89 34t112 27z" />
    <glyph glyph-name="ccaron" unicode="&#x10d;" horiz-adv-x="503" 
d="M362.5 524.5q34.5 -8.5 56.5 -21.5q28 -16 44 -43t16 -61q0 -42 -27 -69.5t-69 -27.5q-43 0 -67.5 24.5t-24.5 65.5q0 36 23.5 63.5t58.5 36.5q-15 12 -40 12q-64 0 -90 -68.5t-26 -162.5q0 -96 36 -137t89 -41q73 0 121 67l17 -6q-22 -70 -74.5 -120t-134.5 -50
q-109 0 -175 65t-66 208q0 137 70.5 205.5t186.5 68.5q41 0 75.5 -8.5zM457 818q-55 -36 -104.5 -93t-82.5 -119h-18q-32 61 -81.5 118t-105.5 94l8 14q59 -10 116 -26.5t92 -33.5q29 17 75 33.5t93 26.5z" />
    <glyph glyph-name="Dcaron" unicode="&#x10e;" horiz-adv-x="811" 
d="M671 619.5q103 -88.5 103 -257.5q0 -109 -50.5 -190.5t-145.5 -126.5t-226 -45l-62 1q-60 2 -88 2q-117 0 -174 -3v20q32 2 46.5 8t19.5 23t5 55v496q0 38 -5.5 55t-19.5 23t-46 8v20q46 -3 136 -3h36l44 1q84 2 117 2q207 0 310 -88.5zM329.5 683q-15.5 -7 -21.5 -25
t-6 -54v-500q0 -36 6 -54t21.5 -25t47.5 -7q99 0 143 85.5t44 254.5t-45.5 250.5t-142.5 81.5q-31 0 -46.5 -7zM584 931q-64 -30 -121.5 -76.5t-95.5 -95.5h-18q-36 48 -94 94.5t-123 77.5l5 15q68 -10 135 -27t106 -34q33 17 89 34t112 27z" />
    <glyph glyph-name="dcaron" unicode="&#x10f;" horiz-adv-x="609" 
d="M549.5 43q12.5 -21 43.5 -21v-21q-31 3 -62 3q-104 0 -174 -14v71q-21 -39 -49.5 -57t-72.5 -18q-92 0 -148 68.5t-56 208.5q0 133 59.5 201.5t162.5 68.5q64 0 104 -25v154q0 46 -12.5 67t-43.5 21v21q31 -3 62 -3q104 0 174 14v-672q0 -46 12.5 -67zM335.5 58.5
q21.5 20.5 21.5 51.5v377q-22 13 -47 13q-47 0 -69.5 -59.5t-22.5 -180.5q0 -123 18 -172.5t49 -49.5q29 0 50.5 20.5zM707.5 766.5q1.5 -12.5 1.5 -23.5q0 -26 -25.5 -63.5t-91.5 -116.5l-14 4q20 113 20 145q0 21 -4 30.5t-16 9.5v21l28 -1q29 0 49 3t49 9q2 -5 3.5 -17.5
z" />
    <glyph glyph-name="Dcroat" unicode="&#x110;" horiz-adv-x="811" 
d="M671 619.5q103 -88.5 103 -257.5q0 -109 -50.5 -190.5t-145.5 -126.5t-226 -45l-62 1q-60 2 -88 2q-117 0 -174 -3v20q32 2 46.5 8t19.5 23t5 55v496q0 38 -5.5 55t-19.5 23t-46 8v20q46 -3 136 -3h36l44 1q84 2 117 2q207 0 310 -88.5zM329.5 683q-15.5 -7 -21.5 -25
t-6 -54v-500q0 -36 6 -54t21.5 -25t47.5 -7q99 0 143 85.5t44 254.5t-45.5 250.5t-142.5 81.5q-31 0 -46.5 -7zM412 346h-404v20h404v-20z" />
    <glyph glyph-name="dcroat" unicode="&#x111;" horiz-adv-x="609" 
d="M549.5 43q12.5 -21 43.5 -21v-21q-31 3 -62 3q-104 0 -174 -14v71q-21 -39 -49.5 -57t-72.5 -18q-92 0 -148 68.5t-56 208.5q0 133 59.5 201.5t162.5 68.5q64 0 104 -25v154q0 46 -12.5 67t-43.5 21v21q31 -3 62 -3q104 0 174 14v-672q0 -46 12.5 -67zM335.5 58.5
q21.5 20.5 21.5 51.5v377q-22 13 -47 13q-47 0 -69.5 -59.5t-22.5 -180.5q0 -123 18 -172.5t49 -49.5q29 0 50.5 20.5zM600 608h-404v20h404v-20z" />
    <glyph glyph-name="Emacron" unicode="&#x112;" horiz-adv-x="650" 
d="M607 0q-68 3 -229 3q-234 0 -350 -3v20q32 2 46.5 8t19.5 23t5 55v496q0 38 -5.5 55t-19.5 23t-46 8v20q116 -3 350 -3q147 0 209 3q-7 -94 -7 -168q0 -46 3 -72h-23q-18 116 -67 166.5t-117 50.5h-13q-27 0 -39.5 -4.5t-17 -17t-4.5 -41.5v-256h10q52 0 89 41t47 91h23
q-3 -42 -3 -94v-48q0 -51 6 -142h-23q-9 57 -46.5 94.5t-92.5 37.5h-10v-260q0 -29 4.5 -41.5t17 -17t39.5 -4.5h33q58 0 110 56.5t74 180.5h23q-3 -36 -3 -92q0 -102 7 -168zM536 819h-432v25h432v-25z" />
    <glyph glyph-name="emacron" unicode="&#x113;" horiz-adv-x="503" 
d="M454 162l17 -6q-22 -70 -74.5 -120t-134.5 -50q-105 0 -168 65t-63 208q0 137 70.5 205.5t186.5 68.5q189 0 189 -224h-258q-1 -12 -1 -36q0 -96 33.5 -137t81.5 -41q73 0 121 67zM215 328h116q1 80 -11.5 131t-38.5 51q-56 0 -66 -182zM452 687h-352v25h352v-25z" />
    <glyph glyph-name="Ebreve" unicode="&#x114;" horiz-adv-x="650" 
d="M607 0q-68 3 -229 3q-234 0 -350 -3v20q32 2 46.5 8t19.5 23t5 55v496q0 38 -5.5 55t-19.5 23t-46 8v20q116 -3 350 -3q147 0 209 3q-7 -94 -7 -168q0 -46 3 -72h-23q-18 116 -67 166.5t-117 50.5h-13q-27 0 -39.5 -4.5t-17 -17t-4.5 -41.5v-256h10q52 0 89 41t47 91h23
q-3 -42 -3 -94v-48q0 -51 6 -142h-23q-9 57 -46.5 94.5t-92.5 37.5h-10v-260q0 -29 4.5 -41.5t17 -17t39.5 -4.5h33q58 0 110 56.5t74 180.5h23q-3 -36 -3 -92q0 -102 7 -168zM549 909q-23 -59 -84 -102.5t-155 -43.5t-155 43.5t-84 102.5l12 11q90 -58 227 -58t227 58z" />
    <glyph glyph-name="ebreve" unicode="&#x115;" horiz-adv-x="503" 
d="M454 162l17 -6q-22 -70 -74.5 -120t-134.5 -50q-105 0 -168 65t-63 208q0 137 70.5 205.5t186.5 68.5q189 0 189 -224h-258q-1 -12 -1 -36q0 -96 33.5 -137t81.5 -41q73 0 121 67zM215 328h116q1 80 -11.5 131t-38.5 51q-56 0 -66 -182zM477 779q-20 -70 -68 -118
t-131 -48t-131 48t-68 118l17 9q69 -56 182 -56t182 56z" />
    <glyph glyph-name="Edotaccent" unicode="&#x116;" horiz-adv-x="650" 
d="M607 0q-68 3 -229 3q-234 0 -350 -3v20q32 2 46.5 8t19.5 23t5 55v496q0 38 -5.5 55t-19.5 23t-46 8v20q116 -3 350 -3q147 0 209 3q-7 -94 -7 -168q0 -46 3 -72h-23q-18 116 -67 166.5t-117 50.5h-13q-27 0 -39.5 -4.5t-17 -17t-4.5 -41.5v-256h10q52 0 89 41t47 91h23
q-3 -42 -3 -94v-48q0 -51 6 -142h-23q-9 57 -46.5 94.5t-92.5 37.5h-10v-260q0 -29 4.5 -41.5t17 -17t39.5 -4.5h33q58 0 110 56.5t74 180.5h23q-3 -36 -3 -92q0 -102 7 -168zM394.5 910q25.5 -22 25.5 -64t-25.5 -64t-73.5 -22t-73.5 22t-25.5 64t25.5 64t73.5 22t73.5 -22
z" />
    <glyph glyph-name="edotaccent" unicode="&#x117;" horiz-adv-x="503" 
d="M454 162l17 -6q-22 -70 -74.5 -120t-134.5 -50q-105 0 -168 65t-63 208q0 137 70.5 205.5t186.5 68.5q189 0 189 -224h-258q-1 -12 -1 -36q0 -96 33.5 -137t81.5 -41q73 0 121 67zM215 328h116q1 80 -11.5 131t-38.5 51q-56 0 -66 -182zM359.5 760q28.5 -22 28.5 -64
t-28.5 -64t-80.5 -22q-53 0 -81 22t-28 64t28 64t81 22q52 0 80.5 -22z" />
    <glyph glyph-name="Eogonek" unicode="&#x118;" horiz-adv-x="650" 
d="M607 0q-68 3 -229 3q-234 0 -350 -3v20q32 2 46.5 8t19.5 23t5 55v496q0 38 -5.5 55t-19.5 23t-46 8v20q116 -3 350 -3q147 0 209 3q-7 -94 -7 -168q0 -46 3 -72h-23q-18 116 -67 166.5t-117 50.5h-13q-27 0 -39.5 -4.5t-17 -17t-4.5 -41.5v-256h10q52 0 89 41t47 91h23
q-3 -42 -3 -94v-48q0 -51 6 -142h-23q-9 57 -46.5 94.5t-92.5 37.5h-10v-260q0 -29 4.5 -41.5t17 -17t39.5 -4.5h33q58 0 110 56.5t74 180.5h23q-3 -36 -3 -92q0 -102 7 -168zM517.5 -42q-27.5 -25 -27.5 -48q0 -20 9.5 -29t30.5 -9q17 0 36 6.5t30 16.5l13 -15
q-29 -36 -65 -52t-88 -16q-48 0 -73.5 18.5t-25.5 52.5q0 43 54.5 73.5t153.5 46.5h38q-58 -20 -85.5 -45z" />
    <glyph glyph-name="eogonek" unicode="&#x119;" horiz-adv-x="503" 
d="M454 162l17 -6q-22 -70 -74.5 -120t-134.5 -50q-105 0 -168 65t-63 208q0 137 70.5 205.5t186.5 68.5q189 0 189 -224h-258q-1 -12 -1 -36q0 -96 33.5 -137t81.5 -41q73 0 121 67zM215 328h116q1 80 -11.5 131t-38.5 51q-56 0 -66 -182zM333 -4q-36 -18 -52 -41t-16 -45
q0 -38 40 -38q17 0 36 6.5t30 16.5l13 -15q-29 -36 -65 -52t-88 -16q-48 0 -73.5 18.5t-25.5 52.5q0 43 46.5 73.5t131.5 46.5l48 10q-6 -8 -25 -17z" />
    <glyph glyph-name="Ecaron" unicode="&#x11a;" horiz-adv-x="650" 
d="M607 0q-68 3 -229 3q-234 0 -350 -3v20q32 2 46.5 8t19.5 23t5 55v496q0 38 -5.5 55t-19.5 23t-46 8v20q116 -3 350 -3q147 0 209 3q-7 -94 -7 -168q0 -46 3 -72h-23q-18 116 -67 166.5t-117 50.5h-13q-27 0 -39.5 -4.5t-17 -17t-4.5 -41.5v-256h10q52 0 89 41t47 91h23
q-3 -42 -3 -94v-48q0 -51 6 -142h-23q-9 57 -46.5 94.5t-92.5 37.5h-10v-260q0 -29 4.5 -41.5t17 -17t39.5 -4.5h33q58 0 110 56.5t74 180.5h23q-3 -36 -3 -92q0 -102 7 -168zM543 931q-64 -30 -121.5 -76.5t-95.5 -95.5h-18q-36 48 -94 94.5t-123 77.5l5 15q68 -10 135 -27
t106 -34q33 17 89 34t112 27z" />
    <glyph glyph-name="ecaron" unicode="&#x11b;" horiz-adv-x="503" 
d="M454 162l17 -6q-22 -70 -74.5 -120t-134.5 -50q-105 0 -168 65t-63 208q0 137 70.5 205.5t186.5 68.5q189 0 189 -224h-258q-1 -12 -1 -36q0 -96 33.5 -137t81.5 -41q73 0 121 67zM215 328h116q1 80 -11.5 131t-38.5 51q-56 0 -66 -182zM465 818q-55 -36 -104.5 -93
t-82.5 -119h-18q-32 61 -81.5 118t-105.5 94l8 14q59 -10 116 -26.5t92 -33.5q29 17 75 33.5t93 26.5z" />
    <glyph glyph-name="Gcircumflex" unicode="&#x11c;" horiz-adv-x="756" 
d="M534 705q46 -17 84 -48q11 -9 20 -9q10 0 16 14.5t9 45.5h23q-4 -71 -4 -250h-23q-7 79 -26 125t-66 78q-21 14 -48.5 22t-54.5 8q-72 0 -116.5 -50.5t-63 -127.5t-18.5 -161q0 -174 42.5 -260t118.5 -86q31 0 49 12q21 15 21 50v100q0 50 -8 73.5t-28.5 32t-64.5 10.5
v20q68 -3 191 -3q103 0 154 3v-20q-18 -2 -26.5 -8t-11.5 -23t-3 -55v-198h-20q-1 21 -9 39t-22 18q-21 0 -68 -23q-100 -48 -169 -48q-186 0 -281 94t-95 268q0 110 49.5 195t137.5 132t201 47q64 0 110 -17zM506 861.5q58 -46.5 123 -77.5l-5 -15q-68 10 -135 27t-106 34
q-33 -17 -89 -34t-112 -27l-5 15q64 30 121.5 76.5t95.5 95.5h18q36 -48 94 -94.5z" />
    <glyph glyph-name="gcircumflex" unicode="&#x11d;" horiz-adv-x="570" 
d="M479.5 432.5q-15.5 14.5 -15.5 40.5q0 24 14 52q-44 -18 -65 -51q37 -39 37 -101q0 -79 -58.5 -119.5t-156.5 -40.5q-19 0 -28 1q-26 -18 -26 -42q0 -32 36 -32h97q102 0 159.5 -34.5t57.5 -107.5q0 -52 -33.5 -94t-103 -67t-173.5 -25q-103 0 -162 23t-59 65q0 29 29 53
t88 38l10 -16q-27 -33 -27 -64q0 -39 35.5 -60.5t99.5 -21.5q66 0 101.5 26.5t35.5 70.5q0 31 -23.5 49.5t-82.5 18.5h-54q-68 0 -104 26t-36 70q0 40 28.5 70t82.5 56q-76 10 -119.5 49.5t-43.5 107.5q0 79 58.5 119.5t156.5 40.5q105 0 162 -44q19 26 46 41t57 15
q33 0 51 -18.5t18 -47.5q0 -28 -15 -44.5t-38 -16.5q-21 0 -36.5 14.5zM265.5 263.5q10.5 32.5 10.5 109.5t-10.5 109.5t-30.5 32.5t-30.5 -32.5t-10.5 -109.5t10.5 -109.5t30.5 -32.5t30.5 32.5zM345.5 714q49.5 -57 105.5 -94l-8 -14q-59 10 -116 26.5t-92 33.5
q-29 -17 -75 -33.5t-93 -26.5l-8 14q55 36 104.5 93t82.5 119h18q32 -61 81.5 -118z" />
    <glyph glyph-name="Gbreve" unicode="&#x11e;" horiz-adv-x="756" 
d="M534 705q46 -17 84 -48q11 -9 20 -9q10 0 16 14.5t9 45.5h23q-4 -71 -4 -250h-23q-7 79 -26 125t-66 78q-21 14 -48.5 22t-54.5 8q-72 0 -116.5 -50.5t-63 -127.5t-18.5 -161q0 -174 42.5 -260t118.5 -86q31 0 49 12q21 15 21 50v100q0 50 -8 73.5t-28.5 32t-64.5 10.5
v20q68 -3 191 -3q103 0 154 3v-20q-18 -2 -26.5 -8t-11.5 -23t-3 -55v-198h-20q-1 21 -9 39t-22 18q-21 0 -68 -23q-100 -48 -169 -48q-186 0 -281 94t-95 268q0 110 49.5 195t137.5 132t201 47q64 0 110 -17zM632 909q-23 -59 -84 -102.5t-155 -43.5t-155 43.5t-84 102.5
l12 11q90 -58 227 -58t227 58z" />
    <glyph glyph-name="gbreve" unicode="&#x11f;" horiz-adv-x="570" 
d="M479.5 432.5q-15.5 14.5 -15.5 40.5q0 24 14 52q-44 -18 -65 -51q37 -39 37 -101q0 -79 -58.5 -119.5t-156.5 -40.5q-19 0 -28 1q-26 -18 -26 -42q0 -32 36 -32h97q102 0 159.5 -34.5t57.5 -107.5q0 -52 -33.5 -94t-103 -67t-173.5 -25q-103 0 -162 23t-59 65q0 29 29 53
t88 38l10 -16q-27 -33 -27 -64q0 -39 35.5 -60.5t99.5 -21.5q66 0 101.5 26.5t35.5 70.5q0 31 -23.5 49.5t-82.5 18.5h-54q-68 0 -104 26t-36 70q0 40 28.5 70t82.5 56q-76 10 -119.5 49.5t-43.5 107.5q0 79 58.5 119.5t156.5 40.5q105 0 162 -44q19 26 46 41t57 15
q33 0 51 -18.5t18 -47.5q0 -28 -15 -44.5t-38 -16.5q-21 0 -36.5 14.5zM265.5 263.5q10.5 32.5 10.5 109.5t-10.5 109.5t-30.5 32.5t-30.5 -32.5t-10.5 -109.5t10.5 -109.5t30.5 -32.5t30.5 32.5zM453 779q-20 -70 -68 -118t-131 -48t-131 48t-68 118l17 9q69 -56 182 -56
t182 56z" />
    <glyph glyph-name="Gdotaccent" unicode="&#x120;" horiz-adv-x="756" 
d="M534 705q46 -17 84 -48q11 -9 20 -9q10 0 16 14.5t9 45.5h23q-4 -71 -4 -250h-23q-7 79 -26 125t-66 78q-21 14 -48.5 22t-54.5 8q-72 0 -116.5 -50.5t-63 -127.5t-18.5 -161q0 -174 42.5 -260t118.5 -86q31 0 49 12q21 15 21 50v100q0 50 -8 73.5t-28.5 32t-64.5 10.5
v20q68 -3 191 -3q103 0 154 3v-20q-18 -2 -26.5 -8t-11.5 -23t-3 -55v-198h-20q-1 21 -9 39t-22 18q-21 0 -68 -23q-100 -48 -169 -48q-186 0 -281 94t-95 268q0 110 49.5 195t137.5 132t201 47q64 0 110 -17zM490.5 910q25.5 -22 25.5 -64t-25.5 -64t-73.5 -22t-73.5 22
t-25.5 64t25.5 64t73.5 22t73.5 -22z" />
    <glyph glyph-name="gdotaccent" unicode="&#x121;" horiz-adv-x="570" 
d="M479.5 432.5q-15.5 14.5 -15.5 40.5q0 24 14 52q-44 -18 -65 -51q37 -39 37 -101q0 -79 -58.5 -119.5t-156.5 -40.5q-19 0 -28 1q-26 -18 -26 -42q0 -32 36 -32h97q102 0 159.5 -34.5t57.5 -107.5q0 -52 -33.5 -94t-103 -67t-173.5 -25q-103 0 -162 23t-59 65q0 29 29 53
t88 38l10 -16q-27 -33 -27 -64q0 -39 35.5 -60.5t99.5 -21.5q66 0 101.5 26.5t35.5 70.5q0 31 -23.5 49.5t-82.5 18.5h-54q-68 0 -104 26t-36 70q0 40 28.5 70t82.5 56q-76 10 -119.5 49.5t-43.5 107.5q0 79 58.5 119.5t156.5 40.5q105 0 162 -44q19 26 46 41t57 15
q33 0 51 -18.5t18 -47.5q0 -28 -15 -44.5t-38 -16.5q-21 0 -36.5 14.5zM265.5 263.5q10.5 32.5 10.5 109.5t-10.5 109.5t-30.5 32.5t-30.5 -32.5t-10.5 -109.5t10.5 -109.5t30.5 -32.5t30.5 32.5zM335.5 760q28.5 -22 28.5 -64t-28.5 -64t-80.5 -22q-53 0 -81 22t-28 64
t28 64t81 22q52 0 80.5 -22z" />
    <glyph glyph-name="Gcommaaccent" unicode="&#x122;" horiz-adv-x="756" 
d="M534 705q46 -17 84 -48q11 -9 20 -9q10 0 16 14.5t9 45.5h23q-4 -71 -4 -250h-23q-7 79 -26 125t-66 78q-21 14 -48.5 22t-54.5 8q-72 0 -116.5 -50.5t-63 -127.5t-18.5 -161q0 -174 42.5 -260t118.5 -86q31 0 49 12q21 15 21 50v100q0 50 -8 73.5t-28.5 32t-64.5 10.5
v20q68 -3 191 -3q103 0 154 3v-20q-18 -2 -26.5 -8t-11.5 -23t-3 -55v-198h-20q-1 21 -9 39t-22 18q-21 0 -68 -23q-100 -48 -169 -48q-186 0 -281 94t-95 268q0 110 49.5 195t137.5 132t201 47q64 0 110 -17zM484 -66.5q26 -21.5 26 -60.5q0 -52 -35 -84t-100 -33l-2 22
q43 5 64.5 16.5t27.5 33.5q-17 -15 -53 -15q-40 0 -62 17.5t-22 51.5q0 35 23 54t66 19q41 0 67 -21.5z" />
    <glyph glyph-name="gcommaaccent" unicode="&#x123;" horiz-adv-x="570" 
d="M479.5 432.5q-15.5 14.5 -15.5 40.5q0 24 14 52q-44 -18 -65 -51q37 -39 37 -101q0 -79 -58.5 -119.5t-156.5 -40.5q-19 0 -28 1q-26 -18 -26 -42q0 -32 36 -32h97q102 0 159.5 -34.5t57.5 -107.5q0 -52 -33.5 -94t-103 -67t-173.5 -25q-103 0 -162 23t-59 65q0 29 29 53
t88 38l10 -16q-27 -33 -27 -64q0 -39 35.5 -60.5t99.5 -21.5q66 0 101.5 26.5t35.5 70.5q0 31 -23.5 49.5t-82.5 18.5h-54q-68 0 -104 26t-36 70q0 40 28.5 70t82.5 56q-76 10 -119.5 49.5t-43.5 107.5q0 79 58.5 119.5t156.5 40.5q105 0 162 -44q19 26 46 41t57 15
q33 0 51 -18.5t18 -47.5q0 -28 -15 -44.5t-38 -16.5q-21 0 -36.5 14.5zM265.5 263.5q10.5 32.5 10.5 109.5t-10.5 109.5t-30.5 32.5t-30.5 -32.5t-10.5 -109.5t10.5 -109.5t30.5 -32.5t30.5 32.5zM180 635.5q-26 21.5 -26 60.5q0 52 35 84t100 33l2 -22q-43 -5 -64.5 -16.5
t-27.5 -33.5q17 15 53 15q40 0 62 -17.5t22 -51.5q0 -35 -23 -54t-66 -19q-41 0 -67 21.5z" />
    <glyph glyph-name="Hcircumflex" unicode="&#x124;" horiz-adv-x="829" 
d="M754.5 680q-14.5 -6 -19.5 -23t-5 -55v-496q0 -38 5.5 -55t19.5 -23t46 -8v-20q-54 3 -168 3q-115 0 -177 -3v20q32 2 46.5 8t19.5 23t5 55v240h-225v-240q0 -38 5.5 -55t19.5 -23t46 -8v-20q-58 3 -167 3q-121 0 -178 -3v20q32 2 46.5 8t19.5 23t5 55v496q0 38 -5.5 55
t-19.5 23t-46 8v20q57 -3 178 -3q108 0 167 3v-20q-32 -2 -46.5 -8t-19.5 -23t-5 -55v-236h225v236q0 38 -5.5 55t-19.5 23t-46 8v20q62 -3 177 -3q114 0 168 3v-20q-32 -2 -46.5 -8zM520 861.5q58 -46.5 123 -77.5l-5 -15q-68 10 -135 27t-106 34q-33 -17 -89 -34t-112 -27
l-5 15q64 30 121.5 76.5t95.5 95.5h18q36 -48 94 -94.5z" />
    <glyph glyph-name="hcircumflex" unicode="&#x125;" horiz-adv-x="622" 
d="M254 458q45 75 159 75q80 0 113 -40q15 -18 22 -48.5t7 -80.5v-271q0 -41 12.5 -56.5t43.5 -15.5v-21q-108 4 -140 4q-34 0 -142 -4v21q26 0 36 15.5t10 56.5v325q0 32 -11.5 47.5t-37.5 15.5q-29 0 -50.5 -20.5t-21.5 -51.5v-316q0 -41 10 -56.5t36 -15.5v-21
q-100 4 -132 4q-34 0 -150 -4v21q31 0 43.5 15.5t12.5 56.5v569q0 46 -12.5 67t-43.5 21v21q31 -3 62 -3q104 0 174 14v-324zM402 925.5q58 -46.5 123 -77.5l-5 -15q-68 10 -135 27t-106 34q-33 -17 -89 -34t-112 -27l-5 15q64 30 121.5 76.5t95.5 95.5h18q36 -48 94 -94.5z
" />
    <glyph glyph-name="Hbar" unicode="&#x126;" horiz-adv-x="829" 
d="M754.5 680q-14.5 -6 -19.5 -23t-5 -55v-496q0 -38 5.5 -55t19.5 -23t46 -8v-20q-54 3 -168 3q-115 0 -177 -3v20q32 2 46.5 8t19.5 23t5 55v240h-225v-240q0 -38 5.5 -55t19.5 -23t46 -8v-20q-58 3 -167 3q-121 0 -178 -3v20q32 2 46.5 8t19.5 23t5 55v496q0 38 -5.5 55
t-19.5 23t-46 8v20q57 -3 178 -3q108 0 167 3v-20q-32 -2 -46.5 -8t-19.5 -23t-5 -55v-236h225v236q0 38 -5.5 55t-19.5 23t-46 8v20q62 -3 177 -3q114 0 168 3v-20q-32 -2 -46.5 -8zM801 513h-773v20h773v-20z" />
    <glyph glyph-name="hbar" unicode="&#x127;" horiz-adv-x="622" 
d="M254 458q45 75 159 75q80 0 113 -40q15 -18 22 -48.5t7 -80.5v-271q0 -41 12.5 -56.5t43.5 -15.5v-21q-108 4 -140 4q-34 0 -142 -4v21q26 0 36 15.5t10 56.5v325q0 32 -11.5 47.5t-37.5 15.5q-29 0 -50.5 -20.5t-21.5 -51.5v-316q0 -41 10 -56.5t36 -15.5v-21
q-100 4 -132 4q-34 0 -150 -4v21q31 0 43.5 15.5t12.5 56.5v569q0 46 -12.5 67t-43.5 21v21q31 -3 62 -3q104 0 174 14v-324zM413 608h-404v20h404v-20z" />
    <glyph glyph-name="Itilde" unicode="&#x128;" horiz-adv-x="401" 
d="M373 688q-32 -2 -46.5 -8t-19.5 -23t-5 -55v-496q0 -38 5.5 -55t19.5 -23t46 -8v-20q-58 3 -167 3q-121 0 -178 -3v20q32 2 46.5 8t19.5 23t5 55v496q0 38 -5.5 55t-19.5 23t-46 8v20q57 -3 178 -3q108 0 167 3v-20zM178 928.5q27 -9.5 58 -26.5q32 -16 51.5 -23t46.5 -7
q57 0 97 53l14 -7q-19 -78 -58.5 -115.5t-89.5 -37.5q-38 0 -64 9t-61 27q-29 16 -49.5 23.5t-47.5 7.5q-56 0 -97 -54l-14 7q19 78 59 115.5t90 37.5q38 0 65 -9.5z" />
    <glyph glyph-name="itilde" unicode="&#x129;" horiz-adv-x="330" 
d="M257 93q0 -41 12.5 -56.5t43.5 -15.5v-21q-108 4 -142 4t-150 -4v21q31 0 43.5 15.5t12.5 56.5v317q0 46 -12.5 67t-43.5 21v21q32 -3 62 -3q104 0 174 14v-437zM145.5 789q21.5 -9 48.5 -27q25 -15 41.5 -22.5t38.5 -7.5q45 0 77 53l14 -7q-16 -83 -50.5 -123t-77.5 -40
q-31 0 -52 9t-50 27q-23 16 -40.5 23.5t-39.5 7.5q-44 0 -77 -54l-14 7q16 83 50.5 123t78.5 40q31 0 52.5 -9z" />
    <glyph glyph-name="Imacron" unicode="&#x12a;" horiz-adv-x="401" 
d="M373 688q-32 -2 -46.5 -8t-19.5 -23t-5 -55v-496q0 -38 5.5 -55t19.5 -23t46 -8v-20q-58 3 -167 3q-121 0 -178 -3v20q32 2 46.5 8t19.5 23t5 55v496q0 38 -5.5 55t-19.5 23t-46 8v20q57 -3 178 -3q108 0 167 3v-20zM422 819h-432v25h432v-25z" />
    <glyph glyph-name="imacron" unicode="&#x12b;" horiz-adv-x="330" 
d="M323 687h-332v25h332v-25zM257 93q0 -41 12.5 -56.5t43.5 -15.5v-21q-108 4 -142 4t-150 -4v21q31 0 43.5 15.5t12.5 56.5v317q0 46 -12.5 67t-43.5 21v21q32 -3 62 -3q104 0 174 14v-437z" />
    <glyph glyph-name="Ibreve" unicode="&#x12c;" horiz-adv-x="401" 
d="M373 688q-32 -2 -46.5 -8t-19.5 -23t-5 -55v-496q0 -38 5.5 -55t19.5 -23t46 -8v-20q-58 3 -167 3q-121 0 -178 -3v20q32 2 46.5 8t19.5 23t5 55v496q0 38 -5.5 55t-19.5 23t-46 8v20q57 -3 178 -3q108 0 167 3v-20zM435 909q-23 -59 -84 -102.5t-155 -43.5t-155 43.5
t-84 102.5l12 11q90 -58 227 -58t227 58z" />
    <glyph glyph-name="ibreve" unicode="&#x12d;" horiz-adv-x="330" 
d="M257 93q0 -41 12.5 -56.5t43.5 -15.5v-21q-108 4 -142 4t-150 -4v21q31 0 43.5 15.5t12.5 56.5v317q0 46 -12.5 67t-43.5 21v21q32 -3 62 -3q104 0 174 14v-437zM366 779q-20 -70 -68 -118t-131 -48t-131 48t-68 118l17 9q69 -56 182 -56t182 56z" />
    <glyph glyph-name="Iogonek" unicode="&#x12e;" horiz-adv-x="401" 
d="M373 688q-32 -2 -46.5 -8t-19.5 -23t-5 -55v-496q0 -38 5.5 -55t19.5 -23t46 -8v-20q-58 3 -167 3q-121 0 -178 -3v20q32 2 46.5 8t19.5 23t5 55v496q0 38 -5.5 55t-19.5 23t-46 8v20q57 -3 178 -3q108 0 167 3v-20zM268.5 -42q-27.5 -25 -27.5 -48q0 -20 9.5 -29
t30.5 -9q17 0 36 6.5t30 16.5l13 -15q-29 -36 -65 -52t-88 -16q-48 0 -73.5 18.5t-25.5 52.5q0 43 54.5 73.5t153.5 46.5h38q-58 -20 -85.5 -45z" />
    <glyph glyph-name="iogonek" unicode="&#x12f;" horiz-adv-x="330" 
d="M242.5 760q28.5 -22 28.5 -64t-28.5 -64t-80.5 -22q-53 0 -81 22t-28 64t28 64t81 22q52 0 80.5 -22zM257 93q0 -41 12.5 -56.5t43.5 -15.5v-21q-108 4 -142 4t-150 -4v21q31 0 43.5 15.5t12.5 56.5v317q0 46 -12.5 67t-43.5 21v21q32 -3 62 -3q104 0 174 14v-437z
M283 -4q-36 -18 -52 -41t-16 -45q0 -38 40 -38q17 0 36 6.5t30 16.5l13 -15q-29 -36 -65 -52t-88 -16q-48 0 -73.5 18.5t-25.5 52.5q0 43 46.5 73.5t131.5 46.5l48 10q-6 -8 -25 -17z" />
    <glyph glyph-name="Idotaccent" unicode="&#x130;" horiz-adv-x="401" 
d="M373 688q-32 -2 -46.5 -8t-19.5 -23t-5 -55v-496q0 -38 5.5 -55t19.5 -23t46 -8v-20q-58 3 -167 3q-121 0 -178 -3v20q32 2 46.5 8t19.5 23t5 55v496q0 38 -5.5 55t-19.5 23t-46 8v20q57 -3 178 -3q108 0 167 3v-20zM286.5 949q28.5 -22 28.5 -64t-28.5 -64t-80.5 -22
q-53 0 -81 22t-28 64t28 64t81 22q52 0 80.5 -22z" />
    <glyph glyph-name="dotlessi" unicode="&#x131;" horiz-adv-x="330" 
d="M257 93q0 -41 12.5 -56.5t43.5 -15.5v-21q-108 4 -142 4t-150 -4v21q31 0 43.5 15.5t12.5 56.5v317q0 46 -12.5 67t-43.5 21v21q32 -3 62 -3q104 0 174 14v-437z" />
    <glyph glyph-name="Jcircumflex" unicode="&#x134;" horiz-adv-x="390" 
d="M-25 -167q40 6 65.5 25t39.5 66t14 131v547q0 38 -5.5 55t-19.5 23t-46 8v20q54 -3 167 -3q117 0 178 3v-20q-32 -2 -46.5 -8t-19.5 -23t-5 -55v-366v-83q0 -58 -3.5 -102t-13.5 -76q-24 -73 -101 -118t-204 -45v21zM294 861.5q58 -46.5 123 -77.5l-5 -15q-68 10 -135 27
t-106 34q-33 -17 -89 -34t-112 -27l-5 15q64 30 121.5 76.5t95.5 95.5h18q36 -48 94 -94.5z" />
    <glyph glyph-name="jcircumflex" unicode="&#x135;" horiz-adv-x="317" 
d="M-21 -168q43 0 69 30.5t26 95.5v452q0 46 -12.5 67t-43.5 21v21q31 -3 62 -3q104 0 174 14v-450q0 -88 -16 -136t-55 -82q-59 -50 -204 -50v20zM243.5 714q49.5 -57 105.5 -94l-8 -14q-59 10 -116 26.5t-92 33.5q-29 -17 -75 -33.5t-93 -26.5l-8 14q55 36 104.5 93
t82.5 119h18q32 -61 81.5 -118z" />
    <glyph glyph-name="Kcommaaccent" unicode="&#x136;" horiz-adv-x="754" 
d="M736 44.5q13 -13.5 34 -24.5v-20q-84 3 -180 3q-74 0 -143 -3v20q32 2 44.5 5.5t12.5 13.5t-10 26l-145 245q-14 24 -23.5 33t-23.5 11v-248q0 -38 5.5 -55t19.5 -23t46 -8v-20q-58 3 -167 3q-121 0 -178 -3v20q32 2 46.5 8t19.5 23t5 55v496q0 38 -5.5 55t-19.5 23
t-46 8v20q57 -3 178 -3q108 0 167 3v-20q-32 -2 -46.5 -8t-19.5 -23t-5 -55v-226q40 3 78 30t93 89l34 38q44 50 44 90q0 29 -23 46.5t-59 19.5v19q84 -3 169 -3q61 0 101 3v-19q-87 -23 -164 -110l-98 -111l232 -387q14 -23 27 -36.5zM497 -66.5q26 -21.5 26 -60.5
q0 -52 -35 -84t-100 -33l-2 22q43 5 64.5 16.5t27.5 33.5q-17 -15 -53 -15q-40 0 -62 17.5t-22 51.5q0 35 23 54t66 19q41 0 67 -21.5z" />
    <glyph glyph-name="kcommaaccent" unicode="&#x137;" horiz-adv-x="609" 
d="M580 56q7 -13 14.5 -21.5t16.5 -13.5v-21q-92 4 -121 4q-33 0 -141 -4v21q29 0 29 19q0 7 -4 15l-88 186q-6 11 -13.5 16t-18.5 6v-170q0 -41 12.5 -56.5t43.5 -15.5v-21q-108 4 -142 4t-150 -4v21q31 0 43.5 15.5t12.5 56.5v569q0 46 -12.5 67t-43.5 21v21q31 -3 62 -3
q104 0 174 14v-500q28 0 43 15l77 72q35 32 35 65q0 26 -22.5 44t-57.5 21v20q57 -3 120 -3q98 0 137 3v-20q-69 -19 -148 -98l-26 -26l159 -302q2 -4 9 -17zM414 -66.5q26 -21.5 26 -60.5q0 -52 -35 -84t-100 -33l-2 22q43 5 64.5 16.5t27.5 33.5q-17 -15 -53 -15
q-40 0 -62 17.5t-22 51.5q0 35 23 54t66 19q41 0 67 -21.5z" />
    <glyph glyph-name="kgreenlandic" unicode="&#x138;" horiz-adv-x="609" 
d="M587 36q11 -12 27 -15v-21q-92 4 -121 4q-31 0 -131 -4v21q29 0 29 19q0 7 -4 15l-98 181q-6 11 -13.5 16t-18.5 6v-165q0 -41 12.5 -56.5t43.5 -15.5v-21q-108 4 -142 4t-150 -4v21q31 0 43.5 15.5t12.5 56.5v317q0 46 -12.5 67t-43.5 21v21q32 -3 62 -3q104 0 174 14
v-253q31 1 52 13.5t42 38.5l76 89q16 19 16 38q0 18 -16.5 30t-47.5 13v20q52 -3 103 -3q68 0 107 3v-20q-40 -4 -62.5 -15t-40.5 -34l-75 -92l153 -285q12 -25 23 -37z" />
    <glyph glyph-name="Lacute" unicode="&#x139;" horiz-adv-x="626" 
d="M383 688q-36 -2 -52.5 -8t-22.5 -23t-6 -55v-516q0 -28 4 -41t14 -17.5t33 -4.5h33q35 0 76 35t74 92.5t44 119.5h23q-3 -36 -3 -92q0 -108 7 -178q-68 3 -229 3q-234 0 -350 -3v20q32 2 46.5 8t19.5 23t5 55v496q0 38 -5.5 55t-19.5 23t-46 8v20q57 -3 178 -3
q115 0 177 3v-20zM314 946q19 0 36.5 -10t26.5 -28q6 -12 6 -26q0 -18 -10 -34t-28 -25q-16 -8 -33 -12t-46 -9q-71 -11 -134 -30l-7 12q52 44 96 99q21 24 33 36t29 20q16 7 31 7z" />
    <glyph glyph-name="lacute" unicode="&#x13a;" horiz-adv-x="328" 
d="M254 93q0 -41 12.5 -56.5t43.5 -15.5v-21q-108 4 -142 4t-150 -4v21q31 0 43.5 15.5t12.5 56.5v569q0 46 -12.5 67t-43.5 21v21q31 -3 62 -3q104 0 174 14v-689zM270 996q19 0 36.5 -10t26.5 -28q6 -12 6 -26q0 -18 -10 -34t-28 -25q-16 -8 -33 -12t-46 -9
q-71 -11 -134 -30l-7 12q52 44 96 99q21 24 33 36t29 20q16 7 31 7z" />
    <glyph glyph-name="Lcommaaccent" unicode="&#x13b;" horiz-adv-x="626" 
d="M383 688q-36 -2 -52.5 -8t-22.5 -23t-6 -55v-516q0 -28 4 -41t14 -17.5t33 -4.5h33q35 0 76 35t74 92.5t44 119.5h23q-3 -36 -3 -92q0 -108 7 -178q-68 3 -229 3q-234 0 -350 -3v20q32 2 46.5 8t19.5 23t5 55v496q0 38 -5.5 55t-19.5 23t-46 8v20q57 -3 178 -3
q115 0 177 3v-20zM433 -66.5q26 -21.5 26 -60.5q0 -52 -35 -84t-100 -33l-2 22q43 5 64.5 16.5t27.5 33.5q-17 -15 -53 -15q-40 0 -62 17.5t-22 51.5q0 35 23 54t66 19q41 0 67 -21.5z" />
    <glyph glyph-name="lcommaaccent" unicode="&#x13c;" horiz-adv-x="328" 
d="M254 93q0 -41 12.5 -56.5t43.5 -15.5v-21q-108 4 -142 4t-150 -4v21q31 0 43.5 15.5t12.5 56.5v569q0 46 -12.5 67t-43.5 21v21q31 -3 62 -3q104 0 174 14v-689zM227 -66.5q26 -21.5 26 -60.5q0 -52 -35 -84t-100 -33l-2 22q43 5 64.5 16.5t27.5 33.5q-17 -15 -53 -15
q-40 0 -62 17.5t-22 51.5q0 35 23 54t66 19q41 0 67 -21.5z" />
    <glyph glyph-name="Lcaron" unicode="&#x13d;" horiz-adv-x="626" 
d="M383 688q-36 -2 -52.5 -8t-22.5 -23t-6 -55v-516q0 -28 4 -41t14 -17.5t33 -4.5h33q35 0 76 35t74 92.5t44 119.5h23q-3 -36 -3 -92q0 -108 7 -178q-68 3 -229 3q-234 0 -350 -3v20q32 2 46.5 8t19.5 23t5 55v496q0 38 -5.5 55t-19.5 23t-46 8v20q57 -3 178 -3
q115 0 177 3v-20zM600 678q0 -29 -30 -69.5t-107 -130.5l-14 4q20 128 20 165q0 21 -6 30.5t-24 9.5v21q24 -2 61 -2q47 0 95 8q5 -12 5 -36z" />
    <glyph glyph-name="lcaron" unicode="&#x13e;" horiz-adv-x="328" 
d="M254 93q0 -41 12.5 -56.5t43.5 -15.5v-21q-108 4 -142 4t-150 -4v21q31 0 43.5 15.5t12.5 56.5v569q0 46 -12.5 67t-43.5 21v21q31 -3 62 -3q104 0 174 14v-689zM443.5 766.5q1.5 -12.5 1.5 -23.5q0 -26 -25.5 -63.5t-91.5 -116.5l-14 4q20 113 20 145q0 21 -4 30.5
t-16 9.5v21l28 -1q29 0 49 3t49 9q2 -5 3.5 -17.5z" />
    <glyph glyph-name="Ldot" unicode="&#x13f;" horiz-adv-x="627" 
d="M383 688q-36 -2 -52.5 -8t-22.5 -23t-6 -55v-516q0 -28 4 -41t14 -17.5t33 -4.5h33q35 0 76 35t74 92.5t44 119.5h23q-3 -36 -3 -92q0 -108 7 -178q-68 3 -229 3q-234 0 -350 -3v20q32 2 46.5 8t19.5 23t5 55v496q0 38 -5.5 55t-19.5 23t-46 8v20q57 -3 178 -3
q115 0 177 3v-20zM582.5 502q25.5 -22 25.5 -64t-25.5 -64t-73.5 -22t-73.5 22t-25.5 64t25.5 64t73.5 22t73.5 -22z" />
    <glyph glyph-name="ldot" unicode="&#x140;" horiz-adv-x="551" 
d="M254 93q0 -41 12.5 -56.5t43.5 -15.5v-21q-108 4 -142 4t-150 -4v21q31 0 43.5 15.5t12.5 56.5v569q0 46 -12.5 67t-43.5 21v21q31 -3 62 -3q104 0 174 14v-689zM515.5 381q25.5 -22 25.5 -64t-25.5 -64t-73.5 -22t-73.5 22t-25.5 64t25.5 64t73.5 22t73.5 -22z" />
    <glyph glyph-name="Lslash" unicode="&#x141;" horiz-adv-x="626" 
d="M383 688q-36 -2 -52.5 -8t-22.5 -23t-6 -55v-516q0 -28 4 -41t14 -17.5t33 -4.5h33q35 0 76 35t74 92.5t44 119.5h23q-3 -36 -3 -92q0 -108 7 -178q-68 3 -229 3q-234 0 -350 -3v20q32 2 46.5 8t19.5 23t5 55v496q0 38 -5.5 55t-19.5 23t-46 8v20q57 -3 178 -3
q115 0 177 3v-20zM470 473v-23l-284 -165v10l-161 -93v23l161 93v-10z" />
    <glyph glyph-name="lslash" unicode="&#x142;" horiz-adv-x="328" 
d="M254 93q0 -41 12.5 -56.5t43.5 -15.5v-21q-108 4 -142 4t-150 -4v21q31 0 43.5 15.5t12.5 56.5v569q0 46 -12.5 67t-43.5 21v21q31 -3 62 -3q104 0 174 14v-689zM345 498l-177 -156v30l177 156v-30zM168 394l-175 -152v30l175 152v-30z" />
    <glyph glyph-name="Nacute" unicode="&#x143;" horiz-adv-x="732" 
d="M708 688q-31 -7 -46 -21.5t-20 -44.5t-5 -90v-532q-20 2 -33 2q-11 0 -37 -2l-443 484v-288q0 -74 6 -106.5t26.5 -47.5t68.5 -22v-20q-41 3 -112 3q-53 0 -83 -3v20q31 7 46 21.5t20 44.5t5 90v426q0 38 -5.5 55t-19.5 23t-46 8v20q30 -3 83 -3q54 0 92 3l409 -432v236
q0 74 -6 106.5t-26.5 47.5t-68.5 22v20q41 -3 112 -3q53 0 83 3v-20zM490 946q19 0 36.5 -10t26.5 -28q6 -12 6 -26q0 -18 -10 -34t-28 -25q-16 -8 -33 -12t-46 -9q-71 -11 -134 -30l-7 12q52 44 96 99q21 24 33 36t29 20q16 7 31 7z" />
    <glyph glyph-name="nacute" unicode="&#x144;" horiz-adv-x="625" 
d="M529 493q15 -18 22 -48.5t7 -80.5v-271q0 -41 12.5 -56.5t43.5 -15.5v-21q-108 4 -140 4q-34 0 -142 -4v21q26 0 36 15.5t10 56.5v325q0 32 -11.5 47.5t-37.5 15.5q-29 0 -50.5 -20.5t-21.5 -51.5v-316q0 -41 10 -56.5t36 -15.5v-21q-100 4 -132 4q-34 0 -150 -4v21
q31 0 43.5 15.5t12.5 56.5v317q0 46 -12.5 67t-43.5 21v21q32 -3 62 -3q104 0 174 14v-72q45 75 159 75q80 0 113 -40zM450 775q0 -26 -17 -46q-9 -11 -22.5 -21.5t-24.5 -17.5t-17 -11q-32 -20 -56.5 -37t-55.5 -43l-11 9q18 36 27.5 62t22.5 66q9 30 16 46t19 30
q9 11 23.5 17.5t30.5 6.5q25 0 44 -16q21 -16 21 -45z" />
    <glyph glyph-name="Ncommaaccent" unicode="&#x145;" horiz-adv-x="732" 
d="M708 688q-31 -7 -46 -21.5t-20 -44.5t-5 -90v-532q-20 2 -33 2q-11 0 -37 -2l-443 484v-288q0 -74 6 -106.5t26.5 -47.5t68.5 -22v-20q-41 3 -112 3q-53 0 -83 -3v20q31 7 46 21.5t20 44.5t5 90v426q0 38 -5.5 55t-19.5 23t-46 8v20q30 -3 83 -3q54 0 92 3l409 -432v236
q0 74 -6 106.5t-26.5 47.5t-68.5 22v20q41 -3 112 -3q53 0 83 3v-20zM440 -66.5q26 -21.5 26 -60.5q0 -52 -35 -84t-100 -33l-2 22q43 5 64.5 16.5t27.5 33.5q-17 -15 -53 -15q-40 0 -62 17.5t-22 51.5q0 35 23 54t66 19q41 0 67 -21.5z" />
    <glyph glyph-name="ncommaaccent" unicode="&#x146;" horiz-adv-x="625" 
d="M529 493q15 -18 22 -48.5t7 -80.5v-271q0 -41 12.5 -56.5t43.5 -15.5v-21q-108 4 -140 4q-34 0 -142 -4v21q26 0 36 15.5t10 56.5v325q0 32 -11.5 47.5t-37.5 15.5q-29 0 -50.5 -20.5t-21.5 -51.5v-316q0 -41 10 -56.5t36 -15.5v-21q-100 4 -132 4q-34 0 -150 -4v21
q31 0 43.5 15.5t12.5 56.5v317q0 46 -12.5 67t-43.5 21v21q32 -3 62 -3q104 0 174 14v-72q45 75 159 75q80 0 113 -40zM393 -66.5q26 -21.5 26 -60.5q0 -52 -35 -84t-100 -33l-2 22q43 5 64.5 16.5t27.5 33.5q-17 -15 -53 -15q-40 0 -62 17.5t-22 51.5q0 35 23 54t66 19
q41 0 67 -21.5z" />
    <glyph glyph-name="Ncaron" unicode="&#x147;" horiz-adv-x="732" 
d="M708 688q-31 -7 -46 -21.5t-20 -44.5t-5 -90v-532q-20 2 -33 2q-11 0 -37 -2l-443 484v-288q0 -74 6 -106.5t26.5 -47.5t68.5 -22v-20q-41 3 -112 3q-53 0 -83 -3v20q31 7 46 21.5t20 44.5t5 90v426q0 38 -5.5 55t-19.5 23t-46 8v20q30 -3 83 -3q54 0 92 3l409 -432v236
q0 74 -6 106.5t-26.5 47.5t-68.5 22v20q41 -3 112 -3q53 0 83 3v-20zM605 931q-64 -30 -121.5 -76.5t-95.5 -95.5h-18q-36 48 -94 94.5t-123 77.5l5 15q68 -10 135 -27t106 -34q33 17 89 34t112 27z" />
    <glyph glyph-name="ncaron" unicode="&#x148;" horiz-adv-x="625" 
d="M529 493q15 -18 22 -48.5t7 -80.5v-271q0 -41 12.5 -56.5t43.5 -15.5v-21q-108 4 -140 4q-34 0 -142 -4v21q26 0 36 15.5t10 56.5v325q0 32 -11.5 47.5t-37.5 15.5q-29 0 -50.5 -20.5t-21.5 -51.5v-316q0 -41 10 -56.5t36 -15.5v-21q-100 4 -132 4q-34 0 -150 -4v21
q31 0 43.5 15.5t12.5 56.5v317q0 46 -12.5 67t-43.5 21v21q32 -3 62 -3q104 0 174 14v-72q45 75 159 75q80 0 113 -40zM504 818q-55 -36 -104.5 -93t-82.5 -119h-18q-32 61 -81.5 118t-105.5 94l8 14q59 -10 116 -26.5t92 -33.5q29 17 75 33.5t93 26.5z" />
    <glyph glyph-name="napostrophe" unicode="&#x149;" horiz-adv-x="625" 
d="M529 493q15 -18 22 -48.5t7 -80.5v-271q0 -41 12.5 -56.5t43.5 -15.5v-21q-108 4 -140 4q-34 0 -142 -4v21q26 0 36 15.5t10 56.5v325q0 32 -11.5 47.5t-37.5 15.5q-29 0 -50.5 -20.5t-21.5 -51.5v-316q0 -41 10 -56.5t36 -15.5v-21q-100 4 -132 4q-34 0 -150 -4v21
q31 0 43.5 15.5t12.5 56.5v317q0 46 -12.5 67t-43.5 21v21q32 -3 62 -3q104 0 174 14v-72q45 75 159 75q80 0 113 -40zM78 745q11 -15 18 -40t7 -55q0 -52 -27 -96t-79 -68l-9 18q26 12 46.5 34.5t28.5 47.5q5 14 5 33q0 15 -2 22q-26 -31 -73 -31q-40 0 -64 22.5t-24 63.5
q0 39 26 62.5t68 23.5q54 0 79 -37z" />
    <glyph glyph-name="Eng" unicode="&#x14a;" horiz-adv-x="729" 
d="M706 708v-20q-32 -2 -46 -8t-19.5 -23t-5.5 -55v-556q0 -93 -16.5 -144t-48 -70.5t-82.5 -19.5q-60 0 -96.5 23t-36.5 69q0 37 26.5 58t71.5 21q42 0 66 -19t24 -53q0 -26 -14.5 -46.5t-43.5 -31.5q6 -1 18 -1q53 0 79 40.5t30 128.5l-19 1q-8 0 -28 -2l-443 484v-378
q0 -38 6 -55t22.5 -23t52.5 -8v-20q-36 3 -92 3q-53 0 -83 -3v20q32 2 46 8t19.5 23t5.5 55v496q0 38 -5.5 55t-19.5 23t-46 8v20q30 -3 83 -3q55 0 92 3l409 -432v326q0 38 -6 55t-22.5 23t-52.5 8v20q36 -3 92 -3q53 0 83 3z" />
    <glyph glyph-name="eng" unicode="&#x14b;" horiz-adv-x="615" 
d="M529 493q15 -18 22 -48.5t7 -80.5v-284q0 -86 -16 -134t-55 -84q-26 -24 -69 -37t-123 -13q-58 0 -112.5 16.5t-54.5 61.5q0 29 27.5 51t76.5 22q46 0 75 -17t29 -48q0 -24 -18 -40t-49 -23q12 -2 30 -2q47 0 67 49q12 28 12 151v47v338q0 32 -11.5 47.5t-37.5 15.5
q-29 0 -50.5 -20.5t-21.5 -51.5v-316q0 -41 10 -56.5t36 -15.5v-21q-100 4 -132 4q-34 0 -150 -4v21q31 0 43.5 15.5t12.5 56.5v317q0 46 -12.5 67t-43.5 21v21q32 -3 62 -3q104 0 174 14v-72q45 75 159 75q80 0 113 -40z" />
    <glyph glyph-name="Omacron" unicode="&#x14c;" horiz-adv-x="827" 
d="M612 679q85 -43 132 -124.5t47 -194.5q0 -110 -48 -195t-134 -132t-196 -47q-113 0 -198 43t-132 124.5t-47 194.5q0 110 48 195t134 132t196 47q113 0 198 -43zM323.5 659.5q-37.5 -44.5 -57.5 -124.5t-20 -183q0 -104 23 -183t62 -122t86 -43q49 0 86.5 44.5
t57.5 124.5t20 183q0 104 -23 183t-62 122t-86 43q-49 0 -86.5 -44.5zM628 819h-432v25h432v-25z" />
    <glyph glyph-name="omacron" unicode="&#x14d;" horiz-adv-x="576" 
d="M478 468.5q67 -64.5 67 -209.5t-67 -209t-190 -64t-190 64t-67 209t67 209.5t190 64.5t190 -64.5zM237 450q-19 -63 -19 -191t19 -190.5t51 -62.5t51 62.5t19 190.5t-19 191t-51 63t-51 -63zM461 687h-352v25h352v-25z" />
    <glyph glyph-name="Obreve" unicode="&#x14e;" horiz-adv-x="827" 
d="M612 679q85 -43 132 -124.5t47 -194.5q0 -110 -48 -195t-134 -132t-196 -47q-113 0 -198 43t-132 124.5t-47 194.5q0 110 48 195t134 132t196 47q113 0 198 -43zM323.5 659.5q-37.5 -44.5 -57.5 -124.5t-20 -183q0 -104 23 -183t62 -122t86 -43q49 0 86.5 44.5
t57.5 124.5t20 183q0 104 -23 183t-62 122t-86 43q-49 0 -86.5 -44.5zM641 909q-23 -59 -84 -102.5t-155 -43.5t-155 43.5t-84 102.5l12 11q90 -58 227 -58t227 58z" />
    <glyph glyph-name="obreve" unicode="&#x14f;" horiz-adv-x="576" 
d="M478 468.5q67 -64.5 67 -209.5t-67 -209t-190 -64t-190 64t-67 209t67 209.5t190 64.5t190 -64.5zM237 450q-19 -63 -19 -191t19 -190.5t51 -62.5t51 62.5t19 190.5t-19 191t-51 63t-51 -63zM486 779q-20 -70 -68 -118t-131 -48t-131 48t-68 118l17 9q69 -56 182 -56
t182 56z" />
    <glyph glyph-name="Ohungarumlaut" unicode="&#x150;" horiz-adv-x="827" 
d="M612 679q85 -43 132 -124.5t47 -194.5q0 -110 -48 -195t-134 -132t-196 -47q-113 0 -198 43t-132 124.5t-47 194.5q0 110 48 195t134 132t196 47q113 0 198 -43zM323.5 659.5q-37.5 -44.5 -57.5 -124.5t-20 -183q0 -104 23 -183t62 -122t86 -43q49 0 86.5 44.5
t57.5 124.5t20 183q0 104 -23 183t-62 122t-86 43q-49 0 -86.5 -44.5zM398 955q17 0 32.5 -8t25.5 -23q11 -15 11 -35q0 -16 -8 -30t-24 -24q-13 -8 -29.5 -14t-44.5 -14q-63 -18 -108 -35l-10 11q31 38 68 98q17 26 27 39.5t22 22.5q17 12 38 12zM625 955q17 0 32.5 -8
t25.5 -23q11 -15 11 -35q0 -16 -8 -30t-24 -24q-13 -8 -29.5 -14t-44.5 -14q-63 -18 -108 -35l-10 11q31 38 68 98q17 26 27 39.5t22 22.5q16 12 38 12z" />
    <glyph glyph-name="ohungarumlaut" unicode="&#x151;" horiz-adv-x="576" 
d="M478 468.5q67 -64.5 67 -209.5t-67 -209t-190 -64t-190 64t-67 209t67 209.5t190 64.5t190 -64.5zM237 450q-19 -63 -19 -191t19 -190.5t51 -62.5t51 62.5t19 190.5t-19 191t-51 63t-51 -63zM341 767q0 -19 -13 -40q-8 -13 -20.5 -24.5t-37.5 -30.5q-45 -35 -85 -74
l-13 6q16 54 24 116q1 6 4.5 24.5t7 31t9.5 21.5q9 15 24.5 23.5t32.5 8.5q21 0 39 -12q28 -20 28 -50zM518 767q0 -19 -13 -40q-8 -13 -20.5 -24.5t-37.5 -30.5q-45 -35 -85 -74l-13 6q16 54 24 116q1 6 4.5 24.5t7 31t9.5 21.5q9 15 24.5 23.5t32.5 8.5q21 0 39 -12
q28 -20 28 -50z" />
    <glyph glyph-name="OE" unicode="&#x152;" horiz-adv-x="1040" 
d="M997 0q-68 3 -229 3h-125t-152 -1q-44 -16 -88 -16q-110 0 -193 43t-128.5 124.5t-45.5 194.5q0 110 47 195t130.5 132t190.5 47q44 0 87 -16q80 -1 152 -1h125q147 0 209 3q-7 -83 -7 -148q0 -46 3 -72h-23q-15 105 -53.5 151t-90.5 46h-13q-31 0 -45.5 -5.5t-20 -22.5
t-5.5 -55v-236h40q32 0 51 19.5t27.5 42.5t17.5 60h23q-3 -39 -3 -88v-44q0 -47 6 -132h-23q-10 56 -31.5 89t-67.5 33h-40v-240q0 -38 5.5 -55t20 -22.5t45.5 -5.5h33q28 0 58 21.5t54 70t32 125.5h23q-3 -36 -3 -92q0 -90 7 -148zM519 612q0 51 -37.5 71.5t-81.5 20.5
q-46 0 -81 -44.5t-54 -124.5t-19 -183q0 -104 21.5 -183t58 -122t81.5 -43q40 0 76 21t36 61v526z" />
    <glyph glyph-name="oe" unicode="&#x153;" horiz-adv-x="800" 
d="M751 162l17 -6q-20 -70 -67.5 -120t-121.5 -50q-95 0 -146 66q-52 -66 -155 -66q-118 0 -182.5 64t-64.5 209t64.5 209.5t182.5 64.5q105 0 157 -69q27 34 66 51.5t84 17.5q189 0 189 -224h-238q-1 -12 -1 -36q0 -96 33.5 -137t81.5 -41q61 0 101 67zM329 68
q19 62 19 189q0 130 -19 193t-51 63q-27 0 -43.5 -63t-16.5 -191t16.5 -190.5t43.5 -62.5q32 0 51 62zM547.5 467q-11.5 -43 -15.5 -139h96q1 80 -11.5 131t-38.5 51q-19 0 -30.5 -43z" />
    <glyph glyph-name="Racute" unicode="&#x154;" horiz-adv-x="721" 
d="M746 40q-30 -30 -66 -42t-84 -12q-69 0 -107 24.5t-47 83.5l-15 100q-10 70 -27.5 106t-52.5 36h-45v-230q0 -38 5.5 -55t19.5 -23t46 -8v-20q-58 3 -167 3q-121 0 -178 -3v20q32 2 46.5 8t19.5 23t5 55v496q0 38 -5.5 55t-19.5 23t-46 8v20q57 -3 172 -3l115 1
q20 1 46 1q152 0 226.5 -43t74.5 -131q0 -75 -56 -128t-188 -65q102 -7 154 -38.5t64 -92.5l21 -104q7 -37 17 -51t28 -14t31 13zM321.5 681q-11.5 -7 -15.5 -25t-4 -54v-246h27q71 0 97 43.5t26 122.5q0 82 -22.5 124t-73.5 42q-23 0 -34.5 -7zM450 946q19 0 36.5 -10
t26.5 -28q6 -12 6 -26q0 -18 -10 -34t-28 -25q-16 -8 -33 -12t-46 -9q-71 -11 -134 -30l-7 12q52 44 96 99q21 24 33 36t29 20q16 7 31 7z" />
    <glyph glyph-name="racute" unicode="&#x155;" horiz-adv-x="481" 
d="M456.5 503q21.5 -30 21.5 -71q0 -45 -25.5 -71.5t-66.5 -26.5q-43 0 -66 19.5t-23 52.5q0 59 51 93q-18 0 -32 -7q-25 -11 -42 -35.5t-17 -53.5v-300q0 -47 19.5 -64.5t66.5 -17.5v-21q-13 0 -22 1q-105 3 -140 3q-31 0 -139 -3q-8 -1 -21 -1v21q31 0 43.5 15.5
t12.5 56.5v317q0 46 -12.5 67t-43.5 21v21q32 -3 62 -3q104 0 174 14v-72q38 75 129 75q49 0 70.5 -30zM371 775q0 -26 -17 -46q-9 -11 -22.5 -21.5t-24.5 -17.5t-17 -11q-32 -20 -56.5 -37t-55.5 -43l-11 9q18 36 27.5 62t22.5 66q9 30 16 46t19 30q9 11 23.5 17.5
t30.5 6.5q25 0 44 -16q21 -16 21 -45z" />
    <glyph glyph-name="Rcommaaccent" unicode="&#x156;" horiz-adv-x="721" 
d="M746 40q-30 -30 -66 -42t-84 -12q-69 0 -107 24.5t-47 83.5l-15 100q-10 70 -27.5 106t-52.5 36h-45v-230q0 -38 5.5 -55t19.5 -23t46 -8v-20q-58 3 -167 3q-121 0 -178 -3v20q32 2 46.5 8t19.5 23t5 55v496q0 38 -5.5 55t-19.5 23t-46 8v20q57 -3 172 -3l115 1
q20 1 46 1q152 0 226.5 -43t74.5 -131q0 -75 -56 -128t-188 -65q102 -7 154 -38.5t64 -92.5l21 -104q7 -37 17 -51t28 -14t31 13zM321.5 681q-11.5 -7 -15.5 -25t-4 -54v-246h27q71 0 97 43.5t26 122.5q0 82 -22.5 124t-73.5 42q-23 0 -34.5 -7zM448 -66.5
q26 -21.5 26 -60.5q0 -52 -35 -84t-100 -33l-2 22q43 5 64.5 16.5t27.5 33.5q-17 -15 -53 -15q-40 0 -62 17.5t-22 51.5q0 35 23 54t66 19q41 0 67 -21.5z" />
    <glyph glyph-name="rcommaaccent" unicode="&#x157;" horiz-adv-x="481" 
d="M456.5 503q21.5 -30 21.5 -71q0 -45 -25.5 -71.5t-66.5 -26.5q-43 0 -66 19.5t-23 52.5q0 59 51 93q-18 0 -32 -7q-25 -11 -42 -35.5t-17 -53.5v-300q0 -47 19.5 -64.5t66.5 -17.5v-21q-13 0 -22 1q-105 3 -140 3q-31 0 -139 -3q-8 -1 -21 -1v21q31 0 43.5 15.5
t12.5 56.5v317q0 46 -12.5 67t-43.5 21v21q32 -3 62 -3q104 0 174 14v-72q38 75 129 75q49 0 70.5 -30zM239 -66.5q26 -21.5 26 -60.5q0 -52 -35 -84t-100 -33l-2 22q43 5 64.5 16.5t27.5 33.5q-17 -15 -53 -15q-40 0 -62 17.5t-22 51.5q0 35 23 54t66 19q41 0 67 -21.5z
" />
    <glyph glyph-name="Rcaron" unicode="&#x158;" horiz-adv-x="721" 
d="M746 40q-30 -30 -66 -42t-84 -12q-69 0 -107 24.5t-47 83.5l-15 100q-10 70 -27.5 106t-52.5 36h-45v-230q0 -38 5.5 -55t19.5 -23t46 -8v-20q-58 3 -167 3q-121 0 -178 -3v20q32 2 46.5 8t19.5 23t5 55v496q0 38 -5.5 55t-19.5 23t-46 8v20q57 -3 172 -3l115 1
q20 1 46 1q152 0 226.5 -43t74.5 -131q0 -75 -56 -128t-188 -65q102 -7 154 -38.5t64 -92.5l21 -104q7 -37 17 -51t28 -14t31 13zM321.5 681q-11.5 -7 -15.5 -25t-4 -54v-246h27q71 0 97 43.5t26 122.5q0 82 -22.5 124t-73.5 42q-23 0 -34.5 -7zM565 931
q-64 -30 -121.5 -76.5t-95.5 -95.5h-18q-36 48 -94 94.5t-123 77.5l5 15q68 -10 135 -27t106 -34q33 17 89 34t112 27z" />
    <glyph glyph-name="rcaron" unicode="&#x159;" horiz-adv-x="481" 
d="M456.5 503q21.5 -30 21.5 -71q0 -45 -25.5 -71.5t-66.5 -26.5q-43 0 -66 19.5t-23 52.5q0 59 51 93q-18 0 -32 -7q-25 -11 -42 -35.5t-17 -53.5v-300q0 -47 19.5 -64.5t66.5 -17.5v-21q-13 0 -22 1q-105 3 -140 3q-31 0 -139 -3q-8 -1 -21 -1v21q31 0 43.5 15.5
t12.5 56.5v317q0 46 -12.5 67t-43.5 21v21q32 -3 62 -3q104 0 174 14v-72q38 75 129 75q49 0 70.5 -30zM425 818q-55 -36 -104.5 -93t-82.5 -119h-18q-32 61 -81.5 118t-105.5 94l8 14q59 -10 116 -26.5t92 -33.5q29 17 75 33.5t93 26.5z" />
    <glyph glyph-name="Sacute" unicode="&#x15a;" horiz-adv-x="613" 
d="M394.5 711.5q35.5 -10.5 69.5 -29.5q11 -6 19.5 -10t14.5 -4q9 0 14 10.5t8 33.5h23q-5 -72 -5 -244h-23q-4 57 -26 109t-60 85t-88 33q-46 0 -74 -24.5t-28 -68.5q0 -34 15 -59t44 -48.5t95 -69.5q6 -3 11.5 -7t10.5 -8q55 -38 88 -67.5t53.5 -68.5t20.5 -90
q0 -65 -36.5 -109.5t-98.5 -66.5t-137 -22q-61 0 -101.5 10t-75.5 27q-22 14 -34 14q-9 0 -14 -10.5t-8 -33.5h-23q4 68 4 290h23q7 -119 50 -193t132 -74q55 0 87.5 26t32.5 72q0 57 -35.5 97.5t-110.5 90.5q-60 40 -96 70t-59 69.5t-23 91.5q0 63 34 105.5t90.5 63
t123.5 20.5q57 0 92.5 -10.5zM421 946q19 0 36.5 -10t26.5 -28q6 -12 6 -26q0 -18 -10 -34t-28 -25q-16 -8 -33 -12t-46 -9q-71 -11 -134 -30l-7 12q52 44 96 99q21 24 33 36t29 20q16 7 31 7z" />
    <glyph glyph-name="sacute" unicode="&#x15b;" horiz-adv-x="472" 
d="M304.5 524.5q34.5 -8.5 52.5 -18.5q11 -6 18 -6q21 0 25 32h20q-4 -52 -4 -180h-20q-8 66 -37.5 111.5t-85.5 45.5q-25 0 -42 -15t-17 -41q0 -33 22 -58.5t69 -62.5q2 -1 29 -23q56 -46 82 -81.5t26 -87.5q0 -44 -27 -79.5t-73.5 -55t-101.5 -19.5q-63 0 -103 25
q-17 9 -28 13t-22 4q-19 0 -28 -35h-20q4 57 4 200h20q9 -82 44 -132t88 -50q25 0 41.5 14t16.5 41q0 28 -11.5 50t-28 39.5t-53.5 50.5q-42 39 -64 62t-37.5 53.5t-15.5 67.5q0 43 26 76t69 50.5t93 17.5q39 0 73.5 -8.5zM368 775q0 -26 -17 -46q-9 -11 -22.5 -21.5
t-24.5 -17.5t-17 -11q-32 -20 -56.5 -37t-55.5 -43l-11 9q18 36 27.5 62t22.5 66q9 30 16 46t19 30q9 11 23.5 17.5t30.5 6.5q25 0 44 -16q21 -16 21 -45z" />
    <glyph glyph-name="Scircumflex" unicode="&#x15c;" horiz-adv-x="613" 
d="M394.5 711.5q35.5 -10.5 69.5 -29.5q11 -6 19.5 -10t14.5 -4q9 0 14 10.5t8 33.5h23q-5 -72 -5 -244h-23q-4 57 -26 109t-60 85t-88 33q-46 0 -74 -24.5t-28 -68.5q0 -34 15 -59t44 -48.5t95 -69.5q6 -3 11.5 -7t10.5 -8q55 -38 88 -67.5t53.5 -68.5t20.5 -90
q0 -65 -36.5 -109.5t-98.5 -66.5t-137 -22q-61 0 -101.5 10t-75.5 27q-22 14 -34 14q-9 0 -14 -10.5t-8 -33.5h-23q4 68 4 290h23q7 -119 50 -193t132 -74q55 0 87.5 26t32.5 72q0 57 -35.5 97.5t-110.5 90.5q-60 40 -96 70t-59 69.5t-23 91.5q0 63 34 105.5t90.5 63
t123.5 20.5q57 0 92.5 -10.5zM416 861.5q58 -46.5 123 -77.5l-5 -15q-68 10 -135 27t-106 34q-33 -17 -89 -34t-112 -27l-5 15q64 30 121.5 76.5t95.5 95.5h18q36 -48 94 -94.5z" />
    <glyph glyph-name="scircumflex" unicode="&#x15d;" horiz-adv-x="472" 
d="M304.5 524.5q34.5 -8.5 52.5 -18.5q11 -6 18 -6q21 0 25 32h20q-4 -52 -4 -180h-20q-8 66 -37.5 111.5t-85.5 45.5q-25 0 -42 -15t-17 -41q0 -33 22 -58.5t69 -62.5q2 -1 29 -23q56 -46 82 -81.5t26 -87.5q0 -44 -27 -79.5t-73.5 -55t-101.5 -19.5q-63 0 -103 25
q-17 9 -28 13t-22 4q-19 0 -28 -35h-20q4 57 4 200h20q9 -82 44 -132t88 -50q25 0 41.5 14t16.5 41q0 28 -11.5 50t-28 39.5t-53.5 50.5q-42 39 -64 62t-37.5 53.5t-15.5 67.5q0 43 26 76t69 50.5t93 17.5q39 0 73.5 -8.5zM326.5 714q49.5 -57 105.5 -94l-8 -14
q-59 10 -116 26.5t-92 33.5q-29 -17 -75 -33.5t-93 -26.5l-8 14q55 36 104.5 93t82.5 119h18q32 -61 81.5 -118z" />
    <glyph glyph-name="Scedilla" unicode="&#x15e;" horiz-adv-x="613" 
d="M394.5 711.5q35.5 -10.5 69.5 -29.5q11 -6 19.5 -10t14.5 -4q9 0 14 10.5t8 33.5h23q-5 -72 -5 -244h-23q-4 57 -26 109t-60 85t-88 33q-46 0 -74 -24.5t-28 -68.5q0 -34 15 -59t44 -48.5t95 -69.5q6 -3 11.5 -7t10.5 -8q55 -38 88 -67.5t53.5 -68.5t20.5 -90
q0 -65 -36.5 -109.5t-98.5 -66.5t-137 -22q-61 0 -101.5 10t-75.5 27q-22 14 -34 14q-9 0 -14 -10.5t-8 -33.5h-23q4 68 4 290h23q7 -119 50 -193t132 -74q55 0 87.5 26t32.5 72q0 57 -35.5 97.5t-110.5 90.5q-60 40 -96 70t-59 69.5t-23 91.5q0 63 34 105.5t90.5 63
t123.5 20.5q57 0 92.5 -10.5zM297 -60q40 15 89 15q41 0 62.5 -16t21.5 -42q0 -42 -51.5 -63.5t-136.5 -21.5q-61 0 -100 13l6 18q28 -5 58 -5q37 0 64.5 9.5t27.5 28.5q0 25 -48 25q-20 0 -33 -7l32 111h27z" />
    <glyph glyph-name="scedilla" unicode="&#x15f;" horiz-adv-x="472" 
d="M304.5 524.5q34.5 -8.5 52.5 -18.5q11 -6 18 -6q21 0 25 32h20q-4 -52 -4 -180h-20q-8 66 -37.5 111.5t-85.5 45.5q-25 0 -42 -15t-17 -41q0 -33 22 -58.5t69 -62.5q2 -1 29 -23q56 -46 82 -81.5t26 -87.5q0 -44 -27 -79.5t-73.5 -55t-101.5 -19.5q-63 0 -103 25
q-17 9 -28 13t-22 4q-19 0 -28 -35h-20q4 57 4 200h20q9 -82 44 -132t88 -50q25 0 41.5 14t16.5 41q0 28 -11.5 50t-28 39.5t-53.5 50.5q-42 39 -64 62t-37.5 53.5t-15.5 67.5q0 43 26 76t69 50.5t93 17.5q39 0 73.5 -8.5zM204 -60q36 15 79 15q36 0 55 -16t19 -42
q0 -42 -43.5 -63.5t-114.5 -21.5q-54 0 -90 13l6 18q22 -5 48 -5q25 0 43.5 9.5t18.5 28.5q0 25 -28 25q-20 0 -33 -7l30 106h27z" />
    <glyph glyph-name="Scaron" unicode="&#x160;" horiz-adv-x="613" 
d="M394.5 711.5q35.5 -10.5 69.5 -29.5q11 -6 19.5 -10t14.5 -4q9 0 14 10.5t8 33.5h23q-5 -72 -5 -244h-23q-4 57 -26 109t-60 85t-88 33q-46 0 -74 -24.5t-28 -68.5q0 -34 15 -59t44 -48.5t95 -69.5q6 -3 11.5 -7t10.5 -8q55 -38 88 -67.5t53.5 -68.5t20.5 -90
q0 -65 -36.5 -109.5t-98.5 -66.5t-137 -22q-61 0 -101.5 10t-75.5 27q-22 14 -34 14q-9 0 -14 -10.5t-8 -33.5h-23q4 68 4 290h23q7 -119 50 -193t132 -74q55 0 87.5 26t32.5 72q0 57 -35.5 97.5t-110.5 90.5q-60 40 -96 70t-59 69.5t-23 91.5q0 63 34 105.5t90.5 63
t123.5 20.5q57 0 92.5 -10.5zM536 931q-64 -30 -121.5 -76.5t-95.5 -95.5h-18q-36 48 -94 94.5t-123 77.5l5 15q68 -10 135 -27t106 -34q33 17 89 34t112 27z" />
    <glyph glyph-name="scaron" unicode="&#x161;" horiz-adv-x="472" 
d="M304.5 524.5q34.5 -8.5 52.5 -18.5q11 -6 18 -6q21 0 25 32h20q-4 -52 -4 -180h-20q-8 66 -37.5 111.5t-85.5 45.5q-25 0 -42 -15t-17 -41q0 -33 22 -58.5t69 -62.5q2 -1 29 -23q56 -46 82 -81.5t26 -87.5q0 -44 -27 -79.5t-73.5 -55t-101.5 -19.5q-63 0 -103 25
q-17 9 -28 13t-22 4q-19 0 -28 -35h-20q4 57 4 200h20q9 -82 44 -132t88 -50q25 0 41.5 14t16.5 41q0 28 -11.5 50t-28 39.5t-53.5 50.5q-42 39 -64 62t-37.5 53.5t-15.5 67.5q0 43 26 76t69 50.5t93 17.5q39 0 73.5 -8.5zM422 818q-55 -36 -104.5 -93t-82.5 -119h-18
q-32 61 -81.5 118t-105.5 94l8 14q59 -10 116 -26.5t92 -33.5q29 17 75 33.5t93 26.5z" />
    <glyph glyph-name="uni0162" unicode="&#x162;" horiz-adv-x="699" 
d="M669 510q0 -46 3 -72h-23q-33 131 -85 189t-112 58h-1v-572q0 -42 8.5 -61t31 -25.5t71.5 -6.5v-20q-141 3 -219 3q-71 0 -206 -3v20q49 0 71.5 6.5t31 25.5t8.5 61v572h-1q-61 0 -112.5 -57.5t-84.5 -189.5h-23q3 26 3 72q0 87 -7 198q95 -3 327 -3q231 0 326 3
q-7 -111 -7 -198zM341 -60q40 15 89 15q41 0 62.5 -16t21.5 -42q0 -42 -51.5 -63.5t-136.5 -21.5q-61 0 -100 13l6 18q28 -5 58 -5q37 0 64.5 9.5t27.5 28.5q0 25 -48 25q-20 0 -33 -7l32 111h27z" />
    <glyph glyph-name="uni0163" unicode="&#x163;" horiz-adv-x="350" 
d="M252 519h98v-20h-98v-415q0 -20 7 -28t23 -8q12 0 27 7t27 22l15 -12q-46 -79 -142 -79q-69 0 -103 34q-21 21 -27.5 52t-6.5 87v340h-76v20h76v118q54 0 97.5 10.5t82.5 33.5v-162zM184 -60q36 15 79 15q36 0 55 -16t19 -42q0 -42 -43.5 -63.5t-114.5 -21.5
q-54 0 -90 13l6 18q22 -5 48 -5q25 0 43.5 9.5t18.5 28.5q0 25 -28 25q-20 0 -33 -7l30 106h27z" />
    <glyph glyph-name="Tcaron" unicode="&#x164;" horiz-adv-x="699" 
d="M669 510q0 -46 3 -72h-23q-33 131 -85 189t-112 58h-1v-572q0 -42 8.5 -61t31 -25.5t71.5 -6.5v-20q-141 3 -219 3q-71 0 -206 -3v20q49 0 71.5 6.5t31 25.5t8.5 61v572h-1q-61 0 -112.5 -57.5t-84.5 -189.5h-23q3 26 3 72q0 87 -7 198q95 -3 327 -3q231 0 326 3
q-7 -111 -7 -198zM573 931q-64 -30 -121.5 -76.5t-95.5 -95.5h-18q-36 48 -94 94.5t-123 77.5l5 15q68 -10 135 -27t106 -34q33 17 89 34t112 27z" />
    <glyph glyph-name="tcaron" unicode="&#x165;" horiz-adv-x="350" 
d="M252 519h98v-20h-98v-415q0 -20 7 -28t23 -8q12 0 27 7t27 22l15 -12q-46 -79 -142 -79q-69 0 -103 34q-21 21 -27.5 52t-6.5 87v340h-76v20h76v118q54 0 97.5 10.5t82.5 33.5v-162zM429.5 765.5q1.5 -12.5 1.5 -23.5q0 -26 -25.5 -63.5t-91.5 -116.5l-14 4
q20 113 20 145q0 21 -4 30.5t-16 9.5v21l28 -1q29 0 49 3t49 9q2 -5 3.5 -17.5z" />
    <glyph glyph-name="Tbar" unicode="&#x166;" horiz-adv-x="699" 
d="M669 510q0 -46 3 -72h-23q-33 131 -85 189t-112 58h-1v-572q0 -42 8.5 -61t31 -25.5t71.5 -6.5v-20q-141 3 -219 3q-71 0 -206 -3v20q49 0 71.5 6.5t31 25.5t8.5 61v572h-1q-61 0 -112.5 -57.5t-84.5 -189.5h-23q3 26 3 72q0 87 -7 198q95 -3 327 -3q231 0 326 3
q-7 -111 -7 -198zM571.999 344h-444.415v20h444.415v-20z" />
    <glyph glyph-name="tbar" unicode="&#x167;" horiz-adv-x="353" 
d="M353 65q-46 -79 -142 -79q-69 0 -103 34q-21 21 -27.5 52t-6.5 87v242h-76v20h76v78h-76v20h76v118q54 0 97.5 10.5t82.5 33.5v-162h98v-20h-98v-78h98v-20h-98v-317q0 -20 7 -28t23 -8q12 0 27 7t27 22z" />
    <glyph glyph-name="Utilde" unicode="&#x168;" horiz-adv-x="693" 
d="M681 688q-31 -7 -46 -21.5t-20 -44.5t-5 -90v-241q0 -144 -41 -212q-27 -45 -79.5 -69t-135.5 -24q-121 0 -188 48q-49 35 -65.5 94t-16.5 160v314q0 38 -5 55t-19.5 23t-46.5 8v20q57 -3 176 -3q118 0 179 3v-20q-36 -2 -52.5 -8t-22.5 -23t-6 -55v-408q0 -96 30 -134.5
t95 -38.5q95 0 135 67.5t40 191.5v232q0 74 -6 106.5t-26.5 47.5t-68.5 22v20q41 -3 112 -3q53 0 83 3v-20zM333 928.5q27 -9.5 58 -26.5q32 -16 51.5 -23t46.5 -7q57 0 97 53l14 -7q-19 -78 -58.5 -115.5t-89.5 -37.5q-38 0 -64 9t-61 27q-29 16 -49.5 23.5t-47.5 7.5
q-56 0 -97 -54l-14 7q19 78 59 115.5t90 37.5q38 0 65 -9.5z" />
    <glyph glyph-name="utilde" unicode="&#x169;" horiz-adv-x="622" 
d="M548 109q0 -46 12.5 -67t43.5 -21v-21q-31 3 -62 3q-104 0 -174 -14v72q-45 -75 -159 -75q-80 0 -113 40q-15 18 -22 48.5t-7 80.5v255q0 46 -12.5 67t-43.5 21v21q31 -3 62 -3q104 0 174 14v-429q0 -32 11.5 -47.5t37.5 -15.5q29 0 50.5 20.5t21.5 51.5v300
q0 46 -12.5 67t-43.5 21v21q31 -3 62 -3q104 0 174 14v-421zM272.5 789q21.5 -9 48.5 -27q25 -15 41.5 -22.5t38.5 -7.5q45 0 77 53l14 -7q-16 -83 -50.5 -123t-77.5 -40q-31 0 -52 9t-50 27q-23 16 -40.5 23.5t-39.5 7.5q-44 0 -77 -54l-14 7q16 83 50.5 123t78.5 40
q31 0 52.5 -9z" />
    <glyph glyph-name="Umacron" unicode="&#x16a;" horiz-adv-x="693" 
d="M681 688q-31 -7 -46 -21.5t-20 -44.5t-5 -90v-241q0 -144 -41 -212q-27 -45 -79.5 -69t-135.5 -24q-121 0 -188 48q-49 35 -65.5 94t-16.5 160v314q0 38 -5 55t-19.5 23t-46.5 8v20q57 -3 176 -3q118 0 179 3v-20q-36 -2 -52.5 -8t-22.5 -23t-6 -55v-408q0 -96 30 -134.5
t95 -38.5q95 0 135 67.5t40 191.5v232q0 74 -6 106.5t-26.5 47.5t-68.5 22v20q41 -3 112 -3q53 0 83 3v-20zM577 819h-432v25h432v-25z" />
    <glyph glyph-name="umacron" unicode="&#x16b;" horiz-adv-x="622" 
d="M548 109q0 -46 12.5 -67t43.5 -21v-21q-31 3 -62 3q-104 0 -174 -14v72q-45 -75 -159 -75q-80 0 -113 40q-15 18 -22 48.5t-7 80.5v255q0 46 -12.5 67t-43.5 21v21q31 -3 62 -3q104 0 174 14v-429q0 -32 11.5 -47.5t37.5 -15.5q29 0 50.5 20.5t21.5 51.5v300
q0 46 -12.5 67t-43.5 21v21q31 -3 62 -3q104 0 174 14v-421zM468 687h-352v25h352v-25z" />
    <glyph glyph-name="Ubreve" unicode="&#x16c;" horiz-adv-x="693" 
d="M681 688q-31 -7 -46 -21.5t-20 -44.5t-5 -90v-241q0 -144 -41 -212q-27 -45 -79.5 -69t-135.5 -24q-121 0 -188 48q-49 35 -65.5 94t-16.5 160v314q0 38 -5 55t-19.5 23t-46.5 8v20q57 -3 176 -3q118 0 179 3v-20q-36 -2 -52.5 -8t-22.5 -23t-6 -55v-408q0 -96 30 -134.5
t95 -38.5q95 0 135 67.5t40 191.5v232q0 74 -6 106.5t-26.5 47.5t-68.5 22v20q41 -3 112 -3q53 0 83 3v-20zM590 909q-23 -59 -84 -102.5t-155 -43.5t-155 43.5t-84 102.5l12 11q90 -58 227 -58t227 58z" />
    <glyph glyph-name="ubreve" unicode="&#x16d;" horiz-adv-x="622" 
d="M548 109q0 -46 12.5 -67t43.5 -21v-21q-31 3 -62 3q-104 0 -174 -14v72q-45 -75 -159 -75q-80 0 -113 40q-15 18 -22 48.5t-7 80.5v255q0 46 -12.5 67t-43.5 21v21q31 -3 62 -3q104 0 174 14v-429q0 -32 11.5 -47.5t37.5 -15.5q29 0 50.5 20.5t21.5 51.5v300
q0 46 -12.5 67t-43.5 21v21q31 -3 62 -3q104 0 174 14v-421zM493 779q-20 -70 -68 -118t-131 -48t-131 48t-68 118l17 9q69 -56 182 -56t182 56z" />
    <glyph glyph-name="Uring" unicode="&#x16e;" horiz-adv-x="693" 
d="M681 688q-31 -7 -46 -21.5t-20 -44.5t-5 -90v-241q0 -144 -41 -212q-27 -45 -79.5 -69t-135.5 -24q-121 0 -188 48q-49 35 -65.5 94t-16.5 160v314q0 38 -5 55t-19.5 23t-46.5 8v20q57 -3 176 -3q118 0 179 3v-20q-36 -2 -52.5 -8t-22.5 -23t-6 -55v-408q0 -96 30 -134.5
t95 -38.5q95 0 135 67.5t40 191.5v232q0 74 -6 106.5t-26.5 47.5t-68.5 22v20q41 -3 112 -3q53 0 83 3v-20zM443.5 962q34.5 -28 34.5 -73q0 -46 -34.5 -74t-82.5 -28t-82 28t-34 74q0 45 34 73t82 28t82.5 -28zM300 947q-27 -22 -27 -59q0 -38 26.5 -59t61.5 -21t62 21
t27 59q0 37 -27 59t-62 22q-34 0 -61 -22z" />
    <glyph glyph-name="uring" unicode="&#x16f;" horiz-adv-x="622" 
d="M548 109q0 -46 12.5 -67t43.5 -21v-21q-31 3 -62 3q-104 0 -174 -14v72q-45 -75 -159 -75q-80 0 -113 40q-15 18 -22 48.5t-7 80.5v255q0 46 -12.5 67t-43.5 21v21q31 -3 62 -3q104 0 174 14v-429q0 -32 11.5 -47.5t37.5 -15.5q29 0 50.5 20.5t21.5 51.5v300
q0 46 -12.5 67t-43.5 21v21q31 -3 62 -3q104 0 174 14v-421zM377.5 773q34.5 -28 34.5 -73q0 -46 -34.5 -74t-82.5 -28t-82 28t-34 74q0 45 34 73t82 28t82.5 -28zM234 758q-27 -22 -27 -59q0 -38 26.5 -59t61.5 -21t62 21t27 59q0 37 -27 59t-62 22q-34 0 -61 -22z" />
    <glyph glyph-name="Uhungarumlaut" unicode="&#x170;" horiz-adv-x="693" 
d="M681 688q-31 -7 -46 -21.5t-20 -44.5t-5 -90v-241q0 -144 -41 -212q-27 -45 -79.5 -69t-135.5 -24q-121 0 -188 48q-49 35 -65.5 94t-16.5 160v314q0 38 -5 55t-19.5 23t-46.5 8v20q57 -3 176 -3q118 0 179 3v-20q-36 -2 -52.5 -8t-22.5 -23t-6 -55v-408q0 -96 30 -134.5
t95 -38.5q95 0 135 67.5t40 191.5v232q0 74 -6 106.5t-26.5 47.5t-68.5 22v20q41 -3 112 -3q53 0 83 3v-20zM347 955q17 0 32.5 -8t25.5 -23q11 -15 11 -35q0 -16 -8 -30t-24 -24q-13 -8 -29.5 -14t-44.5 -14q-63 -18 -108 -35l-10 11q31 38 68 98q17 26 27 39.5t22 22.5
q17 12 38 12zM574 955q17 0 32.5 -8t25.5 -23q11 -15 11 -35q0 -16 -8 -30t-24 -24q-13 -8 -29.5 -14t-44.5 -14q-63 -18 -108 -35l-10 11q31 38 68 98q17 26 27 39.5t22 22.5q16 12 38 12z" />
    <glyph glyph-name="uhungarumlaut" unicode="&#x171;" horiz-adv-x="622" 
d="M548 109q0 -46 12.5 -67t43.5 -21v-21q-31 3 -62 3q-104 0 -174 -14v72q-45 -75 -159 -75q-80 0 -113 40q-15 18 -22 48.5t-7 80.5v255q0 46 -12.5 67t-43.5 21v21q31 -3 62 -3q104 0 174 14v-429q0 -32 11.5 -47.5t37.5 -15.5q29 0 50.5 20.5t21.5 51.5v300
q0 46 -12.5 67t-43.5 21v21q31 -3 62 -3q104 0 174 14v-421zM348 767q0 -19 -13 -40q-8 -13 -20.5 -24.5t-37.5 -30.5q-45 -35 -85 -74l-13 6q16 54 24 116q1 6 4.5 24.5t7 31t9.5 21.5q9 15 24.5 23.5t32.5 8.5q21 0 39 -12q28 -20 28 -50zM525 767q0 -19 -13 -40
q-8 -13 -20.5 -24.5t-37.5 -30.5q-45 -35 -85 -74l-13 6q16 54 24 116q1 6 4.5 24.5t7 31t9.5 21.5q9 15 24.5 23.5t32.5 8.5q21 0 39 -12q28 -20 28 -50z" />
    <glyph glyph-name="Uogonek" unicode="&#x172;" horiz-adv-x="693" 
d="M681 688q-31 -7 -46 -21.5t-20 -44.5t-5 -90v-241q0 -144 -41 -212q-27 -45 -79.5 -69t-135.5 -24q-121 0 -188 48q-49 35 -65.5 94t-16.5 160v314q0 38 -5 55t-19.5 23t-46.5 8v20q57 -3 176 -3q118 0 179 3v-20q-36 -2 -52.5 -8t-22.5 -23t-6 -55v-408q0 -96 30 -134.5
t95 -38.5q95 0 135 67.5t40 191.5v232q0 74 -6 106.5t-26.5 47.5t-68.5 22v20q41 -3 112 -3q53 0 83 3v-20zM386.5 -42q-27.5 -25 -27.5 -48q0 -20 9.5 -29t30.5 -9q17 0 36 6.5t30 16.5l13 -15q-29 -36 -65 -52t-88 -16q-48 0 -73.5 18.5t-25.5 52.5q0 43 54.5 73.5
t153.5 46.5h38q-58 -20 -85.5 -45z" />
    <glyph glyph-name="uogonek" unicode="&#x173;" horiz-adv-x="622" 
d="M548 109q0 -46 12.5 -67t43.5 -21v-21q-31 3 -62 3q-104 0 -174 -14v72q-45 -75 -159 -75q-80 0 -113 40q-15 18 -22 48.5t-7 80.5v255q0 46 -12.5 67t-43.5 21v21q31 -3 62 -3q104 0 174 14v-429q0 -32 11.5 -47.5t37.5 -15.5q29 0 50.5 20.5t21.5 51.5v300
q0 46 -12.5 67t-43.5 21v21q31 -3 62 -3q104 0 174 14v-421zM565 -4q-36 -18 -52 -41t-16 -45q0 -38 40 -38q17 0 36 6.5t30 16.5l13 -15q-29 -36 -65 -52t-88 -16q-48 0 -73.5 18.5t-25.5 52.5q0 43 46.5 73.5t131.5 46.5l48 10q-6 -8 -25 -17z" />
    <glyph glyph-name="Wcircumflex" unicode="&#x174;" horiz-adv-x="1010" 
d="M1018 708v-20q-59 -29 -93 -140l-168 -548q-32 2 -53 2q-20 0 -52 -2l-130 397l-141 -397q-32 2 -53 2q-20 0 -52 -2l-232 624q-12 32 -28 47.5t-31 16.5v20q72 -3 177 -3q91 0 133 3v-20q-27 -5 -27 -40q0 -21 9 -44l145 -408l88 238l-68 207q-8 25 -20 35t-31 12v20
q67 -3 173 -3q104 0 155 3v-20q-36 -1 -52 -9t-16 -29q0 -19 10 -46l132 -401l77 247q27 89 27 140q0 50 -22.5 73t-64.5 25v20q75 -3 131 -3q47 0 77 3zM628 861.5q58 -46.5 123 -77.5l-5 -15q-68 10 -135 27t-106 34q-33 -17 -89 -34t-112 -27l-5 15q64 30 121.5 76.5
t95.5 95.5h18q36 -48 94 -94.5z" />
    <glyph glyph-name="wcircumflex" unicode="&#x175;" horiz-adv-x="798" 
d="M801 519v-21q-21 -8 -38.5 -29.5t-32.5 -67.5l-125 -401q-16 2 -48 2q-33 0 -49 -2l-119 346l-91 -346q-16 2 -48 2q-33 0 -49 -2l-154 442q-12 35 -27 45.5t-31 10.5v21q79 -6 178 -6q50 0 130 6v-21q-31 0 -44.5 -5t-13.5 -20q0 -3 2 -13l83 -277l86 335h1q32 -2 48 -2
q20 0 58 2l114 -366l43 143q16 55 16 96q0 50 -22 77t-59 30v21q37 -4 115 -4q57 0 77 4zM501.5 714q49.5 -57 105.5 -94l-8 -14q-59 10 -116 26.5t-92 33.5q-29 -17 -75 -33.5t-93 -26.5l-8 14q55 36 104.5 93t82.5 119h18q32 -61 81.5 -118z" />
    <glyph glyph-name="Ycircumflex" unicode="&#x176;" horiz-adv-x="644" 
d="M636 709v-20q-51 -25 -106 -133l-93 -184v-266q0 -38 5.5 -55t19.5 -23t46 -8v-20q-58 3 -172 3q-119 0 -173 -3v20q32 2 46.5 8t19.5 23t5 55v184l-185 342q-16 29 -31 42.5t-27 13.5v21q62 -6 138 -6q86 0 220 6v-21q-40 0 -60 -4t-20 -19q0 -7 4 -15l143 -274l45 90
q47 94 47 149q0 71 -80 74v20q75 -3 131 -3q47 0 77 3zM451 861.5q58 -46.5 123 -77.5l-5 -15q-68 10 -135 27t-106 34q-33 -17 -89 -34t-112 -27l-5 15q64 30 121.5 76.5t95.5 95.5h18q36 -48 94 -94.5z" />
    <glyph glyph-name="ycircumflex" unicode="&#x177;" horiz-adv-x="529" 
d="M525 519v-21q-21 -7 -38.5 -29t-32.5 -68l-125 -372l-42 -121q-18 -52 -44 -72q-31 -24 -93 -24q-50 0 -93 23.5t-43 70.5q0 35 27 56t71 21q42 0 66 -19t24 -55q0 -24 -16.5 -45.5t-48.5 -31.5q10 -2 34 -2q69 0 95 80l5 17l-233 515q-15 34 -29.5 45t-28.5 11v21
q80 -6 163 -6q65 0 145 6v-21q-29 0 -44.5 -4t-15.5 -18q0 -8 4 -16l123 -293l42 128q19 58 19 102q0 47 -20 73t-53 28v21q37 -4 105 -4q57 0 77 4zM350.5 714q49.5 -57 105.5 -94l-8 -14q-59 10 -116 26.5t-92 33.5q-29 -17 -75 -33.5t-93 -26.5l-8 14q55 36 104.5 93
t82.5 119h18q32 -61 81.5 -118z" />
    <glyph glyph-name="Ydieresis" unicode="&#x178;" horiz-adv-x="644" 
d="M636 709v-20q-51 -25 -106 -133l-93 -184v-266q0 -38 5.5 -55t19.5 -23t46 -8v-20q-58 3 -172 3q-119 0 -173 -3v20q32 2 46.5 8t19.5 23t5 55v184l-185 342q-16 29 -31 42.5t-27 13.5v21q62 -6 138 -6q86 0 220 6v-21q-40 0 -60 -4t-20 -19q0 -7 4 -15l143 -274l45 90
q47 94 47 149q0 71 -80 74v20q75 -3 131 -3q47 0 77 3zM279.5 910q26.5 -26 26.5 -61q0 -36 -26 -61.5t-61 -25.5q-36 0 -61.5 25.5t-25.5 61.5q0 35 25.5 61t61.5 26q34 0 60.5 -26zM537.5 910q26.5 -26 26.5 -61q0 -36 -26 -61.5t-61 -25.5q-36 0 -61.5 25.5t-25.5 61.5
q0 35 25.5 61t61.5 26q34 0 60.5 -26z" />
    <glyph glyph-name="Zacute" unicode="&#x179;" horiz-adv-x="607" 
d="M561 688l-303 -665h42q41 0 94 23.5t96 77t52 136.5h23q-3 -36 -3 -92q0 -102 7 -168q-74 3 -249 3q-195 0 -283 -3v20l303 665h-50q-47 0 -94 -20.5t-83 -69t-47 -127.5h-23q3 26 3 72q0 74 -7 168q62 -3 209 -3q216 0 313 3v-20zM414 946q19 0 36.5 -10t26.5 -28
q6 -12 6 -26q0 -18 -10 -34t-28 -25q-16 -8 -33 -12t-46 -9q-71 -11 -134 -30l-7 12q52 44 96 99q21 24 33 36t29 20q16 7 31 7z" />
    <glyph glyph-name="zacute" unicode="&#x17a;" horiz-adv-x="472" 
d="M223 15h14q66 0 115.5 44.5t57.5 146.5h20q0 -150 4 -210q-83 4 -196 4q-100 0 -212 -5l224 508h-20q-65 0 -112 -44.5t-55 -146.5h-20q0 150 -4 210q83 -4 196 -4q100 0 212 5zM384 775q0 -26 -17 -46q-9 -11 -22.5 -21.5t-24.5 -17.5t-17 -11q-32 -20 -56.5 -37
t-55.5 -43l-11 9q18 36 27.5 62t22.5 66q9 30 16 46t19 30q9 11 23.5 17.5t30.5 6.5q25 0 44 -16q21 -16 21 -45z" />
    <glyph glyph-name="Zdotaccent" unicode="&#x17b;" horiz-adv-x="607" 
d="M561 688l-303 -665h42q41 0 94 23.5t96 77t52 136.5h23q-3 -36 -3 -92q0 -102 7 -168q-74 3 -249 3q-195 0 -283 -3v20l303 665h-50q-47 0 -94 -20.5t-83 -69t-47 -127.5h-23q3 26 3 72q0 74 -7 168q62 -3 209 -3q216 0 313 3v-20zM386.5 949q28.5 -22 28.5 -64
t-28.5 -64t-80.5 -22q-53 0 -81 22t-28 64t28 64t81 22q52 0 80.5 -22z" />
    <glyph glyph-name="zdotaccent" unicode="&#x17c;" horiz-adv-x="472" 
d="M223 15h14q66 0 115.5 44.5t57.5 146.5h20q0 -150 4 -210q-83 4 -196 4q-100 0 -212 -5l224 508h-20q-65 0 -112 -44.5t-55 -146.5h-20q0 150 -4 210q83 -4 196 -4q100 0 212 5zM332.5 760q28.5 -22 28.5 -64t-28.5 -64t-80.5 -22q-53 0 -81 22t-28 64t28 64t81 22
q52 0 80.5 -22z" />
    <glyph glyph-name="Zcaron" unicode="&#x17d;" horiz-adv-x="607" 
d="M561 688l-303 -665h42q41 0 94 23.5t96 77t52 136.5h23q-3 -36 -3 -92q0 -102 7 -168q-74 3 -249 3q-195 0 -283 -3v20l303 665h-50q-47 0 -94 -20.5t-83 -69t-47 -127.5h-23q3 26 3 72q0 74 -7 168q62 -3 209 -3q216 0 313 3v-20zM529 931q-64 -30 -121.5 -76.5
t-95.5 -95.5h-18q-36 48 -94 94.5t-123 77.5l5 15q68 -10 135 -27t106 -34q33 17 89 34t112 27z" />
    <glyph glyph-name="zcaron" unicode="&#x17e;" horiz-adv-x="472" 
d="M223 15h14q66 0 115.5 44.5t57.5 146.5h20q0 -150 4 -210q-83 4 -196 4q-100 0 -212 -5l224 508h-20q-65 0 -112 -44.5t-55 -146.5h-20q0 150 -4 210q83 -4 196 -4q100 0 212 5zM438 818q-55 -36 -104.5 -93t-82.5 -119h-18q-32 61 -81.5 118t-105.5 94l8 14
q59 -10 116 -26.5t92 -33.5q29 17 75 33.5t93 26.5z" />
    <glyph glyph-name="longs" unicode="&#x17f;" horiz-adv-x="365" 
d="M20 21q31 0 43.5 15.5t12.5 56.5v405h-60v20h60q0 87 15.5 133.5t55.5 80.5q25 21 65 35.5t84 14.5q72 0 120 -37q16 -12 26.5 -34t10.5 -49q0 -32 -23.5 -56.5t-59.5 -24.5q-42 0 -66 22t-24 61q0 30 17.5 54t51.5 35q-7 9 -27 9q-31 0 -47 -19q-10 -12 -14.5 -32.5
t-4.5 -58.5v-549q0 -46 21.5 -64t64.5 -18v-21l-29 1q-120 3 -155 3q-30 0 -138 -4v21z" />
    <glyph glyph-name="uni018F" unicode="&#x18f;" horiz-adv-x="775" 
d="M555 684q85 -39 134.5 -121t49.5 -205t-50 -207t-133 -124.5t-184 -40.5q-93 0 -170.5 34.5t-122.5 106.5t-43 177h495q1 12 1 37q0 188 -70 267t-174 79q-60 0 -104 -26q-47 -28 -65.5 -74.5t-26.5 -128.5h-23q0 179 -4 250h23q3 -32 8.5 -45.5t15.5 -13.5q8 0 21 8
q5 3 34 21t81 31.5t115 13.5q107 0 192 -39zM487 74q37 65 46 211h-286q-2 -28 -2 -42q0 -100 38 -167t106 -67q61 0 98 65z" />
    <glyph glyph-name="florin" unicode="&#x192;" horiz-adv-x="612" 
d="M438 717.5q17 24.5 48 35.5q-11 9 -39 9q-18 0 -35.5 -8.5t-26.5 -23.5q-13 -21 -15.5 -61t-2.5 -151h191v-20h-191v-418q0 -88 -16 -136t-55 -82q-57 -50 -189 -50q-61 0 -111.5 20.5t-50.5 73.5q0 35 27 56t71 21q42 0 66 -19t24 -55q0 -23 -14.5 -43.5t-43.5 -31.5
q18 -2 27 -2q21 0 39.5 8.5t27.5 23.5q13 21 15.5 62t2.5 154v418h-146v20h146q0 85 16 133t55 81q25 22 68 36t91 14q69 0 125.5 -25.5t56.5 -88.5q0 -37 -24.5 -62t-63.5 -25q-41 0 -65.5 22t-24.5 58q0 32 17 56.5z" />
    <glyph glyph-name="Ohorn" unicode="&#x1a0;" horiz-adv-x="827" 
d="M744 554.5q47 -81.5 47 -194.5q0 -110 -48 -195t-134 -132t-196 -47q-113 0 -198 43t-132 124.5t-47 194.5q0 110 48 195t134 132t196 47q84 0 153 -24q67 0 128 18q-25 13 -41.5 34.5t-16.5 49.5q0 34 22.5 55t54.5 21q33 0 56.5 -22.5t23.5 -59.5q0 -59 -62 -87
q-50 -22 -121 -27q86 -44 133 -125.5zM503.5 48.5q37.5 44.5 57.5 124.5t20 183q0 104 -23 183t-62 122t-86 43q-49 0 -86.5 -44.5t-57.5 -124.5t-20 -183q0 -104 23 -183t62 -122t86 -43q49 0 86.5 44.5z" />
    <glyph glyph-name="ohorn" unicode="&#x1a1;" horiz-adv-x="576" 
d="M596.5 646q22.5 -18 22.5 -53q0 -57 -64 -84q-38 -15 -97 -23q87 -66 87 -227q0 -145 -67 -209t-190 -64t-190 64t-67 209t67 209.5t190 64.5q87 0 143 -30q42 3 79 11q-21 13 -34.5 33.5t-13.5 44.5q0 31 22 51.5t57 20.5q33 0 55.5 -18zM339 68.5q19 62.5 19 190.5
t-19 191t-51 63t-51 -63t-19 -191t19 -190.5t51 -62.5t51 62.5z" />
    <glyph glyph-name="Uhorn" unicode="&#x1af;" horiz-adv-x="693" 
d="M741.5 859.5q23.5 -22.5 23.5 -58.5q0 -29 -16.5 -51.5t-45.5 -36.5q-43 -22 -93 -27v-395q0 -144 -41 -212q-27 -45 -79.5 -69t-135.5 -24q-121 0 -188 48q-49 35 -65.5 94t-16.5 160v314q0 38 -5 55t-19.5 23t-46.5 8v20q57 -3 176 -3q118 0 179 3v-20q-36 -2 -52.5 -8
t-22.5 -23t-6 -55v-408q0 -96 30 -134.5t95 -38.5q95 0 135 67.5t40 191.5v404q-70 0 -102 4l5 20l22 -2q34 -2 51 -2q38 0 62 3t44 13q-26 14 -43.5 35.5t-17.5 50.5q0 34 22.5 55t54.5 21q33 0 56.5 -22.5z" />
    <glyph glyph-name="uhorn" unicode="&#x1b0;" horiz-adv-x="622" 
d="M664 677q23 -18 23 -51q0 -50 -63 -86q-34 -19 -76 -30v-401q0 -46 12.5 -67t43.5 -21v-21q-31 3 -62 3q-104 0 -174 -14v72q-45 -75 -159 -75q-80 0 -113 40q-15 18 -22 48.5t-7 80.5v255q0 46 -12.5 67t-43.5 21v21q31 -3 62 -3q104 0 174 14v-429q0 -32 11.5 -47.5
t37.5 -15.5q29 0 50.5 20.5t21.5 51.5v300q0 46 -12.5 67t-43.5 21v21q31 -3 62 -3q94 0 164 12q25 6 43 16q-22 12 -36.5 32.5t-14.5 46.5q0 31 22 51.5t57 20.5q32 0 55 -18z" />
    <glyph glyph-name="uni01B7" unicode="&#x1b7;" horiz-adv-x="607" 
d="M536.5 303.5q39.5 -43.5 39.5 -103.5q0 -57 -35 -106t-102.5 -78.5t-159.5 -29.5q-55 0 -99 10.5t-72 26.5q-22 14 -33 14q-10 0 -15 -10.5t-8 -33.5h-23q4 68 4 290h23q6 -116 52 -191.5t134 -75.5q74 0 111.5 52t37.5 124q0 79 -46.5 126.5t-134.5 61.5v20l130 285h-50
q-47 0 -94 -20.5t-83 -69t-47 -127.5h-23q3 26 3 70q0 76 -7 170q62 -3 209 -3q216 0 313 3v-20l-140 -308q76 -33 115.5 -76.5z" />
    <glyph glyph-name="uni01CD" unicode="&#x1cd;" horiz-adv-x="692" 
d="M668.5 36.5q15.5 -15.5 30.5 -16.5v-20q-72 3 -182 3q-114 0 -168 -3v20q38 2 54 9.5t16 26.5q0 18 -12 48l-59 164h-202l-17 -45q-33 -85 -33 -130q0 -41 23 -56t68 -17v-20q-75 3 -131 3q-47 0 -77 -3v20q25 4 47 31t45 86l222 571q32 -2 53 -2q20 0 52 2l242 -624
q13 -32 28.5 -47.5zM341 288l-91 250l-96 -250h187zM568 931q-64 -30 -121.5 -76.5t-95.5 -95.5h-18q-36 48 -94 94.5t-123 77.5l5 15q68 -10 135 -27t106 -34q33 17 89 34t112 27z" />
    <glyph glyph-name="uni01CE" unicode="&#x1ce;" horiz-adv-x="531" 
d="M54.5 27.5q-32.5 34.5 -32.5 86.5q0 45 23.5 74.5t55.5 45.5t83 33q54 18 79 33t25 42v89q0 32 -16 57t-55 25q-31 0 -56 -17q34 -12 50.5 -35.5t16.5 -52.5q0 -39 -27.5 -62.5t-66.5 -23.5t-61.5 24.5t-22.5 62.5q0 30 15 52t47 40q56 32 160 32q55 0 95 -10.5t68 -39.5
q20 -21 26.5 -52.5t6.5 -87.5v-268q0 -25 3.5 -34t12.5 -9q7 0 15 4.5t15 10.5l10 -17q-43 -37 -123 -37q-60 0 -84 20.5t-26 55.5q-47 -76 -140 -76q-64 0 -96.5 34.5zM288 90v211q-9 -15 -33 -39q-27 -26 -41 -50.5t-14 -66.5q0 -72 51 -72q21 0 37 17zM455 818
q-55 -36 -104.5 -93t-82.5 -119h-18q-32 61 -81.5 118t-105.5 94l8 14q59 -10 116 -26.5t92 -33.5q29 17 75 33.5t93 26.5z" />
    <glyph glyph-name="uni01D3" unicode="&#x1d3;" horiz-adv-x="693" 
d="M681 688q-31 -7 -46 -21.5t-20 -44.5t-5 -90v-241q0 -144 -41 -212q-27 -45 -79.5 -69t-135.5 -24q-121 0 -188 48q-49 35 -65.5 94t-16.5 160v314q0 38 -5 55t-19.5 23t-46.5 8v20q57 -3 176 -3q118 0 179 3v-20q-36 -2 -52.5 -8t-22.5 -23t-6 -55v-408q0 -96 30 -134.5
t95 -38.5q95 0 135 67.5t40 191.5v232q0 74 -6 106.5t-26.5 47.5t-68.5 22v20q41 -3 112 -3q53 0 83 3v-20zM584 931q-64 -30 -121.5 -76.5t-95.5 -95.5h-18q-36 48 -94 94.5t-123 77.5l5 15q68 -10 135 -27t106 -34q33 17 89 34t112 27z" />
    <glyph glyph-name="uni01D4" unicode="&#x1d4;" horiz-adv-x="622" 
d="M548 109q0 -46 12.5 -67t43.5 -21v-21q-31 3 -62 3q-104 0 -174 -14v72q-45 -75 -159 -75q-80 0 -113 40q-15 18 -22 48.5t-7 80.5v255q0 46 -12.5 67t-43.5 21v21q31 -3 62 -3q104 0 174 14v-429q0 -32 11.5 -47.5t37.5 -15.5q29 0 50.5 20.5t21.5 51.5v300
q0 46 -12.5 67t-43.5 21v21q31 -3 62 -3q104 0 174 14v-421zM481 818q-55 -36 -104.5 -93t-82.5 -119h-18q-32 61 -81.5 118t-105.5 94l8 14q59 -10 116 -26.5t92 -33.5q29 17 75 33.5t93 26.5z" />
    <glyph glyph-name="uni01E4" unicode="&#x1e4;" horiz-adv-x="756" 
d="M756 178h-56v-178h-20q-1 21 -9 39t-22 18q-21 0 -68 -23q-100 -48 -169 -48q-186 0 -281 94t-95 268q0 110 49.5 195t137.5 132t201 47q64 0 110 -17t84 -48q11 -9 20 -9q10 0 16 14.5t9 45.5h23q-4 -71 -4 -250h-23q-7 79 -26 125t-66 78q-21 14 -48.5 22t-54.5 8
q-72 0 -116.5 -50.5t-63 -127.5t-18.5 -161q0 -174 42.5 -260t118.5 -86q31 0 49 12q21 15 21 50v110h-106v20h106q0 50 -8 73.5t-28.5 32t-64.5 10.5v20q68 -3 191 -3q103 0 154 3v-20q-18 -2 -26.5 -8t-11.5 -23t-3 -55v-30h56v-20z" />
    <glyph glyph-name="uni01E5" unicode="&#x1e5;" horiz-adv-x="560" 
d="M598 -105h-108q-36 -39 -104 -61t-165 -22q-100 0 -158.5 22t-62.5 61h-50v20h52q6 24 35 44t80 32l10 -16q-25 -32 -27 -60h271q1 4 1 11q0 31 -23.5 49.5t-82.5 18.5h-54q-68 0 -104 26t-36 70q0 40 28.5 70t82.5 56q-76 10 -119.5 49.5t-43.5 107.5q0 79 58.5 119.5
t156.5 40.5q105 0 162 -44q19 26 46 41t57 15q33 0 51 -18.5t18 -47.5q0 -28 -15 -44.5t-38 -16.5q-21 0 -36.5 14.5t-15.5 40.5q0 24 14 52q-44 -18 -65 -51q37 -39 37 -101q0 -79 -58.5 -119.5t-156.5 -40.5q-19 0 -28 1q-26 -18 -26 -42q0 -32 36 -32h97
q102 0 159.5 -34.5t57.5 -107.5q0 -46 -25 -83h92v-20zM204.5 482.5q-10.5 -32.5 -10.5 -109.5t10.5 -109.5t30.5 -32.5t30.5 32.5t10.5 109.5t-10.5 109.5t-30.5 32.5t-30.5 -32.5zM321.5 -153.5q33.5 17.5 45.5 48.5h-265q7 -32 41.5 -49t91.5 -17q53 0 86.5 17.5z" />
    <glyph glyph-name="Gcaron" unicode="&#x1e6;" horiz-adv-x="756" 
d="M534 705q46 -17 84 -48q11 -9 20 -9q10 0 16 14.5t9 45.5h23q-4 -71 -4 -250h-23q-7 79 -26 125t-66 78q-21 14 -48.5 22t-54.5 8q-72 0 -116.5 -50.5t-63 -127.5t-18.5 -161q0 -174 42.5 -260t118.5 -86q31 0 49 12q21 15 21 50v100q0 50 -8 73.5t-28.5 32t-64.5 10.5
v20q68 -3 191 -3q103 0 154 3v-20q-18 -2 -26.5 -8t-11.5 -23t-3 -55v-198h-20q-1 21 -9 39t-22 18q-21 0 -68 -23q-100 -48 -169 -48q-186 0 -281 94t-95 268q0 110 49.5 195t137.5 132t201 47q64 0 110 -17zM626 931q-64 -30 -121.5 -76.5t-95.5 -95.5h-18
q-36 48 -94 94.5t-123 77.5l5 15q68 -10 135 -27t106 -34q33 17 89 34t112 27z" />
    <glyph glyph-name="gcaron" unicode="&#x1e7;" horiz-adv-x="570" 
d="M479.5 432.5q-15.5 14.5 -15.5 40.5q0 24 14 52q-44 -18 -65 -51q37 -39 37 -101q0 -79 -58.5 -119.5t-156.5 -40.5q-19 0 -28 1q-26 -18 -26 -42q0 -32 36 -32h97q102 0 159.5 -34.5t57.5 -107.5q0 -52 -33.5 -94t-103 -67t-173.5 -25q-103 0 -162 23t-59 65q0 29 29 53
t88 38l10 -16q-27 -33 -27 -64q0 -39 35.5 -60.5t99.5 -21.5q66 0 101.5 26.5t35.5 70.5q0 31 -23.5 49.5t-82.5 18.5h-54q-68 0 -104 26t-36 70q0 40 28.5 70t82.5 56q-76 10 -119.5 49.5t-43.5 107.5q0 79 58.5 119.5t156.5 40.5q105 0 162 -44q19 26 46 41t57 15
q33 0 51 -18.5t18 -47.5q0 -28 -15 -44.5t-38 -16.5q-21 0 -36.5 14.5zM265.5 263.5q10.5 32.5 10.5 109.5t-10.5 109.5t-30.5 32.5t-30.5 -32.5t-10.5 -109.5t10.5 -109.5t30.5 -32.5t30.5 32.5zM441 818q-55 -36 -104.5 -93t-82.5 -119h-18q-32 61 -81.5 118t-105.5 94
l8 14q59 -10 116 -26.5t92 -33.5q29 17 75 33.5t93 26.5z" />
    <glyph glyph-name="uni01E8" unicode="&#x1e8;" horiz-adv-x="754" 
d="M736 44.5q13 -13.5 34 -24.5v-20q-84 3 -180 3q-74 0 -143 -3v20q32 2 44.5 5.5t12.5 13.5t-10 26l-145 245q-14 24 -23.5 33t-23.5 11v-248q0 -38 5.5 -55t19.5 -23t46 -8v-20q-58 3 -167 3q-121 0 -178 -3v20q32 2 46.5 8t19.5 23t5 55v496q0 38 -5.5 55t-19.5 23
t-46 8v20q57 -3 178 -3q108 0 167 3v-20q-32 -2 -46.5 -8t-19.5 -23t-5 -55v-226q40 3 78 30t93 89l34 38q44 50 44 90q0 29 -23 46.5t-59 19.5v19q84 -3 169 -3q61 0 101 3v-19q-87 -23 -164 -110l-98 -111l232 -387q14 -23 27 -36.5zM654 931q-64 -30 -121.5 -76.5
t-95.5 -95.5h-18q-36 48 -94 94.5t-123 77.5l5 15q68 -10 135 -27t106 -34q33 17 89 34t112 27z" />
    <glyph glyph-name="uni01E9" unicode="&#x1e9;" horiz-adv-x="609" 
d="M580 56q7 -13 14.5 -21.5t16.5 -13.5v-21q-92 4 -121 4q-33 0 -141 -4v21q29 0 29 19q0 7 -4 15l-88 186q-6 11 -13.5 16t-18.5 6v-170q0 -41 12.5 -56.5t43.5 -15.5v-21q-108 4 -142 4t-150 -4v21q31 0 43.5 15.5t12.5 56.5v569q0 46 -12.5 67t-43.5 21v21q31 -3 62 -3
q104 0 174 14v-500q28 0 43 15l77 72q35 32 35 65q0 26 -22.5 44t-57.5 21v20q57 -3 120 -3q98 0 137 3v-20q-69 -19 -148 -98l-26 -26l159 -302q2 -4 9 -17zM514 1057q-55 -36 -104.5 -93t-82.5 -119h-18q-32 61 -81.5 118t-105.5 94l8 14q59 -10 116 -26.5t92 -33.5
q29 17 75 33.5t93 26.5z" />
    <glyph glyph-name="uni01EE" unicode="&#x1ee;" horiz-adv-x="607" 
d="M536.5 303.5q39.5 -43.5 39.5 -103.5q0 -57 -35 -106t-102.5 -78.5t-159.5 -29.5q-55 0 -99 10.5t-72 26.5q-22 14 -33 14q-10 0 -15 -10.5t-8 -33.5h-23q4 68 4 290h23q6 -116 52 -191.5t134 -75.5q74 0 111.5 52t37.5 124q0 79 -46.5 126.5t-134.5 61.5v20l130 285h-50
q-47 0 -94 -20.5t-83 -69t-47 -127.5h-23q3 26 3 70q0 76 -7 170q62 -3 209 -3q216 0 313 3v-20l-140 -308q76 -33 115.5 -76.5zM529 931q-64 -30 -121.5 -76.5t-95.5 -95.5h-18q-36 48 -94 94.5t-123 77.5l5 15q68 -10 135 -27t106 -34q33 17 89 34t112 27z" />
    <glyph glyph-name="uni01EF" unicode="&#x1ef;" horiz-adv-x="462" 
d="M213.5 175q35.5 -30 35.5 -98q0 -76 -40 -128.5t-101 -78.5t-124 -30v-21q108 0 212 31t171 88.5t67 130.5q0 52 -35.5 88.5t-99.5 53.5l138 312q-112 -5 -219 -5q-106 0 -189 4q4 -60 4 -210h20q8 102 55 146.5t112 44.5h20l-132 -298q70 0 105.5 -30zM428 818
q-55 -36 -104.5 -93t-82.5 -119h-18q-32 61 -81.5 118t-105.5 94l8 14q59 -10 116 -26.5t92 -33.5q29 17 75 33.5t93 26.5z" />
    <glyph glyph-name="uni01F4" unicode="&#x1f4;" horiz-adv-x="756" 
d="M534 705q46 -17 84 -48q11 -9 20 -9q10 0 16 14.5t9 45.5h23q-4 -71 -4 -250h-23q-7 79 -26 125t-66 78q-21 14 -48.5 22t-54.5 8q-72 0 -116.5 -50.5t-63 -127.5t-18.5 -161q0 -174 42.5 -260t118.5 -86q31 0 49 12q21 15 21 50v100q0 50 -8 73.5t-28.5 32t-64.5 10.5
v20q68 -3 191 -3q103 0 154 3v-20q-18 -2 -26.5 -8t-11.5 -23t-3 -55v-198h-20q-1 21 -9 39t-22 18q-21 0 -68 -23q-100 -48 -169 -48q-186 0 -281 94t-95 268q0 110 49.5 195t137.5 132t201 47q64 0 110 -17zM511 946q19 0 36.5 -10t26.5 -28q6 -12 6 -26q0 -18 -10 -34
t-28 -25q-16 -8 -33 -12t-46 -9q-71 -11 -134 -30l-7 12q52 44 96 99q21 24 33 36t29 20q16 7 31 7z" />
    <glyph glyph-name="uni01F5" unicode="&#x1f5;" horiz-adv-x="570" 
d="M479.5 432.5q-15.5 14.5 -15.5 40.5q0 24 14 52q-44 -18 -65 -51q37 -39 37 -101q0 -79 -58.5 -119.5t-156.5 -40.5q-19 0 -28 1q-26 -18 -26 -42q0 -32 36 -32h97q102 0 159.5 -34.5t57.5 -107.5q0 -52 -33.5 -94t-103 -67t-173.5 -25q-103 0 -162 23t-59 65q0 29 29 53
t88 38l10 -16q-27 -33 -27 -64q0 -39 35.5 -60.5t99.5 -21.5q66 0 101.5 26.5t35.5 70.5q0 31 -23.5 49.5t-82.5 18.5h-54q-68 0 -104 26t-36 70q0 40 28.5 70t82.5 56q-76 10 -119.5 49.5t-43.5 107.5q0 79 58.5 119.5t156.5 40.5q105 0 162 -44q19 26 46 41t57 15
q33 0 51 -18.5t18 -47.5q0 -28 -15 -44.5t-38 -16.5q-21 0 -36.5 14.5zM265.5 263.5q10.5 32.5 10.5 109.5t-10.5 109.5t-30.5 32.5t-30.5 -32.5t-10.5 -109.5t10.5 -109.5t30.5 -32.5t30.5 32.5zM387 775q0 -26 -17 -46q-9 -11 -22.5 -21.5t-24.5 -17.5t-17 -11
q-32 -20 -56.5 -37t-55.5 -43l-11 9q18 36 27.5 62t22.5 66q9 30 16 46t19 30q9 11 23.5 17.5t30.5 6.5q25 0 44 -16q21 -16 21 -45z" />
    <glyph glyph-name="Oslashacute" unicode="&#x1fe;" horiz-adv-x="827" 
d="M518 811q-17 -4 -46 -9q-71 -11 -134 -30l-7 12q52 44 96 99q21 24 33 36t29 20q16 7 31 7q19 0 36.5 -10t26.5 -28q6 -12 6 -26q0 -18 -10 -34t-28 -25q-16 -8 -33 -12zM748.5 546.5q42.5 -79.5 42.5 -186.5q0 -110 -48 -195t-134 -132t-196 -47q-120 0 -208 48
l-85 -117l-21 14l84 116q-71 47 -109 123t-38 178q0 110 48 195t134 132t196 47q108 0 193 -40l69 101l19 -13l-67 -99q78 -45 120.5 -124.5zM323.5 659.5q-37.5 -44.5 -57.5 -124.5t-20 -183q0 -107 26 -193l268 430q-23 55 -57 85t-73 30q-49 0 -86.5 -44.5zM503.5 48.5
q37.5 44.5 57.5 124.5t20 183q0 119 -30 206l-269 -433q24 -60 59 -92.5t76 -32.5q49 0 86.5 44.5z" />
    <glyph glyph-name="oslashacute" unicode="&#x1ff;" horiz-adv-x="576" 
d="M380.5 707.5q-13.5 -10.5 -24.5 -17.5t-17 -11q-32 -20 -56.5 -37t-55.5 -43l-11 9q18 36 27.5 62t22.5 66q9 30 16 46t19 30q9 11 23.5 17.5t30.5 6.5q25 0 44 -16q21 -16 21 -45q0 -26 -17 -46q-9 -11 -22.5 -21.5zM545 259q0 -145 -67 -209t-190 -64q-90 0 -148 32
l-64 -91l-19 13l63 91q-89 65 -89 228q0 145 67 209.5t190 64.5q91 0 148 -33l64 92l19 -13l-63 -91q89 -67 89 -229zM237 450q-19 -63 -19 -191q0 -53 3 -94l129 230q-8 60 -24 89t-38 29q-32 0 -51 -63zM339 68.5q19 62.5 19 190.5q0 59 -4 96l-128 -231q8 -60 24 -89
t38 -29q32 0 51 62.5z" />
    <glyph glyph-name="Scommaaccent" unicode="&#x218;" horiz-adv-x="613" 
d="M394.5 711.5q35.5 -10.5 69.5 -29.5q11 -6 19.5 -10t14.5 -4q9 0 14 10.5t8 33.5h23q-5 -72 -5 -244h-23q-4 57 -26 109t-60 85t-88 33q-46 0 -74 -24.5t-28 -68.5q0 -34 15 -59t44 -48.5t95 -69.5q6 -3 11.5 -7t10.5 -8q55 -38 88 -67.5t53.5 -68.5t20.5 -90
q0 -65 -36.5 -109.5t-98.5 -66.5t-137 -22q-61 0 -101.5 10t-75.5 27q-22 14 -34 14q-9 0 -14 -10.5t-8 -33.5h-23q4 68 4 290h23q7 -119 50 -193t132 -74q55 0 87.5 26t32.5 72q0 57 -35.5 97.5t-110.5 90.5q-60 40 -96 70t-59 69.5t-23 91.5q0 63 34 105.5t90.5 63
t123.5 20.5q57 0 92.5 -10.5zM377 -66.5q26 -21.5 26 -60.5q0 -52 -35 -84t-100 -33l-2 22q43 5 64.5 16.5t27.5 33.5q-17 -15 -53 -15q-40 0 -62 17.5t-22 51.5q0 35 23 54t66 19q41 0 67 -21.5z" />
    <glyph glyph-name="scommaaccent" unicode="&#x219;" horiz-adv-x="472" 
d="M304.5 524.5q34.5 -8.5 52.5 -18.5q11 -6 18 -6q21 0 25 32h20q-4 -52 -4 -180h-20q-8 66 -37.5 111.5t-85.5 45.5q-25 0 -42 -15t-17 -41q0 -33 22 -58.5t69 -62.5q2 -1 29 -23q56 -46 82 -81.5t26 -87.5q0 -44 -27 -79.5t-73.5 -55t-101.5 -19.5q-63 0 -103 25
q-17 9 -28 13t-22 4q-19 0 -28 -35h-20q4 57 4 200h20q9 -82 44 -132t88 -50q25 0 41.5 14t16.5 41q0 28 -11.5 50t-28 39.5t-53.5 50.5q-42 39 -64 62t-37.5 53.5t-15.5 67.5q0 43 26 76t69 50.5t93 17.5q39 0 73.5 -8.5zM301 -66.5q26 -21.5 26 -60.5q0 -52 -35 -84
t-100 -33l-2 22q43 5 64.5 16.5t27.5 33.5q-17 -15 -53 -15q-40 0 -62 17.5t-22 51.5q0 35 23 54t66 19q41 0 67 -21.5z" />
    <glyph glyph-name="uni021A" unicode="&#x21a;" horiz-adv-x="699" 
d="M669 510q0 -46 3 -72h-23q-33 131 -85 189t-112 58h-1v-572q0 -42 8.5 -61t31 -25.5t71.5 -6.5v-20q-141 3 -219 3q-71 0 -206 -3v20q49 0 71.5 6.5t31 25.5t8.5 61v572h-1q-61 0 -112.5 -57.5t-84.5 -189.5h-23q3 26 3 72q0 87 -7 198q95 -3 327 -3q231 0 326 3
q-7 -111 -7 -198zM411 -66.5q26 -21.5 26 -60.5q0 -52 -35 -84t-100 -33l-2 22q43 5 64.5 16.5t27.5 33.5q-17 -15 -53 -15q-40 0 -62 17.5t-22 51.5q0 35 23 54t66 19q41 0 67 -21.5z" />
    <glyph glyph-name="uni021B" unicode="&#x21b;" horiz-adv-x="350" 
d="M252 519h98v-20h-98v-415q0 -20 7 -28t23 -8q12 0 27 7t27 22l15 -12q-46 -79 -142 -79q-69 0 -103 34q-21 21 -27.5 52t-6.5 87v340h-76v20h76v118q54 0 97.5 10.5t82.5 33.5v-162zM281 -66.5q26 -21.5 26 -60.5q0 -52 -35 -84t-100 -33l-2 22q43 5 64.5 16.5t27.5 33.5
q-17 -15 -53 -15q-40 0 -62 17.5t-22 51.5q0 35 23 54t66 19q41 0 67 -21.5z" />
    <glyph glyph-name="uni021E" unicode="&#x21e;" horiz-adv-x="829" 
d="M754.5 680q-14.5 -6 -19.5 -23t-5 -55v-496q0 -38 5.5 -55t19.5 -23t46 -8v-20q-54 3 -168 3q-115 0 -177 -3v20q32 2 46.5 8t19.5 23t5 55v240h-225v-240q0 -38 5.5 -55t19.5 -23t46 -8v-20q-58 3 -167 3q-121 0 -178 -3v20q32 2 46.5 8t19.5 23t5 55v496q0 38 -5.5 55
t-19.5 23t-46 8v20q57 -3 178 -3q108 0 167 3v-20q-32 -2 -46.5 -8t-19.5 -23t-5 -55v-236h225v236q0 38 -5.5 55t-19.5 23t-46 8v20q62 -3 177 -3q114 0 168 3v-20q-32 -2 -46.5 -8zM640 931q-64 -30 -121.5 -76.5t-95.5 -95.5h-18q-36 48 -94 94.5t-123 77.5l5 15
q68 -10 135 -27t106 -34q33 17 89 34t112 27z" />
    <glyph glyph-name="uni021F" unicode="&#x21f;" horiz-adv-x="622" 
d="M254 458q45 75 159 75q80 0 113 -40q15 -18 22 -48.5t7 -80.5v-271q0 -41 12.5 -56.5t43.5 -15.5v-21q-108 4 -140 4q-34 0 -142 -4v21q26 0 36 15.5t10 56.5v325q0 32 -11.5 47.5t-37.5 15.5q-29 0 -50.5 -20.5t-21.5 -51.5v-316q0 -41 10 -56.5t36 -15.5v-21
q-100 4 -132 4q-34 0 -150 -4v21q31 0 43.5 15.5t12.5 56.5v569q0 46 -12.5 67t-43.5 21v21q31 -3 62 -3q104 0 174 14v-324zM490 1057q-55 -36 -104.5 -93t-82.5 -119h-18q-32 61 -81.5 118t-105.5 94l8 14q59 -10 116 -26.5t92 -33.5q29 17 75 33.5t93 26.5z" />
    <glyph glyph-name="uni0237" unicode="&#x237;" horiz-adv-x="317" 
d="M-21 -168q43 0 69 30.5t26 95.5v452q0 46 -12.5 67t-43.5 21v21q31 -3 62 -3q104 0 174 14v-450q0 -88 -16 -136t-55 -82q-59 -50 -204 -50v20z" />
    <glyph glyph-name="uni0259" unicode="&#x259;" horiz-adv-x="503" 
d="M409 468q63 -65 63 -208q0 -137 -70.5 -205.5t-186.5 -68.5q-189 0 -189 224h258q1 12 1 36q0 96 -33.5 137t-81.5 41q-73 0 -121 -67l-17 6q22 70 74.5 120t134.5 50q105 0 168 -65zM288 191h-116q-1 -80 11.5 -131t38.5 -51q56 0 66 182z" />
    <glyph glyph-name="uni0292" unicode="&#x292;" horiz-adv-x="462" 
d="M213.5 175q35.5 -30 35.5 -98q0 -76 -40 -128.5t-101 -78.5t-124 -30v-21q108 0 212 31t171 88.5t67 130.5q0 52 -35.5 88.5t-99.5 53.5l138 312q-112 -5 -219 -5q-106 0 -189 4q4 -60 4 -210h20q8 102 55 146.5t112 44.5h20l-132 -298q70 0 105.5 -30z" />
    <glyph glyph-name="uni02BC" unicode="&#x2bc;" horiz-adv-x="258" 
d="M199 685q11 -15 18 -40t7 -55q0 -52 -27 -96t-79 -68l-9 18q26 12 46.5 34.5t28.5 47.5q5 14 5 33q0 15 -2 22q-26 -31 -73 -31q-40 0 -64 22.5t-24 63.5q0 39 26 62.5t68 23.5q54 0 79 -37z" />
    <glyph glyph-name="circumflex" unicode="&#x2c6;" horiz-adv-x="492" 
d="M336.5 714q49.5 -57 105.5 -94l-8 -14q-59 10 -116 26.5t-92 33.5q-29 -17 -75 -33.5t-93 -26.5l-8 14q55 36 104.5 93t82.5 119h18q32 -61 81.5 -118z" />
    <glyph glyph-name="caron" unicode="&#x2c7;" horiz-adv-x="492" 
d="M442 818q-55 -36 -104.5 -93t-82.5 -119h-18q-32 61 -81.5 118t-105.5 94l8 14q59 -10 116 -26.5t92 -33.5q29 17 75 33.5t93 26.5z" />
    <glyph glyph-name="breve" unicode="&#x2d8;" horiz-adv-x="600" 
d="M413 779q-20 -70 -68 -118t-131 -48t-131 48t-68 118l17 9q69 -56 182 -56t182 56z" />
    <glyph glyph-name="dotaccent" unicode="&#x2d9;" horiz-adv-x="600" 
d="M179.5 760q28.5 -22 28.5 -64t-28.5 -64t-80.5 -22q-53 0 -81 22t-28 64t28 64t81 22q52 0 80.5 -22z" />
    <glyph glyph-name="ring" unicode="&#x2da;" horiz-adv-x="600" 
d="M213.5 773q34.5 -28 34.5 -73q0 -46 -34.5 -74t-82.5 -28t-82 28t-34 74q0 45 34 73t82 28t82.5 -28zM70 758q-27 -22 -27 -59q0 -38 26.5 -59t61.5 -21t62 21t27 59q0 37 -27 59t-62 22q-34 0 -61 -22z" />
    <glyph glyph-name="ogonek" unicode="&#x2db;" horiz-adv-x="600" 
d="M186 -4q-36 -18 -52 -41t-16 -45q0 -38 40 -38q17 0 36 6.5t30 16.5l13 -15q-29 -36 -65 -52t-88 -16q-48 0 -73.5 18.5t-25.5 52.5q0 43 46.5 73.5t131.5 46.5l48 10q-6 -8 -25 -17z" />
    <glyph glyph-name="tilde" unicode="&#x2dc;" horiz-adv-x="600" 
d="M186.5 789q21.5 -9 48.5 -27q25 -15 41.5 -22.5t38.5 -7.5q45 0 77 53l14 -7q-16 -83 -50.5 -123t-77.5 -40q-31 0 -52 9t-50 27q-23 16 -40.5 23.5t-39.5 7.5q-44 0 -77 -54l-14 7q16 83 50.5 123t78.5 40q31 0 52.5 -9z" />
    <glyph glyph-name="hungarumlaut" unicode="&#x2dd;" horiz-adv-x="600" 
d="M210 767q0 -19 -13 -40q-8 -13 -20.5 -24.5t-37.5 -30.5q-45 -35 -85 -74l-13 6q16 54 24 116q1 6 4.5 24.5t7 31t9.5 21.5q9 15 24.5 23.5t32.5 8.5q21 0 39 -12q28 -20 28 -50zM387 767q0 -19 -13 -40q-8 -13 -20.5 -24.5t-37.5 -30.5q-45 -35 -85 -74l-13 6
q16 54 24 116q1 6 4.5 24.5t7 31t9.5 21.5q9 15 24.5 23.5t32.5 8.5q21 0 39 -12q28 -20 28 -50z" />
    <glyph glyph-name="gravecomb" unicode="&#x300;" 
d="M-160 836q16 0 31 -6.5t24 -17.5q12 -14 19 -30t16 -46q13 -40 22.5 -66t27.5 -62l-11 -9q-31 26 -55.5 43t-56.5 37l-21 14t-25.5 18.5t-17.5 17.5q-17 20 -17 45q0 28 21 46q19 16 43 16z" />
    <glyph glyph-name="acutecomb" unicode="&#x301;" 
d="M1 775q0 -26 -17 -46q-9 -11 -22.5 -21.5t-24.5 -17.5t-17 -11q-32 -20 -56.5 -37t-55.5 -43l-11 9q18 36 27.5 62t22.5 66q9 30 16 46t19 30q9 11 23.5 17.5t30.5 6.5q25 0 44 -16q21 -16 21 -45z" />
    <glyph glyph-name="uni0302" unicode="&#x302;" 
d="M-110.5 714q49.5 -57 105.5 -94l-8 -14q-59 10 -116 26.5t-92 33.5q-29 -17 -75 -33.5t-93 -26.5l-8 14q55 36 104.5 93t82.5 119h18q32 -61 81.5 -118z" />
    <glyph glyph-name="tildecomb" unicode="&#x303;" 
d="M-224.5 789q21.5 -9 48.5 -27q25 -15 41.5 -22.5t38.5 -7.5q45 0 77 53l14 -7q-16 -83 -50.5 -123t-77.5 -40q-31 0 -52 9t-50 27q-23 16 -40.5 23.5t-39.5 7.5q-44 0 -77 -54l-14 7q16 83 50.5 123t78.5 40q31 0 52.5 -9z" />
    <glyph glyph-name="uni0304" unicode="&#x304;" 
d="M-5 687h-352v25h352v-25z" />
    <glyph glyph-name="uni0306" unicode="&#x306;" 
d="M-15 779q-20 -70 -68 -118t-131 -48t-131 48t-68 118l17 9q69 -56 182 -56t182 56z" />
    <glyph glyph-name="uni0307" unicode="&#x307;" 
d="M-18.5 760q28.5 -22 28.5 -64t-28.5 -64t-80.5 -22q-53 0 -81 22t-28 64t28 64t81 22q52 0 80.5 -22z" />
    <glyph glyph-name="uni0308" unicode="&#x308;" 
d="M-253.5 746q26.5 -26 26.5 -61q0 -36 -26 -61.5t-61 -25.5q-36 0 -61.5 25.5t-25.5 61.5q0 35 25.5 61t61.5 26q34 0 60.5 -26zM-15.5 746q26.5 -26 26.5 -61q0 -36 -26 -61.5t-61 -25.5q-36 0 -61.5 25.5t-25.5 61.5q0 35 25.5 61t61.5 26q34 0 60.5 -26z" />
    <glyph glyph-name="hookabovecomb" unicode="&#x309;" 
d="M-220 655q40 19 58 40.5t18 51.5q0 35 -20 53t-53 18q-14 0 -28 -3t-19 -6q55 -18 55 -61q0 -26 -17.5 -41.5t-43.5 -15.5q-27 0 -43 16t-16 42q0 41 41 66q39 23 103 23q68 0 109 -23.5t41 -62.5q0 -40 -45 -66.5t-120 -39.5v-46h-20v55z" />
    <glyph glyph-name="uni030A" unicode="&#x30a;" 
d="M-49.5 773q34.5 -28 34.5 -73q0 -46 -34.5 -74t-82.5 -28t-82 28t-34 74q0 45 34 73t82 28t82.5 -28zM-193 758q-27 -22 -27 -59q0 -38 26.5 -59t61.5 -21t62 21t27 59q0 37 -27 59t-62 22q-34 0 -61 -22z" />
    <glyph glyph-name="uni030B" unicode="&#x30b;" 
d="M-201 767q0 -19 -13 -40q-8 -13 -20.5 -24.5t-37.5 -30.5q-45 -35 -85 -74l-13 6q16 54 24 116q1 6 4.5 24.5t7 31t9.5 21.5q9 15 24.5 23.5t32.5 8.5q21 0 39 -12q28 -20 28 -50zM-24 767q0 -19 -13 -40q-8 -13 -20.5 -24.5t-37.5 -30.5q-45 -35 -85 -74l-13 6
q16 54 24 116q1 6 4.5 24.5t7 31t9.5 21.5q9 15 24.5 23.5t32.5 8.5q21 0 39 -12q28 -20 28 -50z" />
    <glyph glyph-name="uni030C" unicode="&#x30c;" 
d="M-5 818q-55 -36 -104.5 -93t-82.5 -119h-18q-32 61 -81.5 118t-105.5 94l8 14q59 -10 116 -26.5t92 -33.5q29 17 75 33.5t93 26.5z" />
    <glyph glyph-name="dotbelowcomb" unicode="&#x323;" 
d="M-163 -173q-22 18 -22 54q0 35 22.5 54.5t65.5 19.5q41 0 63 -18t22 -54q0 -35 -22.5 -54.5t-65.5 -19.5q-41 0 -63 18z" />
    <glyph glyph-name="uni0326" unicode="&#x326;" 
d="M-39 -66.5q26 -21.5 26 -60.5q0 -52 -35 -84t-100 -33l-2 22q43 5 64.5 16.5t27.5 33.5q-17 -15 -53 -15q-40 0 -62 17.5t-22 51.5q0 35 23 54t66 19q41 0 67 -21.5z" />
    <glyph glyph-name="uni0327" unicode="&#x327;" 
d="M-145 -60q36 15 79 15q36 0 55 -16t19 -42q0 -42 -43.5 -63.5t-114.5 -21.5q-54 0 -90 13l6 18q22 -5 48 -5q25 0 43.5 9.5t18.5 28.5q0 25 -28 25q-20 0 -33 -7l30 106h27z" />
    <glyph glyph-name="uni0328" unicode="&#x328;" 
d="M-56 -4q-36 -18 -52 -41t-16 -45q0 -38 40 -38q17 0 36 6.5t30 16.5l13 -15q-29 -36 -65 -52t-88 -16q-48 0 -73.5 18.5t-25.5 52.5q0 43 46.5 73.5t131.5 46.5l48 10q-6 -8 -25 -17z" />
    <glyph glyph-name="uni0335" unicode="&#x335;" 
d="M-20 608h-404v20h404v-20z" />
    <glyph glyph-name="uni0337" unicode="&#x337;" 
d="M-55 579l-92 -133l-15 20l88 126zM-169 446l-213 -383l-16 21l214 382zM-410 53l-88 -126l-19 13l92 133z" />
    <glyph glyph-name="uni0338" unicode="&#x338;" 
d="M-132 770l-101 -150l-15 20l97 143zM-240 620l-338 -545l-18 18l341 547zM-593 75l-114 -158l-21 14l117 162z" />
    <glyph glyph-name="uni0394" unicode="&#x394;" horiz-adv-x="498" 
d="M468 0q-109 3 -220 3t-222 -3l233 722h16zM56 30h232l-107 392z" />
    <glyph glyph-name="uni03A9" unicode="&#x3a9;" horiz-adv-x="786" 
d="M642.5 656q88.5 -66 88.5 -184q0 -56 -20 -105t-49.5 -89.5t-82.5 -100.5q-42 -49 -68.5 -82.5t-51.5 -71.5h57q70 0 116.5 43.5t67.5 143.5h23q-3 -28 -3 -72q0 -61 7 -138q-44 3 -149 3q-22 0 -80 -2l-64 -1v16q40 79 73.5 193t33.5 243q0 124 -34.5 188t-113.5 64
t-113.5 -64t-34.5 -188q0 -129 33.5 -243t73.5 -193v-16l-64 1q-58 2 -80 2q-105 0 -149 -3q7 77 7 138q0 44 -3 72h23q21 -100 67.5 -143.5t116.5 -43.5h57q-25 38 -51.5 71.5t-68.5 82.5q-53 60 -82.5 100.5t-49.5 89.5t-20 105q0 118 88.5 184t249.5 66t249.5 -66z" />
    <glyph glyph-name="uni03BC" unicode="&#x3bc;" horiz-adv-x="724" 
d="M692 270q-8 -54 -28.5 -119.5t-54.5 -115t-77 -49.5q-63 0 -63 89q0 23 3 45l4 49q-27 -78 -68 -130.5t-97 -52.5q-34 0 -53 37.5t-23 88.5q-8 -133 -13.5 -176.5t-20.5 -67.5q-14 -24 -42.5 -40t-64.5 -16q-31 0 -50.5 17t-19.5 46q0 32 21 57.5t63 58.5q46 37 79.5 93
t51.5 160q-11 62 -34 132q-8 21 -11 33.5t-3 25.5q0 51 32 72.5t73 21.5q34 0 57 -16.5t23 -47.5q0 -22 -9 -37.5t-29 -39.5q-29 -34 -49 -67.5t-35 -88.5q16 -49 74 -49q56 0 94 21t63 70q-7 54 -24 121q-8 29 -8 40q0 51 29 72.5t66 21.5q39 0 64.5 -16.5t25.5 -49.5
q0 -4 -2 -16q-3 -15 -12.5 -26.5t-29.5 -30.5q-31 -28 -52.5 -55t-37.5 -72q-2 -16 -2 -23q0 -57 57 -57q41 0 68 21t46 70z" />
    <glyph glyph-name="pi" unicode="&#x3c0;" horiz-adv-x="599" 
d="M366 258q-1 -6 -1 -17q0 -58 50 -58q41 0 68 21t46 70l19 -4q-16 -102 -52 -193t-98 -91q-36 0 -54 24.5t-18 82.5q0 45 12 117l23 134h-84q-18 -215 -72 -302q-36 -56 -108 -56q-30 0 -49.5 16t-19.5 43q0 38 22.5 59t73.5 43q53 23 76.5 40t37 51t22.5 106h-47
q-66 0 -103 -17.5t-64 -69.5l-17 4q28 129 84.5 193t169.5 64h288v-174h-190z" />
    <glyph glyph-name="uni0400" unicode="&#x400;" horiz-adv-x="650" 
d="M607 0q-68 3 -229 3q-234 0 -350 -3v20q32 2 46.5 8t19.5 23t5 55v496q0 38 -5.5 55t-19.5 23t-46 8v20q116 -3 350 -3q147 0 209 3q-7 -94 -7 -168q0 -46 3 -72h-23q-18 116 -67 166.5t-117 50.5h-13q-27 0 -39.5 -4.5t-17 -17t-4.5 -41.5v-256h10q52 0 89 41t47 91h23
q-3 -42 -3 -94v-48q0 -51 6 -142h-23q-9 57 -46.5 94.5t-92.5 37.5h-10v-260q0 -29 4.5 -41.5t17 -17t39.5 -4.5h33q58 0 110 56.5t74 180.5h23q-3 -36 -3 -92q0 -102 7 -168zM263 919q12 -12 33 -36q44 -55 96 -99l-7 -12q-63 19 -134 30q-29 5 -46 9t-33 12q-18 9 -28 25
t-10 34q0 14 6 26q9 18 26.5 28t36.5 10q15 0 31 -7q17 -8 29 -20z" />
    <glyph glyph-name="uni0401" unicode="&#x401;" horiz-adv-x="650" 
d="M607 0q-68 3 -229 3q-234 0 -350 -3v20q32 2 46.5 8t19.5 23t5 55v496q0 38 -5.5 55t-19.5 23t-46 8v20q116 -3 350 -3q147 0 209 3q-7 -94 -7 -168q0 -46 3 -72h-23q-18 116 -67 166.5t-117 50.5h-13q-27 0 -39.5 -4.5t-17 -17t-4.5 -41.5v-256h10q52 0 89 41t47 91h23
q-3 -42 -3 -94v-48q0 -51 6 -142h-23q-9 57 -46.5 94.5t-92.5 37.5h-10v-260q0 -29 4.5 -41.5t17 -17t39.5 -4.5h33q58 0 110 56.5t74 180.5h23q-3 -36 -3 -92q0 -102 7 -168zM251.5 910q26.5 -26 26.5 -61q0 -36 -26 -61.5t-61 -25.5q-36 0 -61.5 25.5t-25.5 61.5
q0 35 25.5 61t61.5 26q34 0 60.5 -26zM509.5 910q26.5 -26 26.5 -61q0 -36 -26 -61.5t-61 -25.5q-36 0 -61.5 25.5t-25.5 61.5q0 35 25.5 61t61.5 26q34 0 60.5 -26z" />
    <glyph glyph-name="uni0402" unicode="&#x402;" horiz-adv-x="982" 
d="M833 391q63 -25 99.5 -74.5t36.5 -121.5q0 -68 -36.5 -115t-99 -70.5t-139.5 -23.5q-50 0 -94.5 16t-72.5 48t-28 78t31.5 72.5t76.5 26.5q43 0 68 -24.5t25 -67.5t-26 -70.5t-73 -40.5q32 -13 64 -13q51 0 83 46t32 137q0 190 -156 190q-50 0 -99.5 -16.5t-73.5 -40.5
v-338q-62 14 -154 14q-84 0 -160 -3v20q49 0 71.5 6.5t31 25.5t8.5 61v572h-1q-61 0 -112.5 -57.5t-84.5 -189.5h-23q3 26 3 72q0 87 -7 198q95 -3 327 -3q231 0 326 3q-7 -99 -7 -178q0 -46 3 -72h-23q-35 106 -88.5 166.5t-108.5 60.5h-1v-337q42 31 102 49.5t138 18.5
q79 0 142 -25z" />
    <glyph glyph-name="uni0403" unicode="&#x403;" horiz-adv-x="602" 
d="M580 540q0 -46 3 -72h-23q-24 116 -73.5 166.5t-110.5 50.5h-13q-27 0 -39.5 -4.5t-17 -17t-4.5 -41.5v-516q0 -38 6 -55t22.5 -23t52.5 -8v-20q-61 3 -177 3q-121 0 -178 -3v20q32 2 46 8t19.5 23t5.5 55v496q0 38 -5 55t-19.5 23t-46.5 8v20q116 -3 350 -3q147 0 209 3
q-7 -94 -7 -168zM396 946q19 0 36.5 -10t26.5 -28q6 -12 6 -26q0 -18 -10 -34t-28 -25q-16 -8 -33 -12t-46 -9q-71 -11 -134 -30l-7 12q52 44 96 99q21 24 33 36t29 20q16 7 31 7z" />
    <glyph glyph-name="uni0404" unicode="&#x404;" horiz-adv-x="719" 
d="M662 260q0 -187 4 -260h-23q-3 32 -8.5 45.5t-15.5 13.5q-8 0 -21 -8q-45 -32 -86 -48.5t-99 -16.5q-113 0 -198 43t-132 124.5t-47 194.5q0 110 48 195t134 132t196 47q60 0 102 -17t82 -48q10 -9 19 -9q20 0 26 60h23q-4 -55 -4 -190h-23q-15 55 -32.5 84t-59.5 59
q-43 30 -93 30q-104 0 -146 -100t-42 -239q0 -33 1 -50q16 73 48 112t67 39q21 0 38.5 -9t42.5 -26q21 -15 36.5 -23t31.5 -8q17 0 35 15t25 49l17 -3q-12 -96 -42 -146.5t-70 -50.5q-21 0 -38.5 8.5t-39.5 25.5q-24 16 -39 24t-34 8q-22 0 -42 -12.5t-33 -36.5
q11 -111 54.5 -183t129.5 -72q46 0 93 30q47 29 66 78t26 139h23z" />
    <glyph glyph-name="uni0405" unicode="&#x405;" horiz-adv-x="613" 
d="M394.5 711.5q35.5 -10.5 69.5 -29.5q11 -6 19.5 -10t14.5 -4q9 0 14 10.5t8 33.5h23q-5 -72 -5 -244h-23q-4 57 -26 109t-60 85t-88 33q-46 0 -74 -24.5t-28 -68.5q0 -34 15 -59t44 -48.5t95 -69.5q6 -3 11.5 -7t10.5 -8q55 -38 88 -67.5t53.5 -68.5t20.5 -90
q0 -65 -36.5 -109.5t-98.5 -66.5t-137 -22q-61 0 -101.5 10t-75.5 27q-22 14 -34 14q-9 0 -14 -10.5t-8 -33.5h-23q4 68 4 290h23q7 -119 50 -193t132 -74q55 0 87.5 26t32.5 72q0 57 -35.5 97.5t-110.5 90.5q-60 40 -96 70t-59 69.5t-23 91.5q0 63 34 105.5t90.5 63
t123.5 20.5q57 0 92.5 -10.5z" />
    <glyph glyph-name="uni0406" unicode="&#x406;" horiz-adv-x="401" 
d="M373 688q-32 -2 -46.5 -8t-19.5 -23t-5 -55v-496q0 -38 5.5 -55t19.5 -23t46 -8v-20q-58 3 -167 3q-121 0 -178 -3v20q32 2 46.5 8t19.5 23t5 55v496q0 38 -5.5 55t-19.5 23t-46 8v20q57 -3 178 -3q108 0 167 3v-20z" />
    <glyph glyph-name="uni0407" unicode="&#x407;" horiz-adv-x="401" 
d="M373 688q-32 -2 -46.5 -8t-19.5 -23t-5 -55v-496q0 -38 5.5 -55t19.5 -23t46 -8v-20q-58 3 -167 3q-121 0 -178 -3v20q32 2 46.5 8t19.5 23t5 55v496q0 38 -5.5 55t-19.5 23t-46 8v20q57 -3 178 -3q108 0 167 3v-20zM137.5 910q26.5 -26 26.5 -61q0 -36 -26 -61.5
t-61 -25.5q-36 0 -61.5 25.5t-25.5 61.5q0 35 25.5 61t61.5 26q34 0 60.5 -26zM395.5 910q26.5 -26 26.5 -61q0 -36 -26 -61.5t-61 -25.5q-36 0 -61.5 25.5t-25.5 61.5q0 35 25.5 61t61.5 26q34 0 60.5 -26z" />
    <glyph glyph-name="uni0408" unicode="&#x408;" horiz-adv-x="390" 
d="M-25 -167q40 6 65.5 25t39.5 66t14 131v547q0 38 -5.5 55t-19.5 23t-46 8v20q54 -3 167 -3q117 0 178 3v-20q-32 -2 -46.5 -8t-19.5 -23t-5 -55v-366v-83q0 -58 -3.5 -102t-13.5 -76q-24 -73 -101 -118t-204 -45v21z" />
    <glyph glyph-name="uni0409" unicode="&#x409;" horiz-adv-x="1020" 
d="M927 63.5q-71 -59.5 -208 -63.5h-4h-17q-85 0 -128 3h-37q-117 0 -179 -3v20q36 2 52.5 8t22.5 23t6 55v496q0 52 -14 69t-47 17h-3q-27 0 -42 -18t-19 -68q-3 -28 -4.5 -54t-3.5 -49q-11 -160 -26.5 -262t-56.5 -176.5t-118 -74.5q-53 0 -87.5 31.5t-34.5 77.5
q0 47 32 76t80 29q41 0 65 -19.5t24 -54.5q0 -44 -29.5 -74.5t-74.5 -38.5q8 -8 25 -8q71 0 109 85t52 201.5t25 310.5q1 8 1 22q0 26 -7 39t-24 18t-51 7v20q42 -3 103 -3q15 0 45 2l43 1l67 -1q46 -2 76 -2q119 0 179 3v-20q-36 -2 -52.5 -8t-22.5 -23t-6 -55v-180h37
q177 0 250 -56t73 -147q0 -96 -71 -155.5zM770 69.5q18 44.5 18 133.5q0 94 -26 146.5t-97 52.5h-27v-296q0 -36 5.5 -53t20 -23.5t45.5 -8.5q43 4 61 48.5z" />
    <glyph glyph-name="uni040A" unicode="&#x40a;" horiz-adv-x="1106" 
d="M1016.5 54q-73.5 -52 -215.5 -54h-1h-10q-85 0 -129 3h-28q-115 0 -177 -3v20q32 2 46.5 8t19.5 23t5 55v240h-225v-240q0 -38 5.5 -55t19.5 -23t46 -8v-20q-58 3 -167 3q-121 0 -178 -3v20q32 2 46.5 8t19.5 23t5 55v496q0 38 -5.5 55t-19.5 23t-46 8v20q57 -3 178 -3
q108 0 167 3v-20q-32 -2 -46.5 -8t-19.5 -23t-5 -55v-236h225v236q0 38 -5.5 55t-19.5 23t-46 8v20q62 -3 177 -3q114 0 168 3v-20q-32 -2 -46.5 -8t-19.5 -23t-5 -55v-236h37q176 0 249.5 -49t73.5 -127q0 -84 -73.5 -136zM861 62q19 39 19 115q0 80 -28 124.5t-105 44.5
h-17v-240q0 -37 5 -54t18.5 -23.5t43.5 -8.5q45 3 64 42z" />
    <glyph glyph-name="uni040B" unicode="&#x40b;" horiz-adv-x="951" 
d="M880 51q5 -17 19.5 -23t46.5 -8v-20q-57 3 -174 3q-112 0 -171 -3v20q32 2 46 8t19.5 23t5.5 55v123q0 47 -6.5 70.5t-25 34t-56.5 10.5q-34 0 -70.5 -6.5t-62.5 -17.5v-207q0 -42 8.5 -61t31 -25.5t71.5 -6.5v-20q-141 3 -219 3q-71 0 -206 -3v20q49 0 71.5 6.5t31 25.5
t8.5 61v572h-1q-61 0 -112.5 -57.5t-84.5 -189.5h-23q3 26 3 72q0 87 -7 198q95 -3 327 -3q231 0 326 3q-7 -111 -7 -198q0 -46 3 -72h-23q-33 131 -85 189t-112 58h-1v-345q35 14 86 25t109 11q100 0 161 -35q38 -22 53 -55.5t15 -88.5v-91q0 -38 5 -55z" />
    <glyph glyph-name="uni040C" unicode="&#x40c;" horiz-adv-x="750" 
d="M539 946q19 0 36.5 -10t26.5 -28q6 -12 6 -26q0 -18 -10 -34t-28 -25q-16 -8 -33 -12t-46 -9q-71 -11 -134 -30l-7 12q52 44 96 99q21 24 33 36t29 20q16 7 31 7zM746 40q-30 -30 -66 -42t-84 -12q-70 0 -107.5 24.5t-46.5 83.5l-26 172q-9 53 -33.5 73.5t-80.5 23.5
v-257q0 -38 5.5 -55t19.5 -23t46 -8v-20q-58 3 -167 3q-121 0 -178 -3v20q32 2 46.5 8t19.5 23t5 55v496q0 38 -5.5 55t-19.5 23t-46 8v20q57 -3 178 -3q108 0 167 3v-20q-32 -2 -46.5 -8t-19.5 -23t-5 -55v-223q41 3 79 29t92 87l34 38q44 50 44 90q0 29 -23 46.5t-59 19.5
v19q84 -3 169 -3q61 0 101 3v-19q-84 -22 -164 -110l-183 -202q109 -7 165.5 -37t70.5 -96l29 -139q7 -37 17.5 -51t28.5 -14q17 0 30 13z" />
    <glyph glyph-name="uni040D" unicode="&#x40d;" horiz-adv-x="849" 
d="M775 680q-14 -6 -19.5 -23t-5.5 -55v-496q0 -38 5.5 -55t19.5 -23t46 -8v-20q-57 3 -178 3q-108 0 -167 -3v20q32 2 46 8t19.5 23t5.5 55v460l-245 -476q1 -29 7 -43.5t20.5 -19.5t43.5 -7v-20q-58 3 -167 3q-121 0 -178 -3v20q32 2 46 8t19.5 23t5.5 55v496
q0 38 -5.5 55t-19.5 23t-46 8v20q57 -3 178 -3q108 0 167 3v-20q-32 -2 -46 -8t-19.5 -23t-5.5 -55v-462l245 475q-1 31 -7 45.5t-20 20t-44 7.5v20q58 -3 167 -3q121 0 178 3v-20q-32 -2 -46 -8zM363 919q12 -12 33 -36q44 -55 96 -99l-7 -12q-63 19 -134 30q-29 5 -46 9
t-33 12q-18 9 -28 25t-10 34q0 14 6 26q9 18 26.5 28t36.5 10q15 0 31 -7q17 -8 29 -20z" />
    <glyph glyph-name="uni040E" unicode="&#x40e;" horiz-adv-x="668" 
d="M687 708v-20q-23 -11 -47.5 -42t-57.5 -91l-187 -378l-47 -95q-22 -45 -44 -67q-29 -29 -89 -29q-64 0 -101 28.5t-37 70.5t32.5 68.5t79.5 26.5q50 0 79.5 -19.5t29.5 -54.5q0 -36 -25.5 -60t-67.5 -35q6 -5 29 -5q30 0 52 19.5t41 58.5l21 43l-292 497q-35 58 -71 64
v20q41 -3 162 -3q128 0 173 3v-20q-39 -4 -39 -38q0 -21 12 -46l158 -269l65 130q46 93 46 147q0 73 -83 76v20q75 -3 131 -3q47 0 77 3zM573.5 925.5q27.5 -21.5 27.5 -52.5q0 -25 -18.5 -44.5t-49.5 -33.5q-32 -15 -81 -24t-108 -9t-108 9t-82 24q-30 13 -48 33t-18 45
q0 31 27 52.5t69 21.5t70 -21.5t28 -54.5q0 -28 -21 -47t-53 -27q64 -15 136 -15t135 16q-33 9 -52.5 27.5t-19.5 45.5q0 33 27.5 54.5t69.5 21.5t69.5 -21.5z" />
    <glyph glyph-name="uni040F" unicode="&#x40f;" horiz-adv-x="829" 
d="M755 680q-14 -6 -19.5 -23t-5.5 -55v-496q0 -38 5.5 -55t19.5 -23t46 -8v-20q-57 3 -178 3h-4q-73 0 -127.5 -45t-65.5 -143h-23q-11 98 -65.5 143t-127.5 45h-4q-121 0 -178 -3v20q32 2 46 8t19.5 23t5.5 55v496q0 38 -5.5 55t-19.5 23t-46 8v20q57 -3 178 -3
q108 0 167 3v-20q-32 -2 -46 -8t-19.5 -23t-5.5 -55v-496q0 -38 6 -55.5t23 -24t52 -6.5h63q35 0 52 6.5t23 24t6 55.5v496q0 38 -5.5 55t-19.5 23t-46 8v20q58 -3 167 -3q121 0 178 3v-20q-32 -2 -46 -8z" />
    <glyph glyph-name="uni0410" unicode="&#x410;" horiz-adv-x="692" 
d="M668.5 36.5q15.5 -15.5 30.5 -16.5v-20q-72 3 -182 3q-114 0 -168 -3v20q38 2 54 9.5t16 26.5q0 18 -12 48l-59 164h-202l-17 -45q-33 -85 -33 -130q0 -41 23 -56t68 -17v-20q-75 3 -131 3q-47 0 -77 -3v20q25 4 47 31t45 86l222 571q32 -2 53 -2q20 0 52 2l242 -624
q13 -32 28.5 -47.5zM341 288l-91 250l-96 -250h187z" />
    <glyph glyph-name="uni0411" unicode="&#x411;" horiz-adv-x="683" 
d="M588 360.5q74 -61.5 74 -151.5q0 -95 -76.5 -151.5t-223.5 -56.5q-28 0 -47 1l-121 1q-109 0 -166 -3v20q32 2 46 8t19.5 23t5.5 55v496q0 38 -5 55t-19.5 23t-46.5 8v20q116 -3 350 -3q147 0 209 3q-7 -94 -7 -168q0 -46 3 -72h-23q-24 116 -73.5 166.5t-110.5 50.5h-13
q-27 0 -39.5 -4.5t-17 -17t-4.5 -41.5v-200h37q175 0 249 -61.5zM429.5 64.5q22.5 44.5 22.5 138.5t-26 146.5t-97 52.5h-27v-296q0 -51 10 -68.5t41 -17.5q54 0 76.5 44.5z" />
    <glyph glyph-name="uni0412" unicode="&#x412;" horiz-adv-x="704" 
d="M562.5 340q63.5 -26 92.5 -64.5t29 -81.5q0 -98 -78 -146t-222 -48q-29 0 -49 1q-68 2 -133 2q-117 0 -174 -3v20q32 2 46.5 8t19.5 23t5 55v496q0 38 -5.5 55t-19.5 23t-46 8v20q57 -3 172 -3l115 1q20 1 46 1q132 0 201.5 -42.5t69.5 -114.5q0 -37 -26 -74.5t-78 -65.5
t-127 -37v-2q98 -5 161.5 -31zM321.5 681q-11.5 -7 -15.5 -25t-4 -54v-226h27q54 0 75.5 44.5t21.5 118.5q0 76 -16.5 112.5t-53.5 36.5q-23 0 -34.5 -7zM474 198q0 79 -38 120t-120 41h-14v-253q0 -36 5 -53t18.5 -23.5t41.5 -6.5q107 0 107 175z" />
    <glyph glyph-name="uni0413" unicode="&#x413;" horiz-adv-x="602" 
d="M580 540q0 -46 3 -72h-23q-24 116 -73.5 166.5t-110.5 50.5h-13q-27 0 -39.5 -4.5t-17 -17t-4.5 -41.5v-516q0 -38 6 -55t22.5 -23t52.5 -8v-20q-61 3 -177 3q-121 0 -178 -3v20q32 2 46 8t19.5 23t5.5 55v496q0 38 -5 55t-19.5 23t-46.5 8v20q116 -3 350 -3q147 0 209 3
q-7 -94 -7 -168z" />
    <glyph glyph-name="uni0414" unicode="&#x414;" horiz-adv-x="668" 
d="M650 -118q0 -42 3 -67h-23q-18 99 -70 142t-124 43h-214q-72 0 -124 -43t-70 -142h-23q3 25 3 67q0 61 -7 138h18q69 0 106.5 79t52 190t25.5 288l2 25q1 8 1 22q0 26 -7 39t-24 18t-51 7v20q42 -3 103 -3q15 0 45 2l43 1l67 -1q46 -2 76 -2q119 0 179 3v-20
q-36 -2 -52.5 -8t-22.5 -23t-6 -55v-496q0 -38 5.5 -55.5t20 -24t45.5 -6.5h30q-7 -77 -7 -138zM353 602q0 52 -14 69t-47 17h-13q-21 0 -34.5 -18.5t-16.5 -67.5l-8 -98q-9 -130 -20 -216.5t-38 -161.5t-76 -106h186q35 0 52 6.5t23 24t6 55.5v496z" />
    <glyph glyph-name="uni0415" unicode="&#x415;" horiz-adv-x="650" 
d="M607 0q-68 3 -229 3q-234 0 -350 -3v20q32 2 46.5 8t19.5 23t5 55v496q0 38 -5.5 55t-19.5 23t-46 8v20q116 -3 350 -3q147 0 209 3q-7 -94 -7 -168q0 -46 3 -72h-23q-18 116 -67 166.5t-117 50.5h-13q-27 0 -39.5 -4.5t-17 -17t-4.5 -41.5v-256h10q52 0 89 41t47 91h23
q-3 -42 -3 -94v-48q0 -51 6 -142h-23q-9 57 -46.5 94.5t-92.5 37.5h-10v-260q0 -29 4.5 -41.5t17 -17t39.5 -4.5h33q58 0 110 56.5t74 180.5h23q-3 -36 -3 -92q0 -102 7 -168z" />
    <glyph glyph-name="uni0416" unicode="&#x416;" horiz-adv-x="1059" 
d="M1075 40q-30 -30 -66 -42t-84 -12q-70 0 -107.5 24.5t-46.5 83.5l-26 172q-9 53 -33.5 73.5t-80.5 23.5v-257q0 -38 5 -55t19.5 -23t46.5 -8v-20q-57 3 -178 3q-108 0 -167 -3v20q32 2 46 8t19.5 23t5.5 55v257q-56 -3 -80.5 -23.5t-33.5 -73.5l-26 -172
q-9 -59 -46.5 -83.5t-107.5 -24.5q-48 0 -84 12t-66 42l13 13q13 -13 30 -13q18 0 28.5 14t17.5 51l29 139q14 66 70.5 96t165.5 37l-177 202q-77 87 -164 110v19q41 -3 101 -3q85 0 169 3v-19q-36 -2 -59 -19.5t-23 -46.5q0 -40 44 -90l34 -38q56 -63 90.5 -88t74.5 -28
v223q0 38 -5 55t-19.5 23t-46.5 8v20q58 -3 167 -3q121 0 178 3v-20q-32 -2 -46 -8t-19.5 -23t-5.5 -55v-223q40 3 74.5 28t90.5 88l34 38q44 50 44 90q0 29 -23 46.5t-59 19.5v19q84 -3 169 -3q60 0 101 3v-19q-87 -23 -164 -110l-177 -202q109 -7 165.5 -37t70.5 -96
l29 -139q7 -37 17.5 -51t28.5 -14q17 0 30 13z" />
    </font>
</defs>
</svg>
