<?xml version="1.0" standalone="no"?>
<!DOCTYPE svg PUBLIC "-//W3C//DTD SVG 1.1//EN" "http://www.w3.org/Graphics/SVG/1.1/DTD/svg11.dtd" >
<svg xmlns="http://www.w3.org/2000/svg" xmlns:xlink="http://www.w3.org/1999/xlink" version="1.1">
<metadata>
Created by FontForge 20161003 at Fri Sep 28 14:00:50 2018
 By www-data
Copyright 2017 The Playfair Display Project Authors (https://github.com/clauseggers/Playfair-Display), with Reserved Font Name "Playfair Display".
</metadata>
<defs>
<font id="PlayfairDisplayBold" horiz-adv-x="0" >
  <font-face 
    font-family="PlayfairDisplayBold"
    font-weight="700"
    font-stretch="normal"
    units-per-em="1000"
    panose-1="0 0 8 0 0 0 0 0 0 0"
    ascent="800"
    descent="-200"
    x-height="517"
    cap-height="708"
    bbox="-704 -243 1269 1162"
    underline-thickness="20"
    underline-position="-120"
    unicode-range="U+000D-FB02"
  />
<missing-glyph horiz-adv-x="562" 
d="M502 0h-442v772h442v-772zM96 742v-712h370v712h-370z" />
    <glyph glyph-name="IJ" unicode="IJ" horiz-adv-x="738" 
d="M343 688q-34 -2 -49 -8t-20.5 -23t-5.5 -55v-496q0 -38 5.5 -55t20.5 -23t49 -8v-20q-54 3 -151 3q-107 0 -158 -3v20q33 2 48.5 8t21 23t5.5 55v496q0 38 -5.5 55t-21 23t-48.5 8v20q51 -3 158 -3q97 0 151 3v-20zM350 -168q42 4 69.5 24.5t42 68t14.5 129.5v548
q0 38 -5.5 55t-21 23t-48.5 8v20q50 -3 151 -3q103 0 158 3v-20q-34 -2 -49 -8t-20.5 -23t-5.5 -55v-366v-61q0 -141 -17 -200q-21 -73 -89.5 -118t-178.5 -45v20z" />
    <glyph glyph-name="ij" unicode="ij" horiz-adv-x="591" 
d="M206.5 754.5q24.5 -20.5 24.5 -56.5t-24.5 -56.5t-66.5 -20.5t-66.5 20.5t-24.5 56.5t24.5 56.5t66.5 20.5t66.5 -20.5zM509.5 754.5q24.5 -20.5 24.5 -56.5t-24.5 -56.5t-66.5 -20.5t-66.5 20.5t-24.5 56.5t24.5 56.5t66.5 20.5t66.5 -20.5zM522 96q0 -141 -52 -212.5
t-180 -71.5q-57 0 -91 17.5t-34 54.5q0 26 21.5 43.5t60.5 17.5q35 0 58 -15t23 -42q0 -21 -14.5 -35.5t-39.5 -22.5q9 -1 21 -1q46 0 64.5 29.5t18.5 96.5v127q-22 -47 -63 -71.5t-98 -24.5q-75 0 -109 39q-16 19 -23.5 49.5t-7.5 80.5v253q0 46 -14.5 67t-49.5 21v21
q31 -3 62 -3q87 0 146 14v-414q0 -42 12.5 -63t47.5 -21q41 0 69 33.5t28 82.5v262q0 46 -14.5 67t-49.5 21v21q32 -3 62 -3q87 0 146 14v-432z" />
    <glyph glyph-name="fi" unicode="fi" horiz-adv-x="651" 
d="M471 773q37 -9 65 -27q18 -11 29.5 -29t11.5 -39q0 -36 -24.5 -56.5t-69.5 -20.5q-44 0 -69 20.5t-25 55.5q0 26 17.5 45.5t48.5 28.5q-10 6 -27.5 9.5t-37.5 3.5q-87 0 -128 -74q-15 -26 -21 -64.5t-6 -109.5h119q81 0 126.5 2.5t87.5 9.5v-435q0 -41 15.5 -56.5
t54.5 -15.5v-21q-108 4 -139 4t-139 -4v21q36 0 50 15.5t14 56.5v315q0 46 -15.5 67t-54.5 21h-119v-403q0 -41 20 -56.5t60 -15.5v-21l-26 1q-99 3 -123 3q-32 0 -125 -3q-7 -1 -20 -1v21q39 0 54.5 15.5t15.5 56.5v403h-74v20h74q0 123 79 199q35 32 89 49.5t117 17.5
q58 0 95 -9z" />
    <glyph glyph-name="fl" unicode="fl" horiz-adv-x="654" 
d="M568 93q0 -41 15.5 -56.5t54.5 -15.5v-21q-108 4 -139 4t-139 -4v21q36 0 50 15.5t14 56.5v583q0 46 -19 65q-10 11 -26.5 17t-34.5 6q-27 0 -45.5 -8.5t-32.5 -25.5q-20 -22 -25.5 -56t-5.5 -103v-55h105v-20h-105v-403q0 -41 20 -56.5t60 -15.5v-21l-26 1q-99 3 -123 3
q-32 0 -125 -3q-7 -1 -20 -1v21q39 0 54.5 15.5t15.5 56.5v403h-74v20h74q0 76 17 127.5t55 84.5q33 28 76 41t89 13q20 0 62 -4q48 -4 76 -4q47 0 102 10v-691z" />
    <glyph glyph-name="f_f" unicode="ff" horiz-adv-x="679" 
d="M747.5 717.5q9.5 -19.5 9.5 -43.5q0 -28 -20 -48.5t-51 -20.5q-34 0 -55 19t-21 52q0 26 15 46t44 28q-3 6 -12.5 10t-23.5 4q-38 0 -54 -26q-11 -15 -15 -44t-4 -87v-91h107v-20h-107v-393q0 -46 23.5 -64t70.5 -18v-21l-28 1q-111 3 -144 3q-30 0 -130 -4v21
q36 0 50 15.5t14 56.5v403h-181v-403q0 -41 14 -56.5t50 -15.5v-21l-22 1q-87 3 -110 3q-34 0 -146 -4v21q39 0 54.5 15.5t15.5 56.5v403h-74v20h74q0 54 16.5 98t47.5 72q29 26 71 41t92 15q40 0 73.5 -13t55.5 -38q13 23 32 41q22 22 59 36t78 14q62 0 107 -33
q15 -12 24.5 -31.5zM421 607q5 37 16 65q-17 22 -43.5 35t-59.5 13q-51 0 -75 -31.5t-24 -100.5v-72h181q0 54 5 91z" />
    <glyph glyph-name="f_f_i" unicode="ffi" horiz-adv-x="987" 
d="M920.5 36.5q15.5 -15.5 54.5 -15.5v-21q-108 4 -139 4q-35 0 -139 -4v21q35 0 49.5 15.5t14.5 56.5v315q0 46 -15.5 67t-54.5 21h-119v-403q0 -41 19.5 -56.5t60.5 -15.5v-21l-26 1q-99 3 -123 3q-37 0 -145 -4v21q38 0 54 15.5t16 56.5v403h-193v-403q0 -41 14 -56.5
t50 -15.5v-21l-22 1q-87 3 -110 3q-34 0 -146 -4v21q39 0 54.5 15.5t15.5 56.5v403h-74v20h74q0 53 17 96.5t49 73.5q30 30 76 46t101 16q93 0 152 -54l21 21q36 32 91.5 49.5t122.5 17.5q93 0 153 -37q17 -10 28 -27.5t11 -39.5q0 -36 -24.5 -56.5t-69.5 -20.5
q-44 0 -69 20.5t-25 55.5q0 26 17.5 45.5t48.5 28.5q-9 6 -27 9.5t-37 3.5q-38 0 -67 -14.5t-46 -37.5q-26 -29 -34 -70t-8 -126h119q81 0 126 2.5t88 9.5v-435q0 -41 15.5 -56.5zM474 679q-22 21 -53.5 34t-70.5 13q-58 0 -86.5 -34t-28.5 -110v-66h193q0 98 46 163z" />
    <glyph glyph-name="f_f_l" unicode="ffl" horiz-adv-x="991" 
d="M920.5 36.5q15.5 -15.5 54.5 -15.5v-21q-108 4 -139 4q-35 0 -139 -4v21q35 0 49.5 15.5t14.5 56.5v583q0 47 -20 65q-10 11 -26.5 17t-33.5 6q-28 0 -46.5 -8.5t-32.5 -25.5q-18 -22 -24 -56.5t-6 -99.5v-58h105v-20h-105v-403q0 -41 19.5 -56.5t60.5 -15.5v-21l-26 1
q-99 3 -123 3q-37 0 -145 -4v21q38 0 54 15.5t16 56.5v403h-193v-403q0 -41 14 -56.5t50 -15.5v-21q-100 4 -132 4q-34 0 -146 -4v21q39 0 54.5 15.5t15.5 56.5v403h-74v20h74q0 53 17 96.5t49 73.5q30 30 76 46t101 16q86 0 142 -45q9 12 24 25q33 28 76 41t89 13
q19 0 63 -4q46 -4 73 -4q49 0 104 10v-691q0 -41 15.5 -56.5zM465 687q-48 39 -115 39q-58 0 -86.5 -34t-28.5 -110v-66h193q0 111 37 171z" />
    <glyph glyph-name="f_b.liga" unicode="fb" horiz-adv-x="932" 
d="M844.5 465q49.5 -66 49.5 -193q0 -147 -64 -216.5t-165 -69.5q-69 0 -112 35q-35 3 -71.5 -8t-57.5 -29l-15 9q7 21 7 56v627q0 46 -19 65q-10 11 -25 17t-32 6q-26 0 -43.5 -8t-31.5 -25q-19 -22 -24.5 -56.5t-5.5 -101.5v-57h105v-20h-105v-403q0 -41 20 -56.5
t60 -15.5v-21l-26 1q-99 3 -123 3q-32 0 -125 -3q-7 -1 -20 -1v21q39 0 54.5 15.5t15.5 56.5v403h-74v20h74q0 77 17 128t55 84q33 27 75 40.5t87 13.5q20 0 34.5 -1t24.5 -2q48 -4 77 -4q53 0 99 9v-348q21 46 61 70.5t93 24.5q81 0 130.5 -66zM716 69q27 62 27 189
q0 123 -23 176.5t-66 53.5q-32 0 -58.5 -23.5t-35.5 -63.5v-367q33 -27 74 -27q55 0 82 62z" />
    <glyph glyph-name="f_f_b.liga" unicode="ffb" horiz-adv-x="1269" 
d="M1181 464.5q50 -66.5 50 -192.5q0 -147 -64 -216.5t-165 -69.5q-70 0 -112 35q-36 3 -72 -8t-57 -29l-15 9q7 25 7 56v627q0 45 -20 65q-10 11 -25 17t-32 6q-25 0 -42.5 -8t-31.5 -25q-19 -22 -24.5 -57t-5.5 -106v-52h105v-20h-105v-403q0 -41 19.5 -56.5t60.5 -15.5
v-21l-26 1q-99 3 -123 3q-37 0 -145 -4v21q38 0 54 15.5t16 56.5v403h-187v-403q0 -41 14 -56.5t50 -15.5v-21q-108 4 -138 4q-34 0 -146 -4v21q39 0 54.5 15.5t15.5 56.5v403h-74v20h74q0 53 17 96.5t49 73.5q30 30 76 46t101 16q86 0 142 -45q9 12 24 25q32 27 74.5 40.5
t87.5 13.5q19 0 34 -1t26 -2q46 -4 75 -4q52 0 100 9v-348q21 46 61 70.5t92 24.5q81 0 131 -66.5zM465 687q-48 39 -115 39q-55 0 -82 -34t-27 -110v-66h187q0 111 37 171zM1053 69q27 62 27 189q0 123 -23 176.5t-66 53.5q-32 0 -58.5 -23.5t-35.5 -63.5v-367
q33 -27 74 -27q55 0 82 62z" />
    <glyph glyph-name="f_f_h.liga" unicode="ffh" horiz-adv-x="1278" 
d="M1216 36.5q14 -15.5 50 -15.5v-21q-104 4 -132 4q-34 0 -130 -4v21q30 0 42 15.5t12 56.5v311q0 41 -13.5 62t-48.5 21q-42 0 -70.5 -32.5t-28.5 -82.5v-279q0 -41 12 -56.5t42 -15.5v-21q-96 4 -124 4q-34 0 -138 -4v21q35 0 49.5 15.5t14.5 56.5v583q0 45 -20 65
q-10 11 -25 17t-32 6q-25 0 -42.5 -8t-31.5 -25q-19 -22 -24.5 -55.5t-5.5 -98.5v-61h105v-20h-105v-403q0 -41 19.5 -56.5t60.5 -15.5v-21l-26 1q-99 3 -123 3q-37 0 -145 -4v21q38 0 54 15.5t16 56.5v403h-193v-403q0 -41 14 -56.5t50 -15.5v-21l-22 1q-87 3 -110 3
q-34 0 -146 -4v21q39 0 54.5 15.5t15.5 56.5v403h-74v20h74q0 53 17 96.5t49 73.5q30 30 76 46t101 16q86 0 142 -45q9 12 24 25q32 27 74.5 40.5t87.5 13.5q19 0 34 -1t26 -2q46 -4 75 -4q52 0 100 9v-346q45 93 163 93q78 0 110 -39q17 -19 24.5 -49.5t7.5 -80.5v-269
q0 -41 14 -56.5zM465 687q-48 39 -115 39q-58 0 -86.5 -34t-28.5 -110v-66h193q0 111 37 171z" />
    <glyph glyph-name="f_f_j.liga" unicode="ffj" horiz-adv-x="971" 
d="M691 516q81 0 126 2.5t88 9.5v-434q0 -83 -14.5 -137t-49.5 -91q-25 -26 -64 -40t-100 -14q-46 0 -80 12q-47 19 -47 56q0 26 21.5 44.5t59.5 18.5q35 0 58 -15.5t23 -41.5q0 -36 -47 -54h7q17 0 29 5q33 3 49 41q7 18 9 54t2 90v386q0 46 -15.5 67t-54.5 21h-119v-399
q0 -43 21.5 -59.5t66.5 -16.5v-21l-27 1q-105 3 -132 3q-35 0 -143 -4v21q38 0 54 15.5t16 56.5v403h-187v-403q0 -41 14 -56.5t50 -15.5v-21q-108 4 -138 4q-34 0 -146 -4v21q39 0 54.5 15.5t15.5 56.5v403h-74v20h74q0 52 17.5 95.5t48.5 74.5q31 30 76.5 46t100.5 16
q94 0 152 -55l21 22q35 32 89 49.5t117 17.5q58 0 94.5 -9t65.5 -27q17 -11 28.5 -29t11.5 -39q0 -36 -24.5 -56.5t-69.5 -20.5q-44 0 -69 20.5t-25 55.5q0 26 17.5 45.5t48.5 28.5q-9 6 -27 9.5t-37 3.5q-89 0 -128 -74q-15 -26 -21 -64.5t-6 -109.5h119zM475 678
q-50 48 -125 48q-55 0 -82 -34t-27 -110v-66h187q0 97 47 162z" />
    <glyph glyph-name="f_f_k.liga" unicode="ffk" horiz-adv-x="1255" 
d="M1227 38q11 -12 27 -17v-21q-80 4 -105 4q-33 0 -129 -4v21q14 0 22 5t8 14q0 5 -5 15l-99 179q-11 17 -21.5 23t-27.5 8v-172q0 -41 14.5 -56.5t51.5 -15.5v-21q-104 4 -136 4q-34 0 -138 -4v21q35 0 49.5 15.5t14.5 56.5v583q0 45 -20 65q-10 11 -25 17t-32 6
q-25 0 -42.5 -8t-31.5 -25q-19 -21 -24.5 -55.5t-5.5 -102.5v-57h105v-20h-105v-403q0 -41 19.5 -56.5t60.5 -15.5v-21l-26 1q-99 3 -123 3q-37 0 -145 -4v21q38 0 54 15.5t16 56.5v403h-187v-403q0 -41 14 -56.5t50 -15.5v-21q-108 4 -138 4q-34 0 -146 -4v21
q39 0 54.5 15.5t15.5 56.5v403h-74v20h74q0 53 17 96.5t49 73.5q30 30 76 46t101 16q86 0 142 -45q9 12 24 25q32 27 74.5 40.5t87.5 13.5q19 0 34 -1t26 -2q46 -4 75 -4q52 0 100 9v-500q20 2 34 8t26 18l76 74q33 33 33 61q0 23 -21 36.5t-56 15.5v20q56 -3 117 -3
q81 0 117 3v-20q-61 -13 -125 -77l-64 -66l168 -281q14 -23 25 -35zM465 687q-48 39 -115 39q-55 0 -82 -34t-27 -110v-66h187q0 111 37 171z" />
    <glyph glyph-name="f_h.liga" unicode="fh" horiz-adv-x="942" 
d="M560 438q45 93 163 93q77 0 111 -39q17 -19 24 -49t7 -81v-269q0 -41 14 -56.5t50 -15.5v-21q-100 4 -132 4q-30 0 -130 -4v21q30 0 42 15.5t12 56.5v311q0 41 -13.5 62t-48.5 21q-42 0 -70.5 -32.5t-28.5 -82.5v-279q0 -41 12 -56.5t42 -15.5v-21q-92 4 -124 4
q-30 0 -138 -4v21q36 0 50 15.5t14 56.5v583q0 46 -19 65q-10 11 -25 17t-32 6q-26 0 -43.5 -8t-31.5 -25q-19 -22 -24.5 -57.5t-5.5 -105.5v-52h105v-20h-105v-403q0 -41 20 -56.5t60 -15.5v-21l-26 1q-99 3 -123 3q-32 0 -125 -3q-7 -1 -20 -1v21q39 0 54.5 15.5
t15.5 56.5v403h-74v20h74q0 77 17 128t55 84q33 27 75 40.5t87 13.5q20 0 34.5 -1t24.5 -2q48 -4 77 -4q53 0 99 9v-346z" />
    <glyph glyph-name="f_idieresis.liga" unicode="f&#xef;" horiz-adv-x="651" 
d="M583.5 36.5q15.5 -15.5 54.5 -15.5v-21q-108 4 -139 4t-139 -4v21q36 0 50 15.5t14 56.5v315q0 46 -15.5 67t-54.5 21h-119v-403q0 -41 20 -56.5t60 -15.5v-21l-26 1q-99 3 -123 3q-32 0 -125 -3q-7 -1 -20 -1v21q39 0 54.5 15.5t15.5 56.5v403h-74v20h74q0 75 13 124
t45 82q59 60 160 60q76 0 111 -28t35 -69q0 -31 -23 -53t-53 -22q-31 0 -53 22t-22 53q0 26 17 47t42 26q-19 6 -44 6q-45 0 -62.5 -25t-19.5 -90q-2 -34 -2 -133h119q81 0 126.5 2.5t87.5 9.5v-435q0 -41 15.5 -56.5zM659.5 737.5q22.5 -22.5 22.5 -52.5q0 -31 -22.5 -53
t-52.5 -22q-32 0 -54 22t-22 53q0 30 22.5 52.5t53.5 22.5q30 0 52.5 -22.5z" />
    <glyph glyph-name="f_igrave.liga" unicode="f&#xec;" horiz-adv-x="651" 
d="M583.5 36.5q15.5 -15.5 54.5 -15.5v-21q-108 4 -139 4t-139 -4v21q36 0 50 15.5t14 56.5v315q0 46 -15.5 67t-54.5 21h-119v-403q0 -41 20 -56.5t60 -15.5v-21l-26 1q-99 3 -123 3q-32 0 -125 -3q-7 -1 -20 -1v21q39 0 54.5 15.5t15.5 56.5v403h-74v20h74q0 68 13 116
t46 79q50 49 139 49q33 0 67 -12q-8 13 -8 30q0 24 18 39q14 13 34 13q14 0 26.5 -6.5t21.5 -17.5q11 -13 18.5 -28.5t20.5 -46.5q29 -74 56 -123l-11 -9q-38 36 -69 58.5t-35 25.5q-22 15 -41 31q-19 12 -36 18t-37 6q-41 0 -61 -35q-18 -30 -18 -99v-88h119
q81 0 126.5 2.5t87.5 9.5v-435q0 -41 15.5 -56.5z" />
    <glyph glyph-name="f_j.liga" unicode="fj" horiz-adv-x="634" 
d="M471 773q37 -9 65 -27q18 -11 29.5 -29t11.5 -39q0 -36 -24.5 -56.5t-69.5 -20.5q-44 0 -69 20.5t-25 55.5q0 26 17.5 45.5t48.5 28.5q-10 6 -27.5 9.5t-37.5 3.5q-87 0 -128 -74q-15 -26 -21 -64.5t-6 -109.5h119q81 0 126.5 2.5t87.5 9.5v-434q0 -83 -14.5 -137
t-49.5 -91q-25 -26 -63.5 -40t-99.5 -14q-47 0 -81 12q-46 19 -46 56q0 26 21.5 44.5t59.5 18.5q34 0 57 -15.5t23 -41.5q0 -36 -46 -54h7q13 0 27 4q35 4 50 42q7 17 9 53t2 91v386q0 46 -15.5 67t-54.5 21h-119v-399q0 -43 22 -59.5t66 -16.5v-21l-25 1q-105 3 -133 3
t-124 -3q-7 -1 -20 -1v21q39 0 54.5 15.5t15.5 56.5v403h-74v20h74q0 123 79 199q35 32 89 49.5t117 17.5q58 0 95 -9z" />
    <glyph glyph-name="f_k.liga" unicode="fk" horiz-adv-x="918" 
d="M891.5 38q10.5 -12 25.5 -17v-21q-80 4 -105 4q-29 0 -129 -4v21q14 0 22 5t8 14q0 5 -5 15l-99 179q-10 17 -21 23t-28 8v-172q0 -41 14.5 -56.5t51.5 -15.5v-21q-104 4 -135 4t-139 -4v21q36 0 50 15.5t14 56.5v583q0 46 -19 65q-10 11 -25 17t-32 6q-26 0 -43.5 -8
t-31.5 -25q-19 -22 -24.5 -57t-5.5 -104v-54h105v-20h-105v-403q0 -41 20 -56.5t60 -15.5v-21l-26 1q-99 3 -123 3q-32 0 -125 -3q-7 -1 -20 -1v21q39 0 54.5 15.5t15.5 56.5v403h-74v20h74q0 77 17 128t55 84q33 27 75 40.5t87 13.5q20 0 34.5 -1t24.5 -2q48 -4 77 -4
q53 0 99 9v-500q20 2 34.5 8t25.5 18l76 74q34 33 34 61q0 23 -21.5 36.5t-56.5 15.5v20q55 -3 117 -3q83 0 117 3v-20q-60 -13 -124 -77l-65 -66l168 -281q16 -23 26.5 -35z" />
    <glyph glyph-name=".notdef" horiz-adv-x="562" 
d="M502 0h-442v772h442v-772zM96 742v-712h370v712h-370z" />
    <glyph glyph-name=".null" 
 />
    <glyph glyph-name="nonmarkingreturn" unicode="&#xd;" horiz-adv-x="233" 
 />
    <glyph glyph-name="NULL" 
 />
    <glyph glyph-name="NULL" 
 />
    <glyph glyph-name="space" unicode=" " horiz-adv-x="233" 
 />
    <glyph glyph-name="exclam" unicode="!" horiz-adv-x="288" 
d="M202 755.5q24 -26.5 24 -71.5q0 -34 -6.5 -72.5t-22.5 -117.5q-20 -91 -31 -158.5t-13 -139.5h-18q-2 72 -13 139.5t-31 158.5q-16 79 -22.5 117.5t-6.5 72.5q0 45 23 71.5t59 26.5q34 0 58 -26.5zM206 119.5q23 -20.5 23 -56.5t-23 -56.5t-62 -20.5t-62 20.5t-23 56.5
t23 56.5t62 20.5t62 -20.5z" />
    <glyph glyph-name="quotedbl" unicode="&#x22;" horiz-adv-x="369" 
d="M150 712q18 -18 18 -48q0 -24 -5.5 -45t-18.5 -55q-19 -47 -32 -96h-14q-10 35 -30 89q-14 36 -20 58t-6 48q0 30 18 48.5t45 18.5t45 -18zM311 712q18 -18 18 -48q0 -24 -5.5 -45t-18.5 -55q-19 -47 -32 -96h-14q-10 35 -30 89q-14 36 -20 58t-6 48q0 30 18 48.5
t45 18.5t45 -18z" />
    <glyph glyph-name="numbersign" unicode="#" horiz-adv-x="620" 
d="M430 434l-32 -167h147l-4 -20h-147l-28 -146h-20l28 146h-167l-28 -146h-20l28 146h-147l4 20h147l32 167h-146l3 20h147l29 148h20l-29 -148h167l29 148h20l-29 -148h147l-3 -20h-148zM410 434h-167l-32 -167h167z" />
    <glyph glyph-name="dollar" unicode="$" horiz-adv-x="574" 
d="M487 52.5q-51 -48.5 -134 -61.5v-123h-20v120q-28 -2 -43 -2q-23 0 -34 1v-119h-20v122q-32 5 -52.5 12.5t-46.5 19.5q-30 15 -42 15q-9 0 -14 -10.5t-8 -33.5h-23q4 63 4 270h23q9 -120 46 -179t113 -72v294l-3 2q-58 37 -95 67t-60 70.5t-23 92.5q0 78 51 124t130 56
v122h20v-120q8 1 23 1q33 0 54 -4v123h20v-127q35 -8 72 -31q11 -6 19.5 -10t14.5 -4q9 0 14 10.5t8 33.5h23q-5 -67 -5 -228h-23q-11 83 -39.5 136t-83.5 71v-275q14 -8 16 -10q57 -36 92 -66t56 -69t21 -90q0 -80 -51 -128.5zM256 695v-212q25 -19 77 -54v267q-18 3 -38 3
q-23 0 -39 -4zM188 552q13 -23 48 -53v191q-30 -11 -45.5 -33t-15.5 -52t13 -53zM333 12v225q-34 26 -77 55v-283q10 -1 30 -1q28 0 47 4zM421 111q0 30 -14 54t-54 56v-204q68 22 68 94z" />
    <glyph glyph-name="percent" unicode="%" horiz-adv-x="728" 
d="M671 811l-585 -866l-19 13l585 866zM313.5 717.5q44.5 -43.5 44.5 -119.5q0 -50 -21 -88t-58 -59t-83 -21q-73 0 -118 43.5t-45 119.5q0 49 21 87.5t58.5 59.5t83.5 21q73 0 117.5 -43.5zM129 594q0 -72 18 -109t51 -37q64 0 64 148q0 73 -17.5 110t-50.5 37
q-65 0 -65 -149zM649.5 273.5q44.5 -43.5 44.5 -119.5q0 -50 -21 -88t-58 -59t-83 -21q-73 0 -118 43.5t-45 119.5q0 49 21 87.5t58.5 59.5t83.5 21q73 0 117.5 -43.5zM465 150q0 -72 18 -109t51 -37q64 0 64 148q0 73 -17.5 110t-50.5 37q-65 0 -65 -149z" />
    <glyph glyph-name="ampersand" unicode="&#x26;" horiz-adv-x="898" 
d="M830.5 465.5q-51.5 -41.5 -151.5 -62.5l-18 -6q45 -20 69 -64t24 -102q0 -70 -43 -125.5t-121.5 -87.5t-180.5 -32q-110 0 -193.5 30t-129 86.5t-45.5 132.5q0 68 36 114.5t81.5 70.5t85.5 34q-113 45 -113 126q0 61 59 95.5t140 34.5q37 0 61 -5t43 -16q27 -13 44 -33
t17 -48q0 -29 -22.5 -47.5t-54.5 -18.5t-52.5 16t-20.5 46q0 25 18 45.5t46 25.5q-9 8 -27 13t-39 5q-55 0 -90 -34t-35 -97q0 -58 39 -102q37 8 56 8q18 0 27.5 -7.5t9.5 -19.5q0 -10 -8 -15.5t-20 -5.5q-15 0 -29 7t-35 19q-51 -26 -78.5 -64.5t-27.5 -97.5
q0 -97 77.5 -145.5t214.5 -48.5q69 0 132.5 20.5t103 60t39.5 93.5q0 92 -76 127l-64 -18l-56 -16q-84 -19 -123 -40t-39 -57t33.5 -58.5t74.5 -22.5q11 0 23.5 3t16.5 7q-24 8 -37 25t-13 41q0 31 22.5 48.5t57.5 17.5q36 0 56.5 -18.5t20.5 -49.5q0 -45 -40 -68t-102 -23
q-64 0 -106.5 33t-42.5 95q0 75 57 119t167 65l43 11q65 15 106 29q77 19 114 41.5t37 57.5q0 39 -34.5 65t-78.5 26q-19 0 -29 -5q23 -9 36 -26.5t13 -36.5q0 -30 -22.5 -47t-57.5 -17t-56.5 17.5t-21.5 48.5q0 39 34 61.5t91 22.5q72 0 115.5 -37.5t43.5 -103.5
q0 -74 -51.5 -115.5z" />
    <glyph glyph-name="quotesingle" unicode="'" horiz-adv-x="209" 
d="M150 712q18 -18 18 -48q0 -24 -5.5 -45t-18.5 -55q-19 -47 -32 -96h-14q-10 35 -30 89q-14 36 -20 58t-6 48q0 30 18 48.5t45 18.5t45 -18z" />
    <glyph glyph-name="parenleft" unicode="(" horiz-adv-x="318" 
d="M98.5 594q-63.5 -122 -63.5 -282t63.5 -282t186.5 -212l15 12q-67 106 -97 220.5t-30 261.5q0 146 30.5 262t96.5 220l-15 12q-123 -90 -186.5 -212z" />
    <glyph glyph-name="parenright" unicode=")" horiz-adv-x="318" 
d="M219.5 594q63.5 -122 63.5 -282t-63.5 -282t-186.5 -212l-15 12q67 106 97 220.5t30 261.5q0 146 -30.5 262t-96.5 220l15 12q123 -90 186.5 -212z" />
    <glyph glyph-name="asterisk" unicode="*" horiz-adv-x="481" 
d="M431 439q0 -13 -8 -26q-12 -25 -38 -25q-15 0 -32 10q-15 8 -28.5 22t-38.5 44q-33 38 -41 47q8 -24 18 -49q15 -42 21 -62.5t6 -38.5q0 -28 -14.5 -41t-34.5 -13t-34 13t-14 41q0 18 6 39t20 59l19 53q-17 -18 -41 -48q-18 -21 -35.5 -39.5t-31.5 -27.5q-15 -9 -32 -9
q-25 0 -40 24q-7 14 -7 25q0 26 30 44q15 9 34.5 13.5t58.5 11.5q45 7 61 11q-20 4 -61 11q-37 6 -58 11.5t-36 14.5q-29 18 -29 44q0 13 7 25q14 25 39 25q15 0 32 -10q16 -10 32 -26.5t40 -45.5q12 -15 36 -43l-20 57q-13 38 -19 58t-6 37q0 28 14.5 41t34.5 13t34 -13
t14 -41q0 -17 -5.5 -36t-18.5 -53q-4 -11 -9.5 -25.5t-11.5 -35.5l43 49q24 29 37.5 43t27.5 22q15 9 32 9q13 0 23 -7t16 -17q8 -13 8 -26q0 -27 -30 -43q-15 -9 -34.5 -13.5t-59.5 -11.5q-47 -8 -59 -11q16 -4 59 -11q43 -8 61 -12.5t33 -13.5q30 -16 30 -43z" />
    <glyph glyph-name="plus" unicode="+" horiz-adv-x="574" 
d="M305 370h232v-30h-232v-235h-36v235h-233v30h233v236h36v-236z" />
    <glyph glyph-name="comma" unicode="," horiz-adv-x="271" 
d="M202 105q10 -15 16 -37t6 -46q0 -52 -26.5 -94t-78.5 -66l-9 18q29 12 50.5 37t25.5 51q3 12 3 23q0 10 -3 19q-22 -24 -58 -24q-35 0 -57 20.5t-22 56.5q0 34 23 55.5t59 21.5q49 0 71 -35z" />
    <glyph glyph-name="hyphen" unicode="-" horiz-adv-x="481" 
d="M421 229h-361v83h361v-83z" />
    <glyph glyph-name="period" unicode="." horiz-adv-x="270" 
d="M197 119.5q23 -20.5 23 -56.5t-23 -56.5t-62 -20.5t-62 20.5t-23 56.5t23 56.5t62 20.5t62 -20.5z" />
    <glyph glyph-name="slash" unicode="/" horiz-adv-x="368" 
d="M65 -14h-33l272 736h33z" />
    <glyph glyph-name="zero" unicode="0" horiz-adv-x="645" 
d="M469 498q62 -33 96.5 -93t34.5 -138q0 -80 -35.5 -144t-100 -100.5t-147.5 -36.5q-78 0 -140 33t-97 93t-35 139t35.5 143t99.5 100.5t148 36.5q79 0 141 -33zM255 482q-28 -31 -43.5 -89.5t-15.5 -138.5q0 -127 36.5 -188.5t93.5 -61.5q36 0 63.5 31.5t43.5 90t16 138.5
q0 127 -36.5 188t-93.5 61q-36 0 -64 -31z" />
    <glyph glyph-name="one" unicode="1" horiz-adv-x="383" 
d="M282 97q0 -43 16 -59.5t56 -16.5v-21q-108 4 -138 4q-33 0 -144 -3l-28 -1v21q47 0 70.5 18t23.5 64v244q0 48 -8.5 70.5t-28.5 30t-61 7.5v22q87 2 143 13.5t99 37.5v-431z" />
    <glyph glyph-name="two" unicode="2" horiz-adv-x="523" 
d="M397 497.5q45 -33.5 45 -93.5q0 -41 -23.5 -76t-55.5 -62t-88 -67q-72 -50 -101 -80h216q27 0 40.5 4t18.5 13t8 28h21q0 -118 4 -169q-22 5 -149 5h-291v19q13 14 51 48q58 53 96.5 94.5t67 96t28.5 113.5q0 53 -23.5 77.5t-69.5 24.5q-42 0 -74.5 -19.5t-59.5 -57.5
l-17 10q74 125 234 125q77 0 122 -33.5z" />
    <glyph glyph-name="three" unicode="3" horiz-adv-x="488" 
d="M369 500q48 -31 48 -84q0 -57 -55 -102t-148 -63q105 4 172 -36.5t67 -115.5q0 -73 -63 -130.5t-161.5 -88.5t-199.5 -31v20q66 2 129.5 29.5t104.5 78.5t41 121q0 59 -28.5 97t-76.5 42q-14 -7 -27.5 -11.5t-23.5 -4.5q-19 0 -19 14q0 11 9 16.5t23 5.5q6 0 16.5 -1.5
t18.5 -2.5q77 54 77 134q0 45 -23 66.5t-66 21.5q-40 0 -73.5 -20t-56.5 -58l-18 9q31 57 80.5 91t129.5 34q75 0 123 -31z" />
    <glyph glyph-name="four" unicode="4" horiz-adv-x="528" 
d="M397 36v-177h-116v177h-273v21l373 474h16v-392h8q27 0 40.5 4t18.5 13t8 28h21q0 -106 4 -153q-12 3 -100 5zM281 139v233l-181 -233h181z" />
    <glyph glyph-name="five" unicode="5" horiz-adv-x="459" 
d="M389 387q-21 5 -139 5h-154l-16 -171q58 40 151 40q96 0 145.5 -44t49.5 -114q0 -74 -58 -131.5t-149.5 -88.5t-188.5 -31v18q63 1 120 27.5t92 78t35 121.5q0 63 -29.5 96.5t-85.5 33.5q-27 0 -48 -7t-42 -22l-14 9l32 313q20 -4 54 -4h165q29 0 40.5 8.5t14.5 30.5h21
q0 -117 4 -168z" />
    <glyph glyph-name="six" unicode="6" horiz-adv-x="561" 
d="M433.5 414q44.5 -26 71 -75.5t26.5 -114.5q0 -74 -33.5 -128t-90.5 -82t-125 -28q-110 0 -172.5 75t-62.5 210q0 139 62.5 236t154 149t182.5 67l4 -20q-64 -20 -112.5 -52t-85 -99t-48.5 -178q21 34 55.5 50t75.5 16q54 0 98.5 -26zM355 57.5q25 51.5 25 157.5
q0 102 -23.5 149t-61.5 47q-26 0 -53 -19t-42 -57q-2 -44 -2 -70q0 -137 27.5 -198t66.5 -61q38 0 63 51.5z" />
    <glyph glyph-name="seven" unicode="7" horiz-adv-x="455" 
d="M454 495q-12 -28 -49 -96q-40 -72 -65 -126t-43.5 -123t-18.5 -144l2 -34q3 -26 3 -47q0 -31 -19 -52t-54 -21q-36 0 -54.5 24t-18.5 64q0 62 27 126.5t64.5 120t97.5 134.5q12 17 26 35t29 39h-266q-27 0 -40.5 -4t-18.5 -13t-8 -28h-21q0 120 -4 171q22 -5 149 -5h282
v-21z" />
    <glyph glyph-name="eight" unicode="8" horiz-adv-x="561" 
d="M440.5 336.5q31.5 -30.5 55.5 -72t24 -89.5q0 -55 -31.5 -98t-87.5 -67t-126 -24q-63 0 -116 19.5t-84.5 58.5t-31.5 93q0 65 44 113t119 81q-62 53 -96 100.5t-34 107.5q0 52 29 89t77 55.5t106 18.5q86 0 141 -38.5t55 -101.5q0 -49 -34.5 -87.5t-102.5 -74.5
q62 -53 93.5 -83.5zM227.5 681.5q-19.5 -22.5 -19.5 -60.5q0 -50 31.5 -93t91.5 -95q19 27 28 65.5t9 75.5q0 61 -23.5 95.5t-64.5 34.5q-33 0 -52.5 -22.5zM354 33.5q27 29.5 27 78.5q0 45 -22 83t-52 67t-86 76q-54 -57 -54 -163q0 -76 26.5 -123.5t86.5 -47.5
q47 0 74 29.5z" />
    <glyph glyph-name="nine" unicode="9" horiz-adv-x="553" 
d="M450.5 458.5q62.5 -72.5 62.5 -203.5q0 -125 -62 -212.5t-152 -134.5t-179 -60l-4 20q60 18 105.5 45t81 81.5t50.5 143.5q-21 -31 -55 -46t-73 -15q-54 0 -98.5 26.5t-71 75.5t-26.5 115q0 74 33.5 127.5t90.5 81.5t125 28q110 0 172.5 -72.5zM316.5 123.5
q26.5 17.5 41.5 54.5q4 33 4 82q0 133 -28 192t-67 59q-37 0 -62 -51.5t-25 -157.5q0 -101 23.5 -148.5t61.5 -47.5q25 0 51.5 17.5z" />
    <glyph glyph-name="colon" unicode=":" horiz-adv-x="290" 
d="M207 510.5q23 -20.5 23 -56.5t-23 -56.5t-62 -20.5t-62 20.5t-23 56.5t23 56.5t62 20.5t62 -20.5zM207 119.5q23 -20.5 23 -56.5t-23 -56.5t-62 -20.5t-62 20.5t-23 56.5t23 56.5t62 20.5t62 -20.5z" />
    <glyph glyph-name="semicolon" unicode=";" horiz-adv-x="296" 
d="M214 105q10 -15 16 -37t6 -46q0 -52 -26.5 -94t-78.5 -66l-9 18q29 12 50.5 37t25.5 51q3 12 3 23q0 10 -3 19q-22 -24 -58 -24q-35 0 -57 20.5t-22 56.5q0 34 23 55.5t59 21.5q49 0 71 -35zM211 510.5q23 -20.5 23 -56.5t-23 -56.5t-62 -20.5t-62 20.5t-23 56.5t23 56.5
t62 20.5t62 -20.5z" />
    <glyph glyph-name="less" unicode="&#x3c;" horiz-adv-x="602" 
d="M532 546l-409 -191l409 -191l-17 -36l-487 227l487 227z" />
    <glyph glyph-name="equal" unicode="=" horiz-adv-x="635" 
d="M568 410h-501v30h501v-30zM568 270h-501v30h501v-30z" />
    <glyph glyph-name="greater" unicode="&#x3e;" horiz-adv-x="602" 
d="M70 546l409 -191l-409 -191l17 -36l487 227l-487 227z" />
    <glyph glyph-name="question" unicode="?" horiz-adv-x="508" 
d="M411 733.5q66 -48.5 66 -131.5q0 -82 -68.5 -139t-186.5 -83v-146h-20v155q78 34 105 80.5t27 113.5q0 91 -33 135t-90 44q-28 0 -51.5 -6.5t-35.5 -19.5q56 -17 56 -73q0 -31 -22 -51.5t-57 -20.5q-31 0 -51 20t-20 49t15 49.5t42 37.5q59 35 150 35q108 0 174 -48.5z
M275 119.5q23 -20.5 23 -56.5t-23 -56.5t-62 -20.5t-62 20.5t-23 56.5t23 56.5t62 20.5t62 -20.5z" />
    <glyph glyph-name="at" unicode="@" horiz-adv-x="884" 
d="M477 95q0 16 6 44q-27 -60 -62 -86.5t-80 -26.5q-54 0 -85 33t-31 97q0 71 34 146.5t89.5 125.5t115.5 50q31 0 51 -16.5t27 -43.5l9 46q79 0 126 14l-79 -361q-6 -28 -6 -37q0 -22 17 -22q8 0 13 2q45 13 94 57t82.5 115.5t33.5 161.5q0 131 -83 193.5t-214 62.5
q-122 0 -230.5 -69.5t-174 -186t-65.5 -249.5q0 -147 83 -217.5t223 -70.5q116 0 206 54l7 -13q-39 -27 -94 -43t-120 -16q-150 0 -237.5 75.5t-87.5 228.5q0 134 65.5 255t178 195.5t245.5 74.5q142 0 230 -68t88 -207q0 -107 -45.5 -190.5t-114.5 -130t-136 -46.5
q-79 0 -79 69zM452 112q27 38 49 110l33 158q-1 26 -12 44.5t-33 18.5q-32 0 -63.5 -42.5t-52 -109t-20.5 -134.5q0 -45 10.5 -64t30.5 -19q31 0 58 38z" />
    <glyph glyph-name="A" unicode="A" horiz-adv-x="667" 
d="M641 36q17 -15 33 -16v-20q-60 3 -152 3q-102 0 -152 -3v20q38 2 54 9.5t16 26.5q0 18 -12 48l-60 164h-218l-26 -69q-28 -72 -28 -111q0 -37 22.5 -51.5t66.5 -16.5v-20q-68 3 -124 3q-46 0 -76 -3v20q49 9 86 105l228 585q11 -1 35 -1t34 1l243 -626q13 -33 30 -48z
M361 288l-99 270l-104 -270h203z" />
    <glyph glyph-name="B" unicode="B" horiz-adv-x="672" 
d="M581 312q61 -50 61 -118q0 -93 -73 -143.5t-203 -50.5q-29 0 -49 1q-66 2 -129 2q-103 0 -154 -3v20q33 2 48.5 8t21 23t5.5 55v496q0 38 -5.5 55t-21 23t-48.5 8v20q51 -3 152 -3l111 1q20 1 46 1q120 0 183.5 -43t63.5 -114q0 -58 -50.5 -108t-149.5 -68v-2
q130 -10 191 -60zM290.5 681q-12.5 -7 -17.5 -25t-5 -54v-226h43q65 0 91 44.5t26 118.5q0 75 -23.5 112t-74.5 37q-27 0 -39.5 -7zM476 198q0 79 -40 120t-126 41h-42v-253q0 -36 5 -53t19.5 -23.5t44.5 -6.5q139 0 139 175z" />
    <glyph glyph-name="C" unicode="C" horiz-adv-x="705" 
d="M499 705q42 -17 82 -48q11 -9 19 -9q20 0 26 60h23q-4 -68 -4 -242h-23q-9 74 -24 113t-51 68q-25 24 -58 36.5t-69 12.5q-101 0 -150 -98.5t-49 -245.5q0 -146 51 -244t152 -98q34 0 67.5 12.5t56.5 36.5q37 28 51.5 70t22.5 123h23q0 -181 4 -252h-23q-3 32 -8.5 45.5
t-15.5 13.5q-8 0 -21 -8q-45 -32 -86 -48.5t-99 -16.5q-106 0 -185.5 43t-123.5 124.5t-44 194.5q0 110 45 195t125.5 132t183.5 47q60 0 102 -17z" />
    <glyph glyph-name="D" unicode="D" horiz-adv-x="776" 
d="M635 619.5q97 -88.5 97 -257.5q0 -109 -47.5 -190.5t-137 -126.5t-213.5 -45l-62 1q-58 2 -84 2q-103 0 -154 -3v20q33 2 48.5 8t21 23t5.5 55v496q0 38 -5.5 55t-21 23t-48.5 8v20q42 -3 121 -3h31l40 1q82 2 117 2q195 0 292 -88.5zM295.5 683q-15.5 -7 -21.5 -25
t-6 -54v-500q0 -36 6 -54t21.5 -25t47.5 -7q121 0 172 84.5t51 255.5t-52.5 251.5t-171.5 80.5q-31 0 -46.5 -7z" />
    <glyph glyph-name="E" unicode="E" horiz-adv-x="634" 
d="M589 0q-68 3 -229 3q-218 0 -326 -3v20q33 2 48.5 8t21 23t5.5 55v496q0 38 -5.5 55t-21 23t-48.5 8v20q108 -3 326 -3q147 0 209 3q-7 -83 -7 -148q0 -44 3 -68h-23q-15 107 -54 150t-110 43h-41q-31 0 -45 -5t-19 -19.5t-5 -46.5v-248h32q53 0 80.5 39t38.5 93h23
q-3 -42 -3 -94v-48q0 -51 6 -142h-23q-21 132 -122 132h-32v-252q0 -32 5 -46.5t19 -19.5t45 -5h49q71 0 114.5 48.5t61.5 164.5h23q-3 -33 -3 -84q0 -92 7 -152z" />
    <glyph glyph-name="F" unicode="F" horiz-adv-x="592" 
d="M562 556q0 -47 3 -76h-23q-20 113 -60 159t-112 46h-33q-31 0 -45 -5t-19 -19.5t-5 -46.5v-252h35q53 0 80.5 39t38.5 93h23q-3 -42 -3 -94v-48q0 -51 6 -142h-23q-21 132 -122 132h-35v-230q0 -40 8.5 -58.5t30 -24.5t68.5 -7v-22q-123 3 -183 3q-50 0 -126 -2l-32 -1
v20q33 2 48.5 8t21 23t5.5 55v496q0 38 -5.5 55t-21 23t-48.5 8v20q108 -3 326 -3q147 0 209 3q-7 -85 -7 -152z" />
    <glyph glyph-name="G" unicode="G" horiz-adv-x="735" 
d="M509.5 705q42.5 -17 83.5 -48q12 -9 20 -9q10 0 16 14.5t9 45.5h23q-4 -68 -4 -242h-23q-8 68 -23.5 110t-51.5 71q-24 23 -59 36t-72 13q-70 0 -116.5 -47.5t-68.5 -125.5t-22 -171q0 -346 192 -346q44 0 71 20q13 9 18.5 21t5.5 31v98q0 47 -8 68.5t-28.5 29.5
t-64.5 10v20q62 -3 171 -3q89 0 134 3v-20q-20 -2 -29 -8t-12.5 -23t-3.5 -55v-198h-20q-1 21 -8.5 39t-20.5 18q-17 0 -54 -21q-87 -50 -164 -50q-173 0 -265 94.5t-92 265.5q0 112 46.5 197t128.5 132t187 47q62 0 104.5 -17z" />
    <glyph glyph-name="H" unicode="H" horiz-adv-x="800" 
d="M718 680q-15 -6 -20.5 -23t-5.5 -55v-496q0 -38 5.5 -55t20.5 -23t49 -8v-20q-49 3 -152 3q-101 0 -157 -3v20q33 2 48.5 8t21 23t5.5 55v240h-265v-240q0 -38 5.5 -55t20.5 -23t49 -8v-20q-54 3 -151 3q-107 0 -158 -3v20q33 2 48.5 8t21 23t5.5 55v496q0 38 -5.5 55
t-21 23t-48.5 8v20q51 -3 158 -3q97 0 151 3v-20q-34 -2 -49 -8t-20.5 -23t-5.5 -55v-236h265v236q0 38 -5.5 55t-21 23t-48.5 8v20q56 -3 157 -3q103 0 152 3v-20q-34 -2 -49 -8z" />
    <glyph glyph-name="I" unicode="I" horiz-adv-x="376" 
d="M343 688q-34 -2 -49 -8t-20.5 -23t-5.5 -55v-496q0 -38 5.5 -55t20.5 -23t49 -8v-20q-54 3 -151 3q-107 0 -158 -3v20q33 2 48.5 8t21 23t5.5 55v496q0 38 -5.5 55t-21 23t-48.5 8v20q51 -3 158 -3q97 0 151 3v-20z" />
    <glyph glyph-name="J" unicode="J" horiz-adv-x="364" 
d="M-23 -168q42 4 69.5 24.5t42 68t14.5 129.5v548q0 38 -5.5 55t-21 23t-48.5 8v20q50 -3 151 -3q103 0 158 3v-20q-34 -2 -49 -8t-20.5 -23t-5.5 -55v-366v-61q0 -141 -17 -200q-21 -73 -89.5 -118t-178.5 -45v20z" />
    <glyph glyph-name="K" unicode="K" horiz-adv-x="714" 
d="M683 44q16 -14 41 -24v-20q-70 3 -156 3q-66 0 -127 -3v20q28 2 40.5 6t12.5 14q0 8 -11 25l-145 235q-20 32 -33.5 43t-36.5 13v-250q0 -38 5.5 -55t20.5 -23t49 -8v-20q-54 3 -151 3q-107 0 -158 -3v20q33 2 48.5 8t21 23t5.5 55v496q0 38 -5.5 55t-21 23t-48.5 8v20
q51 -3 158 -3q97 0 151 3v-20q-34 -2 -49 -8t-20.5 -23t-5.5 -55v-225q40 2 73 24t75 70l59 71q46 53 46 93q0 24 -19.5 38t-54.5 16v19q73 -3 148 -3q58 0 94 3v-19q-80 -19 -145 -96l-125 -149l233 -363q15 -23 31 -37z" />
    <glyph glyph-name="L" unicode="L" horiz-adv-x="611" 
d="M349 688q-36 -2 -52.5 -8t-22.5 -23t-6 -55v-508q0 -32 5 -46.5t17.5 -19.5t40.5 -5h49q68 0 117.5 61t64.5 162h23q-3 -34 -3 -88q0 -96 7 -158q-68 3 -229 3q-218 0 -326 -3v20q33 2 48.5 8t21 23t5.5 55v496q0 38 -5.5 55t-21 23t-48.5 8v20q51 -3 158 -3q102 0 157 3
v-20z" />
    <glyph glyph-name="M" unicode="M" horiz-adv-x="927" 
d="M845 680q-15 -6 -20.5 -23t-5.5 -55v-496q0 -38 5.5 -55t21 -23t48.5 -8v-20q-55 3 -157 3q-107 0 -158 -3v20q36 2 52.5 8t22.5 23t6 55v523l-241 -630h-16l-270 644v-479q0 -59 6 -86.5t26 -40t65 -17.5v-20q-39 3 -108 3q-55 0 -87 -3v20q33 5 48.5 17t21 38t5.5 77
v450q0 38 -5.5 55t-21 23t-48.5 8v20q32 -3 87 -3q92 0 158 3l202 -487l184 484h71q102 0 157 3v-20q-34 -2 -49 -8z" />
    <glyph glyph-name="N" unicode="N" horiz-adv-x="722" 
d="M693 688q-33 -5 -48.5 -17t-21 -38t-5.5 -77v-558l-24 1l-27 -1l-434 550v-384q0 -59 6 -86.5t26 -40t65 -17.5v-20q-39 3 -108 3q-55 0 -87 -3v20q33 5 48.5 17t21 38t5.5 77v450q0 38 -5.5 55t-21 23t-48.5 8v20q32 -3 87 -3q50 0 86 3l387 -477v313q0 59 -6 86.5
t-26 40t-65 17.5v20q39 -3 108 -3q56 0 87 3v-20z" />
    <glyph glyph-name="O" unicode="O" horiz-adv-x="793" 
d="M582.5 679q79.5 -43 123.5 -124.5t44 -194.5q0 -110 -45 -195t-125.5 -132t-183.5 -47q-106 0 -185.5 43t-123.5 124.5t-44 194.5q0 110 45 195t125.5 132t183.5 47q106 0 185.5 -43zM296 659.5q-42 -44.5 -64.5 -124.5t-22.5 -183q0 -104 25.5 -183t69 -122t96.5 -43
q55 0 97 44.5t64.5 124.5t22.5 183q0 104 -25.5 183t-69 122t-96.5 43q-55 0 -97 -44.5z" />
    <glyph glyph-name="P" unicode="P" horiz-adv-x="641" 
d="M268 286v-174q0 -40 8.5 -58.5t30 -24.5t68.5 -7v-22q-123 3 -183 3q-50 0 -126 -2l-32 -1v20q33 2 48.5 8t21 23t5.5 55v496q0 38 -5.5 55t-21 23t-48.5 8v20q51 -3 152 -3l111 1q20 1 46 1q135 0 206 -53.5t71 -143.5q0 -55 -28 -105.5t-94.5 -84.5t-176.5 -34h-53z
M290.5 681q-12.5 -7 -17.5 -25t-5 -54v-296h43q81 0 112 52t31 141q0 97 -28.5 143t-95.5 46q-27 0 -39.5 -7z" />
    <glyph glyph-name="Q" unicode="Q" horiz-adv-x="793" 
d="M782 7q-17 -113 -69 -156q-22 -18 -55.5 -28.5t-73.5 -10.5q-54 0 -106.5 17t-129.5 51q-19 8 -41.5 17.5t-50.5 20.5l-24 7q-19 -10 -41.5 -15.5t-42.5 -5.5q-21 0 -34 6.5t-13 19.5q0 27 55 27q37 0 76 -14q34 10 72 27q7 3 21 8.5t25 9.5q-93 9 -162.5 54.5
t-107 123.5t-37.5 182q0 110 45 195t125.5 132t183.5 47q106 0 185.5 -43t123.5 -124.5t44 -194.5q0 -106 -42 -189.5t-118 -131.5t-173 -52q-24 -3 -43 -9t-45 -17q-32 -14 -62 -23l81 -7q127 -11 183 -11q37 0 75 5q62 7 98 26.5t60 60.5zM234.5 169q25.5 -79 69 -122
t96.5 -43q55 0 97 44.5t64.5 124.5t22.5 183q0 104 -25.5 183t-69 122t-96.5 43q-55 0 -97 -44.5t-64.5 -124.5t-22.5 -183q0 -104 25.5 -183z" />
    <glyph glyph-name="R" unicode="R" horiz-adv-x="692" 
d="M712 44q-27 -31 -58 -44.5t-75 -13.5q-58 0 -91.5 24.5t-43.5 83.5l-18 100q-13 73 -31.5 107.5t-61.5 34.5h-65v-230q0 -38 5.5 -55t20.5 -23t49 -8v-20q-54 3 -151 3q-107 0 -158 -3v20q33 2 48.5 8t21 23t5.5 55v496q0 38 -5.5 55t-21 23t-48.5 8v20q51 -3 152 -3
l111 1q20 1 46 1q138 0 207.5 -45t69.5 -129q0 -71 -52 -125t-172 -68q90 -8 134 -39t57 -93l23 -103q8 -40 18.5 -56t29.5 -16q12 1 20.5 6t19.5 17zM290.5 681q-12.5 -7 -17.5 -25t-5 -54v-246h43q82 0 112.5 43.5t30.5 122.5q0 82 -29 124t-95 42q-27 0 -39.5 -7z" />
    <glyph glyph-name="S" unicode="S" horiz-adv-x="584" 
d="M367 711q31 -10 63 -29q11 -6 19.5 -10t14.5 -4q9 0 14 10.5t8 33.5h23q-5 -67 -5 -228h-23q-4 54 -24.5 103t-58 79.5t-87.5 30.5q-49 0 -79.5 -27.5t-30.5 -74.5q0 -35 15 -61t42 -47.5t83 -58.5l32 -22q59 -39 93 -68t55.5 -67.5t21.5 -89.5q0 -64 -33 -107.5
t-89.5 -65.5t-125.5 -22q-56 0 -93 10t-68 27q-22 14 -34 14q-9 0 -14 -10.5t-8 -33.5h-23q4 63 4 270h23q7 -112 50 -181.5t132 -69.5q54 0 89 29t35 83q0 56 -36 96t-114 90q-60 39 -96 68t-59 68.5t-23 91.5q0 60 30.5 101.5t81.5 61.5t112 20q52 0 83 -10z" />
    <glyph glyph-name="T" unicode="T" horiz-adv-x="668" 
d="M635 538q0 -47 3 -76h-23q-24 123 -65.5 173t-113.5 50h-23v-571q0 -42 8.5 -61t30 -25.5t68.5 -7.5v-20q-126 3 -190 3q-63 0 -183 -3v20q47 1 68.5 7.5t30 25.5t8.5 61v571h-22q-48 0 -81.5 -21t-57.5 -69.5t-41 -132.5h-23q3 29 3 76q0 75 -7 170q91 -3 309 -3t308 3
q-7 -95 -7 -170z" />
    <glyph glyph-name="U" unicode="U" horiz-adv-x="689" 
d="M671 688q-33 -5 -48.5 -17t-21 -38t-5.5 -77v-265q0 -143 -41 -212q-27 -44 -78 -68.5t-125 -24.5q-116 0 -180 50q-46 37 -62 93.5t-16 158.5v314q0 38 -5.5 55t-21 23t-48.5 8v20q51 -3 156 -3q104 0 159 3v-20q-36 -2 -52.5 -8t-22.5 -23t-6 -55v-377
q0 -105 30.5 -154.5t107.5 -49.5q100 0 141 67.5t41 191.5v264q0 58 -7 86t-27 40.5t-63 17.5v20q38 -3 108 -3q56 0 87 3v-20z" />
    <glyph glyph-name="V" unicode="V" horiz-adv-x="668" 
d="M678 708v-20q-25 -9 -49 -38t-43 -81l-211 -571q-11 1 -35 1q-23 0 -34 -1l-255 626q-13 33 -30 48t-33 16v20q60 -3 152 -3q103 0 152 3v-20q-38 -2 -54 -9t-16 -28q0 -17 12 -47l176 -448l123 332q28 77 28 122q0 40 -21.5 58t-62.5 20v20q68 -3 125 -3q46 0 76 3z" />
    <glyph glyph-name="W" unicode="W" horiz-adv-x="968" 
d="M974 708v-20q-25 -10 -48.5 -38.5t-39.5 -80.5l-176 -571q-11 1 -35 1t-35 -1l-147 446l-148 -446q-11 1 -35 1t-35 -1l-224 626q-12 33 -29 48t-34 16v20q60 -3 149 -3q84 0 123 3v-20q-35 -5 -35 -39q0 -16 9 -45l146 -423l101 298l-51 155q-10 29 -23.5 40.5
t-31.5 13.5v20q56 -3 143 -3q98 0 144 3v-20q-36 -1 -52 -8.5t-16 -28.5q0 -18 10 -47l137 -418l95 302q23 75 23 116q0 43 -21.5 62.5t-64.5 21.5v20q68 -3 124 -3q47 0 77 3z" />
    <glyph glyph-name="X" unicode="X" horiz-adv-x="691" 
d="M671 32q12 -10 32 -11v-21q-104 4 -137 4q-32 0 -140 -3q-8 -1 -21 -1v21q36 0 51 3.5t15 13.5q0 7 -7 17l-168 247l-80 -109q-46 -62 -46 -105q0 -31 22.5 -48.5t62.5 -19.5v-20q-57 3 -158 3q-60 0 -92 -3v20q69 22 145 122l133 179l-216 317q-20 30 -32 39.5t-32 10.5
v21q12 0 20 -1q96 -3 123 -3q87 0 153 4v-21q-34 0 -49 -4.5t-15 -14.5q0 -8 8 -19l149 -218l74 100q47 62 47 101q0 25 -19 39t-54 16v20q57 -3 126 -3q60 0 92 3v-20q-32 -9 -64.5 -37t-61.5 -68l-127 -170l234 -342q20 -29 32 -39z" />
    <glyph glyph-name="Y" unicode="Y" horiz-adv-x="623" 
d="M617 709v-20q-46 -19 -96 -116l-118 -234v-233q0 -38 5.5 -55t20.5 -23t49 -8v-20q-54 3 -154 3q-107 0 -155 -3v20q33 2 48.5 8t21 23t5.5 55v169l-193 357q-31 56 -58 56v21q44 -5 118 -5q93 0 188 5v-21q-35 0 -55.5 -6.5t-20.5 -23.5q0 -9 7 -22l152 -293l78 156
q39 79 39 124q0 34 -21.5 49t-61.5 17v20q68 -3 125 -3q46 0 76 3z" />
    <glyph glyph-name="Z" unicode="Z" horiz-adv-x="602" 
d="M557 688l-342 -665h104q78 0 138.5 52t72.5 165h23q-3 -34 -3 -88q0 -92 7 -152q-74 3 -249 3q-186 0 -269 -3v20l343 665h-108q-82 0 -134.5 -47t-65.5 -158h-23q3 29 3 76q0 67 -7 152q66 -3 225 -3q197 0 285 3v-20z" />
    <glyph glyph-name="bracketleft" unicode="[" horiz-adv-x="322" 
d="M285 753h-57v-915h57v-19h-201v953h201v-19z" />
    <glyph glyph-name="backslash" unicode="\" horiz-adv-x="368" 
d="M303 -14h33l-272 736h-33z" />
    <glyph glyph-name="bracketright" unicode="]" horiz-adv-x="322" 
d="M37 753h57v-915h-57v-19h201v953h-201v-19z" />
    <glyph glyph-name="asciicircum" unicode="^" horiz-adv-x="529" 
d="M357 413.5q53 -55.5 115 -89.5l-8 -14q-63 15 -123 38t-97 46q-30 -23 -79 -46t-101 -38l-8 14q62 34 115 89t84 115h18q31 -59 84 -114.5z" />
    <glyph glyph-name="underscore" unicode="_" horiz-adv-x="608" 
d="M549 -172.519h-490v87.1201h490v-87.1201z" />
    <glyph glyph-name="grave" unicode="`" horiz-adv-x="296" 
d="M103 830q13 0 26 -6.5t22 -17.5q11 -13 18.5 -28.5t20.5 -46.5q29 -74 56 -123l-11 -9q-46 43 -106 85q-19 14 -35.5 27.5t-27.5 26.5q-15 20 -15 40q0 24 18 39q14 13 34 13z" />
    <glyph glyph-name="a" unicode="a" horiz-adv-x="518" 
d="M60.5 26q-31.5 33 -31.5 87q0 45 23.5 74.5t57 45.5t85.5 34q55 19 80.5 34.5t25.5 42.5v78q0 42 -19.5 65.5t-60.5 23.5q-48 0 -73 -24q28 -10 43.5 -30t15.5 -47q0 -34 -23 -54t-56 -20q-35 0 -54 22t-19 55q0 28 13.5 47.5t41.5 36.5q27 16 66.5 25t86.5 9
q49 0 85 -10t60 -34q22 -22 29.5 -54t7.5 -87v-272q0 -24 4.5 -34t17.5 -10q15 0 36 17l10 -17q-45 -37 -110 -37q-55 0 -77 22t-23 59q-50 -81 -147 -81q-64 0 -95.5 33zM301 98v205q-12 -20 -51 -44q-39 -25 -59 -50t-20 -72q0 -41 17 -60.5t45 -19.5q39 0 68 41z" />
    <glyph glyph-name="b" unicode="b" horiz-adv-x="586" 
d="M498 464.5q50 -66.5 50 -192.5q0 -147 -64 -216.5t-165 -69.5q-69 0 -112 35q-36 3 -72 -8t-57 -29l-15 9q7 25 7 56v613q0 46 -14.5 67t-49.5 21v21q31 -3 62 -3q87 0 146 14v-346q21 46 61 70.5t92 24.5q81 0 131 -66.5zM370 69q27 62 27 189q0 123 -23 176.5t-66 53.5
q-32 0 -58.5 -23.5t-35.5 -63.5v-367q33 -27 74 -27q55 0 82 62z" />
    <glyph glyph-name="c" unicode="c" horiz-adv-x="496" 
d="M354 523q33 -8 55 -22q26 -16 40.5 -40.5t14.5 -53.5q0 -35 -22 -57.5t-57 -22.5t-56 20t-21 54q0 30 19 52t47 30q-8 11 -24.5 17.5t-35.5 6.5q-60 0 -93.5 -65.5t-33.5 -171.5q0 -107 38 -154t95 -47q34 0 68.5 18t62.5 63l17 -6q-20 -65 -70 -111.5t-129 -46.5
q-103 0 -168 68t-65 202q0 88 32 150t88 93.5t128 31.5q37 0 70 -8z" />
    <glyph glyph-name="d" unicode="d" horiz-adv-x="598" 
d="M530 43q14 -21 50 -21v-21q-31 3 -62 3q-89 0 -146 -14v86q-34 -90 -130 -90q-94 0 -149.5 68.5t-54.5 206.5q0 88 28.5 148.5t79 91t115.5 30.5q73 0 111 -38v170q0 46 -14.5 67t-49.5 21v21q32 -3 62 -3q87 0 146 14v-673q0 -46 14 -67zM341.5 53q25.5 24 30.5 65v350
q-25 34 -73 34q-53 0 -82 -61t-28 -182q-1 -122 23.5 -176t70.5 -54q33 0 58.5 24z" />
    <glyph glyph-name="e" unicode="e" horiz-adv-x="504" 
d="M450 148l18 -6q-20 -65 -71.5 -110.5t-128.5 -45.5q-106 0 -168.5 67.5t-62.5 199.5q0 135 67 206.5t178 71.5q188 0 188 -222h-281q-1 -15 -1 -47q0 -66 18.5 -110t48 -64t63.5 -20q82 0 132 80zM216.5 465.5q-23.5 -44.5 -29.5 -137.5h157q2 79 -15.5 130.5t-52.5 51.5
q-36 0 -59.5 -44.5z" />
    <glyph glyph-name="f" unicode="f" horiz-adv-x="352" 
d="M395 749q15 -12 24.5 -31.5t9.5 -43.5q0 -28 -20 -48.5t-51 -20.5q-34 0 -55 19t-21 52q0 26 15 46t44 28q-3 6 -12.5 10t-23.5 4q-38 0 -54 -26q-11 -15 -15 -44t-4 -87v-91h107v-20h-107v-393q0 -46 23.5 -64t70.5 -18v-21l-28 1q-111 3 -144 3q-30 0 -130 -4v21
q36 0 50 15.5t14 56.5v403h-68v20h68q0 87 14 134.5t49 81.5q22 22 59 36t78 14q62 0 107 -33z" />
    <glyph glyph-name="g" unicode="g" horiz-adv-x="553" 
d="M464 434.5q-14 13.5 -14 38.5q0 24 12 49q-24 -10 -39.5 -22.5t-26.5 -31.5q31 -37 31 -96q0 -79 -54.5 -119t-144.5 -40h-18q-41 -24 -41 -53q0 -32 40 -32h109q88 0 140.5 -32.5t52.5 -99.5q0 -51 -32.5 -92.5t-98.5 -66.5t-162 -25q-97 0 -155.5 24.5t-58.5 70.5
q0 31 28 55.5t83 38.5l9 -16q-36 -30 -36 -69q0 -42 38 -64.5t105 -22.5q70 0 113.5 28t43.5 79q0 33 -24.5 52t-85.5 19h-62q-64 0 -100 21.5t-36 65.5q0 37 26 66t79 56q-72 9 -114 48t-42 108q0 79 54.5 119t144.5 40q100 0 153 -47q19 27 47 43t57 16q30 0 47.5 -17.5
t17.5 -45.5t-15.5 -43.5t-36.5 -15.5q-20 0 -34 13.5zM270.5 263q14.5 32 14.5 109t-14.5 109t-42.5 32t-42.5 -32t-14.5 -109t14.5 -109t42.5 -32t42.5 32z" />
    <glyph glyph-name="h" unicode="h" horiz-adv-x="608" 
d="M227 438q45 93 163 93q78 0 110 -39q17 -19 24.5 -49.5t7.5 -80.5v-269q0 -41 14 -56.5t50 -15.5v-21q-104 4 -132 4q-34 0 -130 -4v21q30 0 42 15.5t12 56.5v311q0 41 -13.5 62t-48.5 21q-42 0 -70.5 -32.5t-28.5 -82.5v-279q0 -41 12 -56.5t42 -15.5v-21q-96 4 -124 4
q-34 0 -138 -4v21q35 0 49.5 15.5t14.5 56.5v569q0 46 -14.5 67t-49.5 21v21q32 -3 62 -3q87 0 146 14v-344z" />
    <glyph glyph-name="i" unicode="i" horiz-adv-x="315" 
d="M220.5 754.5q24.5 -20.5 24.5 -56.5t-24.5 -56.5t-66.5 -20.5t-66.5 20.5t-24.5 56.5t24.5 56.5t66.5 20.5t66.5 -20.5zM232 93q0 -41 14.5 -56.5t49.5 -15.5v-21q-100 4 -133 4q-31 0 -139 -4v21q36 0 50 15.5t14 56.5v315q0 46 -14 67t-50 21v21q32 -3 62 -3
q89 0 146 14v-435z" />
    <glyph glyph-name="j" unicode="j" horiz-adv-x="297" 
d="M-23 -170q50 2 78.5 40t28.5 112v426q0 46 -14.5 67t-49.5 21v21q32 -3 62 -3q87 0 146 14v-434q0 -84 -16.5 -138t-55.5 -90q-59 -54 -179 -54v18zM211.5 754.5q24.5 -20.5 24.5 -56.5t-24.5 -56.5t-66.5 -20.5t-66.5 20.5t-24.5 56.5t24.5 56.5t66.5 20.5t66.5 -20.5z
" />
    <glyph glyph-name="k" unicode="k" horiz-adv-x="585" 
d="M558 37.5q10 -11.5 26 -16.5v-21q-80 4 -105 4q-33 0 -129 -4v21q14 0 22 5t8 14q0 5 -5 15l-99 179q-10 17 -21 23t-28 8v-172q0 -41 13 -56.5t47 -15.5v-21q-100 4 -130 4q-34 0 -138 -4v21q35 0 49.5 15.5t14.5 56.5v570q0 46 -14.5 67t-49.5 21v21q32 -3 62 -3
q87 0 146 14v-499q20 2 34.5 8t25.5 18l76 74q33 33 33 61q0 23 -21 36.5t-56 15.5v20q55 -3 117 -3q83 0 117 3v-20q-59 -13 -125 -77l-64 -66l168 -281q16 -24 26 -35.5z" />
    <glyph glyph-name="l" unicode="l" horiz-adv-x="311" 
d="M228 93q0 -41 14 -56.5t50 -15.5v-21q-104 4 -134 4q-34 0 -138 -4v21q35 0 49.5 15.5t14.5 56.5v570q0 46 -14.5 67t-49.5 21v21q32 -3 62 -3q87 0 146 14v-690z" />
    <glyph glyph-name="m" unicode="m" horiz-adv-x="905" 
d="M842.5 36.5q14.5 -15.5 49.5 -15.5v-21q-100 4 -132 4q-28 0 -124 -4v21q27 0 37.5 15t10.5 57v311q0 42 -12.5 62.5t-47.5 20.5q-37 0 -64.5 -31t-32.5 -76v-18v-269q0 -41 12.5 -56.5t45.5 -15.5v-21q-96 4 -126 4q-28 0 -124 -4v21q27 0 37.5 15.5t10.5 56.5v311
q0 42 -11 62.5t-43 20.5q-40 0 -68.5 -33.5t-28.5 -82.5v-278q0 -41 10.5 -56.5t37.5 -15.5v-21q-88 4 -118 4t-138 -4v21q36 0 50 15.5t14 56.5v315q0 46 -14 67t-50 21v21q32 -3 62 -3q89 0 146 14v-90q44 93 155 93q76 0 110 -39q19 -20 25 -60q26 54 68 76.5t98 22.5
q76 0 110 -39q16 -18 23 -49t7 -81v-269q0 -41 14.5 -56.5z" />
    <glyph glyph-name="n" unicode="n" horiz-adv-x="614" 
d="M506 492q17 -19 24 -49t7 -81v-269q0 -41 14.5 -56.5t49.5 -15.5v-21q-100 4 -132 4q-30 0 -130 -4v21q30 0 42 15.5t12 56.5v311q0 41 -13.5 62t-48.5 21q-41 0 -70 -33.5t-29 -82.5v-278q0 -41 12 -56.5t42 -15.5v-21q-92 4 -124 4q-30 0 -138 -4v21q36 0 50 15.5
t14 56.5v315q0 46 -14 67t-50 21v21q32 -3 62 -3q89 0 146 14v-90q45 93 164 93q76 0 110 -39z" />
    <glyph glyph-name="o" unicode="o" horiz-adv-x="565" 
d="M462 465.5q65 -65.5 65 -207.5t-65 -207t-180 -65q-114 0 -179.5 65t-65.5 207t65.5 207.5t179.5 65.5q115 0 180 -65.5zM213.5 448.5q-25.5 -62.5 -25.5 -190.5t25.5 -190t68.5 -62q44 0 69 61.5t25 190.5t-25.5 191t-68.5 62t-68.5 -62.5z" />
    <glyph glyph-name="p" unicode="p" horiz-adv-x="600" 
d="M475.5 503q40.5 -28 63.5 -84t23 -137q0 -143 -62.5 -219.5t-169.5 -76.5q-30 0 -56.5 8t-45.5 24v-100q0 -44 22 -61t68 -17v-21l-27 1q-111 3 -141 3t-126 -4v21q33 0 46.5 14.5t13.5 53.5v500q0 46 -14.5 67t-49.5 21v21q32 -3 62 -3q87 0 146 14v-92q21 46 61 70.5
t94 24.5q52 0 92.5 -28zM383 76.5q28 63.5 28 185.5t-22.5 174t-64.5 52q-34 0 -60.5 -23t-35.5 -64v-361q24 -27 63 -27q64 0 92 63.5z" />
    <glyph glyph-name="q" unicode="q" horiz-adv-x="585" 
d="M528.5 -145.5q13.5 -14.5 46.5 -14.5v-21q-96 4 -126 4t-141 -3l-27 -1v21q46 0 68 17t22 61v159q-17 -45 -50 -68t-79 -23q-91 0 -148 69t-57 206q0 132 59.5 201t159.5 69q42 0 71.5 -9.5t52.5 -31.5q35 -1 71 11.5t56 31.5l15 -8q-7 -25 -7 -57v-560q0 -39 13.5 -53.5
zM338.5 51.5q24.5 22.5 32.5 60.5v368q-29 30 -77 30q-106 0 -106 -251q0 -123 25 -176.5t71 -53.5q30 0 54.5 22.5z" />
    <glyph glyph-name="r" unicode="r" horiz-adv-x="467" 
d="M436 504q23 -27 23 -65q0 -37 -21.5 -60.5t-56.5 -23.5q-34 0 -54 17.5t-20 46.5q0 48 44 78q-4 1 -12 1q-10 0 -16 -2q-38 -6 -64.5 -46t-26.5 -82v-265q0 -46 22.5 -64t71.5 -18v-21q-14 0 -23 1q-102 3 -136 3q-27 0 -123 -3q-8 -1 -20 -1v21q36 0 50 15.5t14 56.5
v315q0 46 -14 67t-50 21v21q32 -3 62 -3q89 0 146 14v-93q19 43 55 69.5t81 26.5t68 -27z" />
    <glyph glyph-name="s" unicode="s" horiz-adv-x="462" 
d="M292 521.5q32 -9.5 49 -21.5q10 -7 18 -7q9 0 15.5 9.5t8.5 27.5h21q-4 -51 -4 -176h-21q-9 66 -39.5 110.5t-88.5 44.5q-30 0 -49.5 -17t-19.5 -47q0 -34 23 -58.5t72 -59.5l29 -21q61 -46 90 -82t29 -90q0 -44 -25.5 -78t-68.5 -52t-95 -18q-55 0 -94 21q-32 16 -46 21
q-10 3 -17.5 -6.5t-11.5 -28.5h-21q4 57 4 200h21q20 -184 135 -184q29 0 49.5 17.5t20.5 53.5q0 28 -12.5 50t-31.5 39t-57 47q-45 36 -68.5 58t-40 52t-16.5 67q0 64 50 101t122 37q38 0 70 -9.5z" />
    <glyph glyph-name="t" unicode="t" horiz-adv-x="352" 
d="M227 517h118v-20h-118v-404q0 -30 10.5 -42.5t33.5 -12.5q43 0 68 60l17 -9q-38 -103 -137 -103q-66 0 -100 34q-21 21 -28.5 52.5t-7.5 86.5v338h-84v20h84v132q83 0 144 32v-164z" />
    <glyph glyph-name="u" unicode="u" horiz-adv-x="606" 
d="M522 109q0 -46 14.5 -67t49.5 -21v-21q-31 3 -62 3q-87 0 -146 -14v90q-46 -93 -161 -93q-75 0 -109 39q-16 19 -23.5 49.5t-7.5 80.5v253q0 46 -14.5 67t-49.5 21v21q31 -3 62 -3q87 0 146 14v-414q0 -42 12.5 -63t47.5 -21q40 0 68.5 33.5t28.5 82.5v262q0 46 -14.5 67
t-49.5 21v21q32 -3 62 -3q87 0 146 14v-419z" />
    <glyph glyph-name="v" unicode="v" horiz-adv-x="508" 
d="M507 517v-20q-21 -6 -37.5 -25.5t-31.5 -60.5l-146 -413q-11 1 -33 1q-21 0 -32 -1l-178 442q-14 34 -28.5 45t-29.5 11v21q70 -5 142 -5q63 0 130 5v-21q-34 0 -48.5 -4.5t-14.5 -24.5q0 -8 5 -25l114 -303l72 198q16 47 16 81q0 73 -73 79v20q46 -3 96 -3q51 0 77 3z
" />
    <glyph glyph-name="w" unicode="w" horiz-adv-x="787" 
d="M787 517v-20q-21 -6 -38 -25t-30 -61l-133 -413q-11 1 -33 1q-21 0 -32 -1l-136 371l-111 -371q-10 1 -32 1t-33 -1l-158 442q-12 35 -27 45.5t-31 10.5v21q65 -6 142 -6q50 0 130 6v-21q-33 0 -47.5 -5t-14.5 -24q0 -13 5 -27l90 -283l109 361l37 -1l36 1l130 -382
l63 201q14 47 14 76q0 78 -79 84v20q47 -3 103 -3q51 0 76 3z" />
    <glyph glyph-name="x" unicode="x" horiz-adv-x="536" 
d="M508 36q12 -12 28 -15v-21q-80 4 -107 4q-30 0 -130 -4v21q15 0 24.5 5t9.5 15q0 6 -5 14l-104 155l-35 -44q-33 -43 -33 -80q0 -28 19.5 -45.5t52.5 -20.5v-20q-58 3 -144 3q-41 0 -70 -3v20q23 8 44 26t47 51l107 131l-147 218q-19 27 -30 37.5t-26 12.5v21
q88 -4 119 -4q26 0 118 4v-21q-15 0 -24.5 -5t-9.5 -15q0 -8 5 -14l94 -140l38 50q35 46 35 77q0 21 -15.5 33.5t-45.5 14.5v20q58 -3 113 -3q42 0 71 3v-20q-42 -14 -92 -77l-92 -115l157 -234q16 -23 28 -35z" />
    <glyph glyph-name="y" unicode="y" horiz-adv-x="519" 
d="M513 517v-20q-21 -6 -37.5 -25.5t-31.5 -60.5l-179 -503q-20 -52 -44 -71q-29 -25 -87 -25q-42 0 -75.5 20.5t-33.5 59.5q0 31 22 49.5t58 18.5q34 0 54.5 -16.5t20.5 -46.5q0 -21 -13 -38.5t-37 -26.5q7 -1 23 -1q62 0 91 79l16 48l-212 482q-16 34 -31 45t-31 11v21
q66 -6 137 -6q59 0 139 6v-21q-32 0 -47.5 -4.5t-15.5 -23.5q0 -11 7 -28l122 -295l69 192q16 47 16 80q0 73 -74 80v20q47 -3 97 -3t77 3z" />
    <glyph glyph-name="z" unicode="z" horiz-adv-x="474" 
d="M194 15h52q64 0 108 42.5t52 136.5h21q0 -142 4 -198q-81 4 -192 4q-98 0 -208 -5l250 507h-56q-143 0 -156 -179h-21q0 142 -4 198q81 -4 192 -4q98 0 208 5z" />
    <glyph glyph-name="braceleft" unicode="{" horiz-adv-x="333" 
d="M316 763q-32 -1 -47 -15t-21 -57.5t-6 -139.5q0 -123 -53 -177.5t-144 -74.5q91 -20 144 -75t53 -177q0 -100 6 -144t20.5 -57.5t47.5 -14.5v-19q-83 0 -129.5 20.5t-67.5 71.5t-21 143q0 96 -6.5 146.5t-22.5 72t-47 24.5h-5v18h5q31 2 47 23.5t22.5 72t6.5 147.5
q0 89 21 138.5t68 71t129 21.5v-19z" />
    <glyph glyph-name="bar" unicode="|" horiz-adv-x="253" 
d="M171 -195h-88v1053h88v-1053z" />
    <glyph glyph-name="braceright" unicode="}" horiz-adv-x="333" 
d="M17 763q32 -1 47 -15t21 -57.5t6 -139.5q0 -123 53 -177.5t144 -74.5q-91 -20 -144 -75t-53 -177q0 -100 -6 -144t-20.5 -57.5t-47.5 -14.5v-19q83 0 129.5 20.5t67.5 71.5t21 143q0 96 6.5 146.5t22.5 72t47 24.5h5v18h-5q-31 2 -47 23.5t-22.5 72t-6.5 147.5
q0 89 -21 138.5t-68 71t-129 21.5v-19z" />
    <glyph glyph-name="asciitilde" unicode="~" horiz-adv-x="668" 
d="M282 377.5q32 -11.5 75 -34.5q44 -22 72.5 -32.5t61.5 -10.5q75 0 102 70l18 -4q-7 -70 -51 -112.5t-103 -42.5q-36 0 -67.5 11.5t-74.5 33.5t-73 33t-63 11q-73 0 -102 -70l-17 4q7 70 50.5 112.5t102.5 42.5q37 0 69 -11.5z" />
    <glyph glyph-name="uni00A0" unicode="&#xa0;" horiz-adv-x="233" 
 />
    <glyph glyph-name="exclamdown" unicode="&#xa1;" horiz-adv-x="277" 
d="M201 510.5q23 -20.5 23 -56.5t-23 -56.5t-62 -20.5t-62 20.5t-23 56.5t23 56.5t62 20.5t62 -20.5zM160 200q11 -57 32 -141q14 -59 21 -93t7 -60q0 -46 -22.5 -70t-59.5 -24q-36 0 -59 24.5t-23 69.5q0 25 6.5 58t21.5 93q21 85 32 142.5t13 118.5h18q2 -61 13 -118z" />
    <glyph glyph-name="cent" unicode="&#xa2;" horiz-adv-x="499" 
d="M397.5 35q-47.5 -46 -122.5 -49v-167h-22v167q-99 4 -160 72t-61 198q0 123 61 194t160 80v178h22v-177h5q37 0 70 -8t55 -22q26 -16 40.5 -40.5t14.5 -53.5q0 -35 -22 -57.5t-57 -22.5t-56 20t-21 54q0 30 19 52t47 30q-8 11 -24.5 17.5t-35.5 6.5q-60 0 -93.5 -65.5
t-33.5 -171.5q0 -107 38 -154t95 -47q34 0 68.5 18t62.5 63l17 -6q-19 -63 -66.5 -109z" />
    <glyph glyph-name="sterling" unicode="&#xa3;" horiz-adv-x="660" 
d="M591.5 209q37.5 -34 37.5 -88q0 -61 -38.5 -98t-112.5 -37q-38 0 -71 10t-81 30q-43 19 -74 28q-28 8 -49 8q-28 0 -55 -10q-21 -32 -45 -49t-48 -17q-22 0 -22 16t24.5 34.5t62.5 27.5q10 29 12.5 62.5t2.5 99.5v32v39h-77v20h77v80h-77v20h77v22q0 297 252 297
q71 0 109 -24q50 -30 50 -77q0 -31 -20.5 -51.5t-51.5 -20.5q-32 0 -52 18.5t-20 47.5q0 26 13.5 45.5t38.5 28.5q-8 7 -24 11.5t-35 4.5q-48 0 -72.5 -28t-32.5 -81t-8 -145v-48h121v-20h-121v-60q0 -14 -1 -20h122v-20h-124q-7 -50 -29 -89.5t-68 -99.5l-25 -34
q43 36 79.5 50t70.5 14q26 0 47 -4t54 -13q31 -8 51 -12t44 -4q31 0 49 16.5t18 40.5q0 30 -19.5 48.5t-53.5 25.5l4 16q53 -9 90.5 -43z" />
    <glyph glyph-name="currency" unicode="&#xa4;" horiz-adv-x="615" 
d="M557 463l-60 -59q28 -48 28 -104q0 -57 -28 -104l59 -59l-85 -85l-59 59q-48 -28 -104 -28q-57 0 -104 28l-58 -59l-86 85l58 58q-28 51 -28 105q0 56 29 104l-59 59l85 85l59 -59q46 29 104 29q56 0 104 -29l60 59zM227 388q-34 -37 -34 -88t34 -87.5t82 -36.5
q31 0 57.5 17t42 45.5t15.5 61.5t-15.5 62t-42 46t-57.5 17q-48 0 -82 -37z" />
    <glyph glyph-name="yen" unicode="&#xa5;" horiz-adv-x="678" 
d="M649 709v-20q-46 -19 -96 -116l-118 -234v-36h124v-20h-124v-80h124v-20h-124v-77q0 -38 5.5 -55t20.5 -23t49 -8v-20q-54 3 -154 3q-107 0 -155 -3v20q33 2 48.5 8t21 23t5.5 55v77h-126v20h126v72l-4 8h-122v20h111l-178 329q-31 56 -58 56v21q44 -5 118 -5q93 0 188 5
v-21q-35 0 -55.5 -6.5t-20.5 -23.5q0 -9 7 -22l152 -293l78 156q39 79 39 124q0 34 -21.5 49t-61.5 17v20q68 -3 125 -3q46 0 76 3z" />
    <glyph glyph-name="brokenbar" unicode="&#xa6;" horiz-adv-x="256" 
d="M172 384h-88v474h88v-474zM172 -195h-88v521h88v-521z" />
    <glyph glyph-name="section" unicode="&#xa7;" horiz-adv-x="581" 
d="M518 196.5q-29 -40.5 -96 -75.5q38 -33 56.5 -67t18.5 -75q0 -50 -28.5 -88t-80.5 -58.5t-119 -20.5t-118 22q-66 32 -66 93q0 29 20.5 49.5t53.5 20.5q34 0 55 -19t21 -50q0 -25 -13.5 -45.5t-37.5 -28.5q6 -10 29.5 -16.5t48.5 -6.5q54 0 79.5 26.5t25.5 64.5
q0 33 -15 58t-39 44.5t-72 51.5l-34 23q-64 43 -98.5 72t-53.5 61.5t-19 74.5q0 50 28.5 91t95.5 76q-38 33 -56 66.5t-18 74.5q0 50 28.5 88t80 58.5t118.5 20.5q70 0 118 -22q66 -32 66 -93q0 -29 -20.5 -49.5t-53.5 -20.5q-34 0 -55 19t-21 50q0 25 13.5 45.5t37.5 28.5
q-6 11 -29.5 17t-48.5 6q-54 0 -79 -26.5t-25 -64.5q0 -34 15 -59t39.5 -44.5t73.5 -52.5l32 -21q64 -43 98.5 -72t53.5 -61.5t19 -74.5q0 -50 -29 -90.5zM430.5 171q8.5 19 8.5 44q0 29 -16.5 54t-49.5 51t-96 68q-72 48 -99 70q-17 -16 -25.5 -35t-8.5 -44q0 -29 16.5 -54
t49.5 -51t96 -68q72 -48 99 -70q17 16 25.5 35z" />
    <glyph glyph-name="dieresis" unicode="&#xa8;" horiz-adv-x="478" 
d="M178 737.5q23 -22.5 23 -52.5q0 -31 -23 -53t-53 -22q-31 0 -53 22t-22 53q0 30 22 52.5t53 22.5q30 0 53 -22.5zM405.5 737.5q22.5 -22.5 22.5 -52.5q0 -31 -22.5 -53t-52.5 -22q-32 0 -54 22t-22 53q0 30 22.5 52.5t53.5 22.5q30 0 52.5 -22.5z" />
    <glyph glyph-name="copyright" unicode="&#xa9;" horiz-adv-x="881" 
d="M639.5 728.5q91.5 -53.5 145 -145t53.5 -199.5t-53.5 -199.5t-145 -145t-199.5 -53.5t-199.5 53.5t-145 145t-53.5 199.5t53.5 199.5t145 145t199.5 53.5t199.5 -53.5zM260.5 700.5q-82.5 -49.5 -130.5 -133.5t-48 -183t48 -183t130.5 -133.5t179.5 -49.5t179.5 49.5
t130.5 133.5t48 183t-48 183t-130.5 133.5t-179.5 49.5t-179.5 -49.5zM534 648q33 -9 56 -23q24 -16 38.5 -39.5t14.5 -52.5q0 -35 -22 -57.5t-57 -22.5t-56 20.5t-21 54.5q0 30 18.5 51.5t47.5 29.5q-10 11 -29.5 18t-40.5 7q-29 0 -53 -18q-31 -18 -47.5 -69t-16.5 -152
q0 -116 37.5 -167.5t94.5 -51.5q83 0 131 100l18 -7q-20 -65 -70.5 -111t-128.5 -46q-104 0 -168.5 67.5t-64.5 202.5q0 88 31.5 150t88 93.5t128.5 31.5q38 0 71 -9z" />
    <glyph glyph-name="ordfeminine" unicode="&#xaa;" horiz-adv-x="482" 
d="M357 692q36 -30 36 -97v-168q0 -14 4.5 -20t14.5 -6q16 0 29 11l11 -15q-48 -37 -114 -37q-39 0 -55 12t-18 35q-48 -47 -120 -47q-43 0 -71 20t-28 59t32 61.5t107 46.5q80 26 80 56v18q0 43 -15.5 62.5t-46.5 19.5q-32 0 -55 -15q21 -6 32.5 -22t11.5 -35
q0 -27 -19.5 -42.5t-47.5 -15.5q-30 0 -48 15.5t-18 41.5q0 23 14.5 40.5t39.5 28.5q50 23 128 23q80 0 116 -30zM224 534q-23 -17 -34 -35t-11 -41t10.5 -37t27.5 -14q26 0 48 19v147q-7 -15 -41 -39z" />
    <glyph glyph-name="guillemotleft" unicode="&#xab;" horiz-adv-x="569" 
d="M317 527q-23 -77 -62.5 -151t-79.5 -116q40 -41 79 -116.5t63 -153.5l-15 -5q-62 86 -128.5 151.5t-147.5 115.5v13q80 50 146.5 116t129.5 152zM516 503q-20 -71 -54 -138t-69 -105q35 -38 69 -106t54 -140l-15 -5q-56 78 -117 138t-134 105v13q74 45 134.5 105.5
t116.5 138.5z" />
    <glyph glyph-name="logicalnot" unicode="&#xac;" horiz-adv-x="642" 
d="M575 165h-36v175h-465v30h501v-205z" />
    <glyph glyph-name="uni00AD" unicode="&#xad;" horiz-adv-x="481" 
 />
    <glyph glyph-name="registered" unicode="&#xae;" horiz-adv-x="665" 
d="M472 744.5q64 -37.5 101.5 -101.5t37.5 -140t-37.5 -140t-101.5 -101.5t-140 -37.5t-140 37.5t-101.5 101.5t-37.5 140t37.5 140t101.5 101.5t140 37.5t140 -37.5zM451.5 289.5q54.5 33.5 86 90t31.5 123.5t-31.5 123.5t-86 90t-119.5 33.5t-119.5 -33.5t-86 -90
t-31.5 -123.5t31.5 -123.5t86 -90t119.5 -33.5t119.5 33.5zM501 364q-15 -18 -52 -18q-32 0 -48 10.5t-21 32.5l-15 73q-4 18 -9 26.5t-17 13t-37 5.5v-103q0 -23 4 -29t19 -8v-15l-63 1l-66 -1v15q15 2 19 8t4 29v219q0 23 -4 29.5t-19 8.5v15q14 -1 62 -1l86 1
q122 0 122 -79q0 -27 -23 -49.5t-80 -32.5q46 -4 64.5 -17t24.5 -41l15 -65q3 -13 6 -18.5t9 -5.5t11 6zM307 655.5q-5 -5.5 -5 -22.5v-109h12q68 0 68 67q0 35 -13 52.5t-41 17.5q-16 0 -21 -5.5z" />
    <glyph glyph-name="macron" unicode="&#xaf;" horiz-adv-x="436" 
d="M386 687h-336v25h336v-25z" />
    <glyph glyph-name="degree" unicode="&#xb0;" horiz-adv-x="311" 
d="M241.5 787q35.5 -33 35.5 -87t-35.5 -87.5t-86.5 -33.5q-50 0 -85.5 33.5t-35.5 87.5t35.5 87t85.5 33q51 0 86.5 -33zM88.5 775q-29.5 -28 -29.5 -76q0 -49 29 -76t67 -27t67.5 27t29.5 76q0 48 -30 76t-67 28t-66.5 -28z" />
    <glyph glyph-name="plusminus" unicode="&#xb1;" horiz-adv-x="579" 
d="M541 0h-501v30h501v-30zM306 370h232v-30h-232v-235h-36v235h-233v30h233v236h36v-236z" />
    <glyph glyph-name="uni00B2" unicode="&#xb2;" horiz-adv-x="351" 
d="M259.5 736q30.5 -19 30.5 -55t-26 -62.5t-80 -62.5q-45 -29 -59 -41h135q22 0 30.5 7.5t16.5 26.5l17 -3q-14 -68 -15 -111q-12 3 -38 3h-244v20q19 16 41 32q61 47 95 85.5t34 87.5q0 25 -16 38.5t-45 13.5q-56 0 -87 -48l-15 8q20 35 55.5 57.5t89.5 22.5
q50 0 80.5 -19z" />
    <glyph glyph-name="uni00B3" unicode="&#xb3;" horiz-adv-x="330" 
d="M253 737q32 -19 32 -53q0 -35 -31 -59.5t-86 -35.5q56 2 95 -23t39 -68q0 -46 -40.5 -78.5t-104.5 -50.5t-133 -21v17q83 8 135 45t52 93q0 31 -16.5 52t-44.5 23q-5 -3 -16.5 -8.5t-19.5 -5.5q-16 0 -16 12q0 10 11.5 12.5t32.5 1.5q27 13 38.5 33.5t11.5 39.5
q0 25 -17 40t-46 15q-27 0 -50 -13t-38 -37l-15 8q44 80 145 80q50 0 82 -19z" />
    <glyph glyph-name="acute" unicode="&#xb4;" horiz-adv-x="296" 
d="M245 779q0 -21 -15 -41q-11 -13 -27.5 -26.5t-35.5 -27.5q-60 -42 -106 -85l-11 9q27 49 56 123q13 31 20.5 46.5t18.5 28.5q19 24 47 24q21 0 35 -13q18 -13 18 -38z" />
    <glyph glyph-name="paragraph" unicode="&#xb6;" horiz-adv-x="732" 
d="M526 707l90 -1q51 0 76 2v-19q-43 -2 -57 -17t-14 -51v-696q0 -38 5.5 -55t20.5 -23t49 -8v-20q-62 3 -175 3q-109 0 -160 -3v20q42 2 63.5 11t29.5 28.5t8 56.5v52q-225 0 -327 100.5t-102 272.5q0 102 46.5 181t134 123.5t207.5 44.5q39 0 105 -2zM447.5 614.5
q-10.5 -41.5 -19 -106.5t-9.5 -136q-75 0 -143 -4t-111 -9.5t-43 -7.5q0 -5 92 -12.5t205 -7.5q1 -73 9.5 -138t19 -105t15.5 -40v608q-5 0 -15.5 -41.5z" />
    <glyph glyph-name="periodcentered" unicode="&#xb7;" horiz-adv-x="278" 
d="M201 337.5q23 -20.5 23 -56.5t-23 -56.5t-62 -20.5t-62 20.5t-23 56.5t23 56.5t62 20.5t62 -20.5z" />
    <glyph glyph-name="cedilla" unicode="&#xb8;" horiz-adv-x="327" 
d="M137 -65q31 12 71 12q33 0 51 -14.5t18 -39.5q0 -40 -40 -60.5t-100 -20.5q-53 0 -87 12l5 18q32 -4 44 -4q29 0 51 10t22 31q0 26 -33 26q-23 0 -40 -7l32 104h27z" />
    <glyph glyph-name="uni00B9" unicode="&#xb9;" horiz-adv-x="283" 
d="M203 507q0 -28 15 -38.5t52 -10.5v-21q-44 2 -115 2t-119 -2v21q37 0 55.5 10.5t18.5 38.5v129q0 29 -7 42.5t-23.5 18t-50.5 4.5v21q62 1 101 8t73 23v-246z" />
    <glyph glyph-name="ordmasculine" unicode="&#xba;" horiz-adv-x="468" 
d="M374 674.5q55 -47.5 55 -133.5t-55 -133.5t-140 -47.5t-140 47.5t-55 133.5t55 133.5t140 47.5t140 -47.5zM189.5 664q-16.5 -40 -16.5 -123t16.5 -123t44.5 -40t45 40t17 123t-17 123t-45 40t-44.5 -40z" />
    <glyph glyph-name="guillemotright" unicode="&#xbb;" horiz-adv-x="569" 
d="M395.5 381.5q66.5 -66.5 147.5 -117.5v-12q-81 -51 -147.5 -117.5t-127.5 -150.5l-16 6q23 77 62.5 151t79.5 116q-40 41 -79 116t-63 154l16 5q61 -84 127.5 -150.5zM186.5 369q60.5 -60 133.5 -105v-12q-73 -45 -134 -105t-118 -139l-15 6q20 71 54 138t69 105
q-35 38 -69 106t-54 140l15 5q58 -79 118.5 -139z" />
    <glyph glyph-name="onequarter" unicode="&#xbc;" horiz-adv-x="709" 
d="M682 811l-585 -866l-19 13l585 866zM218 507q0 -28 15 -38.5t52 -10.5v-21q-44 2 -115 2t-119 -2v21q37 0 55.5 10.5t18.5 38.5v129q0 29 -7 42.5t-23.5 18t-50.5 4.5v21q62 1 101 8t73 23v-246zM639 107q-11 -35 -14 -92q-12 3 -38 3h-26v-117h-73v117h-195v21l247 273
h21v-236h14q22 0 30.5 7.5t16.5 26.5zM488 76v155l-140 -155h140z" />
    <glyph glyph-name="onehalf" unicode="&#xbd;" horiz-adv-x="720" 
d="M666 811l-585 -866l-19 13l585 866zM220 507q0 -28 15 -38.5t52 -10.5v-21q-44 2 -115 2t-119 -2v21q37 0 55.5 10.5t18.5 38.5v129q0 29 -7 42.5t-23.5 18t-50.5 4.5v21q62 1 101 8t73 23v-246zM621.5 299q30.5 -19 30.5 -55t-26 -62.5t-80 -62.5q-45 -29 -59 -41h135
q22 0 30.5 7.5t16.5 26.5l17 -3q-14 -68 -15 -111q-12 3 -38 3h-244v20q19 16 41 32q61 47 95 85.5t34 87.5q0 25 -16 38.5t-45 13.5q-56 0 -87 -48l-15 8q20 35 55.5 57.5t89.5 22.5q50 0 80.5 -19z" />
    <glyph glyph-name="threequarters" unicode="&#xbe;" horiz-adv-x="752" 
d="M724 811l-585 -866l-19 13l585 866zM274 737q32 -19 32 -53q0 -35 -31 -59.5t-86 -35.5q56 2 95 -23t39 -68q0 -46 -40.5 -78.5t-104.5 -50.5t-133 -21v17q83 8 135 45t52 93q0 31 -16.5 52t-44.5 23q-5 -3 -16.5 -8.5t-19.5 -5.5q-16 0 -16 12q0 10 11.5 12.5t32.5 1.5
q27 13 38.5 33.5t11.5 39.5q0 25 -17 40t-46 15q-27 0 -50 -13t-38 -37l-15 8q44 80 145 80q50 0 82 -19zM685 107q-11 -35 -14 -92q-12 3 -38 3h-26v-117h-73v117h-195v21l247 273h21v-236h14q22 0 30.5 7.5t16.5 26.5zM534 76v155l-140 -155h140z" />
    <glyph glyph-name="questiondown" unicode="&#xbf;" horiz-adv-x="503" 
d="M355 511.5q23 -20.5 23 -56.5t-23 -56.5t-62 -20.5t-62 20.5t-23 56.5t23 56.5t62 20.5t62 -20.5zM304 185q-78 -33 -105 -79t-27 -111q0 -83 32.5 -123t89.5 -40q28 0 51.5 5.5t35.5 16.5q-56 17 -56 73q0 32 22.5 52t57.5 20q31 0 50.5 -20t19.5 -49q0 -54 -57 -85
q-57 -33 -149 -33q-109 0 -174.5 47t-65.5 129q0 77 68.5 130t186.5 76v129h20v-138z" />
    <glyph glyph-name="Agrave" unicode="&#xc0;" horiz-adv-x="667" 
d="M641 36q17 -15 33 -16v-20q-60 3 -152 3q-102 0 -152 -3v20q38 2 54 9.5t16 26.5q0 18 -12 48l-60 164h-218l-26 -69q-28 -72 -28 -111q0 -37 22.5 -51.5t66.5 -16.5v-20q-68 3 -124 3q-46 0 -76 -3v20q49 9 86 105l228 585q11 -1 35 -1t34 1l243 -626q13 -33 30 -48z
M361 288l-99 270l-104 -270h203zM266 913.5q13 -11.5 35 -34.5q50 -54 99 -95l-7 -12q-48 18 -85.5 28t-44.5 12q-23 5 -43 11.5t-35 14.5q-16 9 -25 22.5t-9 28.5q0 13 6 23q7 14 20.5 22t29.5 8q17 0 31 -8q15 -9 28 -20.5z" />
    <glyph glyph-name="Aacute" unicode="&#xc1;" horiz-adv-x="667" 
d="M641 36q17 -15 33 -16v-20q-60 3 -152 3q-102 0 -152 -3v20q38 2 54 9.5t16 26.5q0 18 -12 48l-60 164h-218l-26 -69q-28 -72 -28 -111q0 -37 22.5 -51.5t66.5 -16.5v-20q-68 3 -124 3q-46 0 -76 -3v20q49 9 86 105l228 585q11 -1 35 -1t34 1l243 -626q13 -33 30 -48z
M361 288l-99 270l-104 -270h203zM453 942q16 0 29.5 -8t20.5 -22q6 -10 6 -23q0 -15 -9 -28.5t-25 -22.5q-15 -8 -35 -14.5t-43 -11.5q-7 -2 -44.5 -12t-85.5 -28l-7 12q49 41 99 95q22 23 35 34.5t28 20.5q14 8 31 8z" />
    <glyph glyph-name="Acircumflex" unicode="&#xc2;" horiz-adv-x="667" 
d="M641 36q17 -15 33 -16v-20q-60 3 -152 3q-102 0 -152 -3v20q38 2 54 9.5t16 26.5q0 18 -12 48l-60 164h-218l-26 -69q-28 -72 -28 -111q0 -37 22.5 -51.5t66.5 -16.5v-20q-68 3 -124 3q-46 0 -76 -3v20q49 9 86 105l228 585q11 -1 35 -1t34 1l243 -626q13 -33 30 -48z
M361 288l-99 270l-104 -270h203zM428.5 853q54.5 -42 118.5 -69l-5 -15q-65 12 -128.5 30t-100.5 35q-31 -17 -83.5 -35t-105.5 -30l-5 15q64 27 118.5 69t86.5 87h18q32 -45 86.5 -87z" />
    <glyph glyph-name="Atilde" unicode="&#xc3;" horiz-adv-x="667" 
d="M641 36q17 -15 33 -16v-20q-60 3 -152 3q-102 0 -152 -3v20q38 2 54 9.5t16 26.5q0 18 -12 48l-60 164h-218l-26 -69q-28 -72 -28 -111q0 -37 22.5 -51.5t66.5 -16.5v-20q-68 3 -124 3q-46 0 -76 -3v20q49 9 86 105l228 585q11 -1 35 -1t34 1l243 -626q13 -33 30 -48z
M361 288l-99 270l-104 -270h203zM303.5 914q25.5 -10 56.5 -28q28 -17 49 -25t46 -8q53 0 83 54l14 -5q-13 -66 -49 -100t-84 -34q-33 0 -57.5 9.5t-56.5 28.5q-29 17 -50.5 25t-46.5 8q-51 0 -83 -55l-14 5q14 66 50.5 100.5t83.5 34.5q33 0 58.5 -10z" />
    <glyph glyph-name="Adieresis" unicode="&#xc4;" horiz-adv-x="667" 
d="M641 36q17 -15 33 -16v-20q-60 3 -152 3q-102 0 -152 -3v20q38 2 54 9.5t16 26.5q0 18 -12 48l-60 164h-218l-26 -69q-28 -72 -28 -111q0 -37 22.5 -51.5t66.5 -16.5v-20q-68 3 -124 3q-46 0 -76 -3v20q49 9 86 105l228 585q11 -1 35 -1t34 1l243 -626q13 -33 30 -48z
M361 288l-99 270l-104 -270h203zM266 894q23 -23 23 -53t-23 -52.5t-53 -22.5q-31 0 -53 22t-22 53q0 30 22.5 53t52.5 23t53 -23zM505.5 894q22.5 -23 22.5 -53q0 -31 -22.5 -53t-52.5 -22q-31 0 -53.5 22t-22.5 53q0 30 22.5 53t53.5 23q30 0 52.5 -23z" />
    <glyph glyph-name="Aring" unicode="&#xc5;" horiz-adv-x="667" 
d="M641 36q17 -15 33 -16v-20q-60 3 -152 3q-102 0 -152 -3v20q38 2 54 9.5t16 26.5q0 18 -12 48l-60 164h-218l-26 -69q-28 -72 -28 -111q0 -37 22.5 -51.5t66.5 -16.5v-20q-68 3 -124 3q-46 0 -76 -3v20q49 9 86 105l228 585q11 -1 35 -1t34 1l243 -626q13 -33 30 -48z
M361 288l-99 270l-104 -270h203zM410 910.5q32 -26.5 32 -70.5t-32 -71t-77 -27t-76.5 27t-31.5 71t31.5 70.5t76.5 26.5t77 -26.5zM277.5 895q-24.5 -21 -24.5 -56q0 -36 24.5 -56t55.5 -20q32 0 56.5 20t24.5 56q0 35 -24.5 56t-56.5 21q-31 0 -55.5 -21z" />
    <glyph glyph-name="AE" unicode="&#xc6;" horiz-adv-x="889" 
d="M844 0q-66 3 -221 3q-191 0 -288 -3v20q30 2 43.5 8t18.5 23t5 55v240h-167l-142 -242q-18 -31 -18 -49q0 -17 17 -25t52 -10v-20q-30 3 -91 3q-43 0 -67 -3v20q17 1 33 15t36 49l340 577q-6 15 -21 20t-47 7v20q58 -2 94 -2l39 66h24l-39 -66q71 -1 178 -1q141 0 201 3
q-7 -76 -7 -136q0 -44 3 -68h-23q-12 100 -43 140.5t-85 40.5h-33q-33 0 -48.5 -5.5t-21 -22.5t-5.5 -55v-236h53q31 0 49 19t23.5 38.5t14.5 60.5h23q-3 -38 -3 -85v-43q0 -45 6 -128h-23q-9 57 -26.5 87.5t-63.5 30.5h-53v-240q0 -38 5.5 -55t21 -22.5t48.5 -5.5h49
q55 0 88 46t44 155h23q-3 -33 -3 -84q0 -76 7 -140zM402 366v236q0 20 -1 28l-155 -264h156z" />
    <glyph glyph-name="Ccedilla" unicode="&#xc7;" horiz-adv-x="705" 
d="M499 705q42 -17 82 -48q11 -9 19 -9q20 0 26 60h23q-4 -68 -4 -242h-23q-9 74 -24 113t-51 68q-25 24 -58 36.5t-69 12.5q-101 0 -150 -98.5t-49 -245.5q0 -146 51 -244t152 -98q34 0 67.5 12.5t56.5 36.5q37 28 51.5 70t22.5 123h23q0 -181 4 -252h-23q-3 32 -8.5 45.5
t-15.5 13.5q-8 0 -21 -8q-45 -32 -86 -48.5t-99 -16.5q-106 0 -185.5 43t-123.5 124.5t-44 194.5q0 110 45 195t125.5 132t183.5 47q60 0 102 -17zM391 -65q34 12 77 12q36 0 55.5 -14.5t19.5 -39.5q0 -40 -45 -60.5t-113 -20.5q-57 0 -93 12l5 18q36 -4 50 -4q37 0 64 10
t27 31q0 26 -46 26q-24 0 -39 -7l33 107h27z" />
    <glyph glyph-name="Egrave" unicode="&#xc8;" horiz-adv-x="634" 
d="M589 0q-68 3 -229 3q-218 0 -326 -3v20q33 2 48.5 8t21 23t5.5 55v496q0 38 -5.5 55t-21 23t-48.5 8v20q108 -3 326 -3q147 0 209 3q-7 -83 -7 -148q0 -44 3 -68h-23q-15 107 -54 150t-110 43h-41q-31 0 -45 -5t-19 -19.5t-5 -46.5v-248h32q53 0 80.5 39t38.5 93h23
q-3 -42 -3 -94v-48q0 -51 6 -142h-23q-21 132 -122 132h-32v-252q0 -32 5 -46.5t19 -19.5t45 -5h49q71 0 114.5 48.5t61.5 164.5h23q-3 -33 -3 -84q0 -92 7 -152zM247 913.5q13 -11.5 35 -34.5q50 -54 99 -95l-7 -12q-48 18 -85.5 28t-44.5 12q-23 5 -43 11.5t-35 14.5
q-16 9 -25 22.5t-9 28.5q0 13 6 23q7 14 20.5 22t29.5 8q17 0 31 -8q15 -9 28 -20.5z" />
    <glyph glyph-name="Eacute" unicode="&#xc9;" horiz-adv-x="634" 
d="M589 0q-68 3 -229 3q-218 0 -326 -3v20q33 2 48.5 8t21 23t5.5 55v496q0 38 -5.5 55t-21 23t-48.5 8v20q108 -3 326 -3q147 0 209 3q-7 -83 -7 -148q0 -44 3 -68h-23q-15 107 -54 150t-110 43h-41q-31 0 -45 -5t-19 -19.5t-5 -46.5v-248h32q53 0 80.5 39t38.5 93h23
q-3 -42 -3 -94v-48q0 -51 6 -142h-23q-21 132 -122 132h-32v-252q0 -32 5 -46.5t19 -19.5t45 -5h49q71 0 114.5 48.5t61.5 164.5h23q-3 -33 -3 -84q0 -92 7 -152zM434 942q16 0 29.5 -8t20.5 -22q6 -10 6 -23q0 -15 -9 -28.5t-25 -22.5q-15 -8 -35 -14.5t-43 -11.5
q-7 -2 -44.5 -12t-85.5 -28l-7 12q49 41 99 95q22 23 35 34.5t28 20.5q14 8 31 8z" />
    <glyph glyph-name="Ecircumflex" unicode="&#xca;" horiz-adv-x="634" 
d="M589 0q-68 3 -229 3q-218 0 -326 -3v20q33 2 48.5 8t21 23t5.5 55v496q0 38 -5.5 55t-21 23t-48.5 8v20q108 -3 326 -3q147 0 209 3q-7 -83 -7 -148q0 -44 3 -68h-23q-15 107 -54 150t-110 43h-41q-31 0 -45 -5t-19 -19.5t-5 -46.5v-248h32q53 0 80.5 39t38.5 93h23
q-3 -42 -3 -94v-48q0 -51 6 -142h-23q-21 132 -122 132h-32v-252q0 -32 5 -46.5t19 -19.5t45 -5h49q71 0 114.5 48.5t61.5 164.5h23q-3 -33 -3 -84q0 -92 7 -152zM409.5 853q54.5 -42 118.5 -69l-5 -15q-65 12 -128.5 30t-100.5 35q-31 -17 -83.5 -35t-105.5 -30l-5 15
q64 27 118.5 69t86.5 87h18q32 -45 86.5 -87z" />
    <glyph glyph-name="Edieresis" unicode="&#xcb;" horiz-adv-x="634" 
d="M589 0q-68 3 -229 3q-218 0 -326 -3v20q33 2 48.5 8t21 23t5.5 55v496q0 38 -5.5 55t-21 23t-48.5 8v20q108 -3 326 -3q147 0 209 3q-7 -83 -7 -148q0 -44 3 -68h-23q-15 107 -54 150t-110 43h-41q-31 0 -45 -5t-19 -19.5t-5 -46.5v-248h32q53 0 80.5 39t38.5 93h23
q-3 -42 -3 -94v-48q0 -51 6 -142h-23q-21 132 -122 132h-32v-252q0 -32 5 -46.5t19 -19.5t45 -5h49q71 0 114.5 48.5t61.5 164.5h23q-3 -33 -3 -84q0 -92 7 -152zM247 894q23 -23 23 -53t-23 -52.5t-53 -22.5q-31 0 -53 22t-22 53q0 30 22.5 53t52.5 23t53 -23zM486.5 894
q22.5 -23 22.5 -53q0 -31 -22.5 -53t-52.5 -22q-31 0 -53.5 22t-22.5 53q0 30 22.5 53t53.5 23q30 0 52.5 -23z" />
    <glyph glyph-name="Igrave" unicode="&#xcc;" horiz-adv-x="376" 
d="M343 688q-34 -2 -49 -8t-20.5 -23t-5.5 -55v-496q0 -38 5.5 -55t20.5 -23t49 -8v-20q-54 3 -151 3q-107 0 -158 -3v20q33 2 48.5 8t21 23t5.5 55v496q0 38 -5.5 55t-21 23t-48.5 8v20q51 -3 158 -3q97 0 151 3v-20zM125 913.5q13 -11.5 35 -34.5q50 -54 99 -95l-7 -12
q-48 18 -85.5 28t-44.5 12q-23 5 -43 11.5t-35 14.5q-16 9 -25 22.5t-9 28.5q0 13 6 23q7 14 20.5 22t29.5 8q17 0 31 -8q15 -9 28 -20.5z" />
    <glyph glyph-name="Iacute" unicode="&#xcd;" horiz-adv-x="376" 
d="M343 688q-34 -2 -49 -8t-20.5 -23t-5.5 -55v-496q0 -38 5.5 -55t20.5 -23t49 -8v-20q-54 3 -151 3q-107 0 -158 -3v20q33 2 48.5 8t21 23t5.5 55v496q0 38 -5.5 55t-21 23t-48.5 8v20q51 -3 158 -3q97 0 151 3v-20zM312 942q16 0 29.5 -8t20.5 -22q6 -10 6 -23
q0 -15 -9 -28.5t-25 -22.5q-15 -8 -35 -14.5t-43 -11.5q-7 -2 -44.5 -12t-85.5 -28l-7 12q49 41 99 95q22 23 35 34.5t28 20.5q14 8 31 8z" />
    <glyph glyph-name="Icircumflex" unicode="&#xce;" horiz-adv-x="376" 
d="M343 688q-34 -2 -49 -8t-20.5 -23t-5.5 -55v-496q0 -38 5.5 -55t20.5 -23t49 -8v-20q-54 3 -151 3q-107 0 -158 -3v20q33 2 48.5 8t21 23t5.5 55v496q0 38 -5.5 55t-21 23t-48.5 8v20q51 -3 158 -3q97 0 151 3v-20zM287.5 853q54.5 -42 118.5 -69l-5 -15
q-65 12 -128.5 30t-100.5 35q-31 -17 -83.5 -35t-105.5 -30l-5 15q64 27 118.5 69t86.5 87h18q32 -45 86.5 -87z" />
    <glyph glyph-name="Idieresis" unicode="&#xcf;" horiz-adv-x="376" 
d="M343 688q-34 -2 -49 -8t-20.5 -23t-5.5 -55v-496q0 -38 5.5 -55t20.5 -23t49 -8v-20q-54 3 -151 3q-107 0 -158 -3v20q33 2 48.5 8t21 23t5.5 55v496q0 38 -5.5 55t-21 23t-48.5 8v20q51 -3 158 -3q97 0 151 3v-20zM125 894q23 -23 23 -53t-23 -52.5t-53 -22.5
q-31 0 -53 22t-22 53q0 30 22.5 53t52.5 23t53 -23zM364.5 894q22.5 -23 22.5 -53q0 -31 -22.5 -53t-52.5 -22q-31 0 -53.5 22t-22.5 53q0 30 22.5 53t53.5 23q30 0 52.5 -23z" />
    <glyph glyph-name="Eth" unicode="&#xd0;" horiz-adv-x="776" 
d="M635 619.5q97 -88.5 97 -257.5q0 -109 -47.5 -190.5t-137 -126.5t-213.5 -45l-62 1q-58 2 -84 2q-103 0 -154 -3v20q33 2 48.5 8t21 23t5.5 55v496q0 38 -5.5 55t-21 23t-48.5 8v20q42 -3 121 -3h31l40 1q82 2 117 2q195 0 292 -88.5zM295.5 683q-15.5 -7 -21.5 -25
t-6 -54v-500q0 -36 6 -54t21.5 -25t47.5 -7q121 0 172 84.5t51 255.5t-52.5 251.5t-171.5 80.5q-31 0 -46.5 -7zM392 346h-384v20h384v-20z" />
    <glyph glyph-name="Ntilde" unicode="&#xd1;" horiz-adv-x="722" 
d="M693 688q-33 -5 -48.5 -17t-21 -38t-5.5 -77v-558l-24 1l-27 -1l-434 550v-384q0 -59 6 -86.5t26 -40t65 -17.5v-20q-39 3 -108 3q-55 0 -87 -3v20q33 5 48.5 17t21 38t5.5 77v450q0 38 -5.5 55t-21 23t-48.5 8v20q32 -3 87 -3q50 0 86 3l387 -477v313q0 59 -6 86.5
t-26 40t-65 17.5v20q39 -3 108 -3q56 0 87 3v-20zM349.5 914q25.5 -10 56.5 -28q28 -17 49 -25t46 -8q53 0 83 54l14 -5q-13 -66 -49 -100t-84 -34q-33 0 -57.5 9.5t-56.5 28.5q-29 17 -50.5 25t-46.5 8q-51 0 -83 -55l-14 5q14 66 50.5 100.5t83.5 34.5q33 0 58.5 -10z" />
    <glyph glyph-name="Ograve" unicode="&#xd2;" horiz-adv-x="793" 
d="M582.5 679q79.5 -43 123.5 -124.5t44 -194.5q0 -110 -45 -195t-125.5 -132t-183.5 -47q-106 0 -185.5 43t-123.5 124.5t-44 194.5q0 110 45 195t125.5 132t183.5 47q106 0 185.5 -43zM296 659.5q-42 -44.5 -64.5 -124.5t-22.5 -183q0 -104 25.5 -183t69 -122t96.5 -43
q55 0 97 44.5t64.5 124.5t22.5 183q0 104 -25.5 183t-69 122t-96.5 43q-55 0 -97 -44.5zM328 913.5q13 -11.5 35 -34.5q50 -54 99 -95l-7 -12q-48 18 -85.5 28t-44.5 12q-23 5 -43 11.5t-35 14.5q-16 9 -25 22.5t-9 28.5q0 13 6 23q7 14 20.5 22t29.5 8q17 0 31 -8
q15 -9 28 -20.5z" />
    <glyph glyph-name="Oacute" unicode="&#xd3;" horiz-adv-x="793" 
d="M582.5 679q79.5 -43 123.5 -124.5t44 -194.5q0 -110 -45 -195t-125.5 -132t-183.5 -47q-106 0 -185.5 43t-123.5 124.5t-44 194.5q0 110 45 195t125.5 132t183.5 47q106 0 185.5 -43zM296 659.5q-42 -44.5 -64.5 -124.5t-22.5 -183q0 -104 25.5 -183t69 -122t96.5 -43
q55 0 97 44.5t64.5 124.5t22.5 183q0 104 -25.5 183t-69 122t-96.5 43q-55 0 -97 -44.5zM515 942q16 0 29.5 -8t20.5 -22q6 -10 6 -23q0 -15 -9 -28.5t-25 -22.5q-15 -8 -35 -14.5t-43 -11.5q-7 -2 -44.5 -12t-85.5 -28l-7 12q49 41 99 95q22 23 35 34.5t28 20.5q14 8 31 8z
" />
    <glyph glyph-name="Ocircumflex" unicode="&#xd4;" horiz-adv-x="793" 
d="M582.5 679q79.5 -43 123.5 -124.5t44 -194.5q0 -110 -45 -195t-125.5 -132t-183.5 -47q-106 0 -185.5 43t-123.5 124.5t-44 194.5q0 110 45 195t125.5 132t183.5 47q106 0 185.5 -43zM296 659.5q-42 -44.5 -64.5 -124.5t-22.5 -183q0 -104 25.5 -183t69 -122t96.5 -43
q55 0 97 44.5t64.5 124.5t22.5 183q0 104 -25.5 183t-69 122t-96.5 43q-55 0 -97 -44.5zM490.5 853q54.5 -42 118.5 -69l-5 -15q-65 12 -128.5 30t-100.5 35q-31 -17 -83.5 -35t-105.5 -30l-5 15q64 27 118.5 69t86.5 87h18q32 -45 86.5 -87z" />
    <glyph glyph-name="Otilde" unicode="&#xd5;" horiz-adv-x="793" 
d="M582.5 679q79.5 -43 123.5 -124.5t44 -194.5q0 -110 -45 -195t-125.5 -132t-183.5 -47q-106 0 -185.5 43t-123.5 124.5t-44 194.5q0 110 45 195t125.5 132t183.5 47q106 0 185.5 -43zM296 659.5q-42 -44.5 -64.5 -124.5t-22.5 -183q0 -104 25.5 -183t69 -122t96.5 -43
q55 0 97 44.5t64.5 124.5t22.5 183q0 104 -25.5 183t-69 122t-96.5 43q-55 0 -97 -44.5zM365.5 914q25.5 -10 56.5 -28q28 -17 49 -25t46 -8q53 0 83 54l14 -5q-13 -66 -49 -100t-84 -34q-33 0 -57.5 9.5t-56.5 28.5q-29 17 -50.5 25t-46.5 8q-51 0 -83 -55l-14 5
q14 66 50.5 100.5t83.5 34.5q33 0 58.5 -10z" />
    <glyph glyph-name="Odieresis" unicode="&#xd6;" horiz-adv-x="793" 
d="M582.5 679q79.5 -43 123.5 -124.5t44 -194.5q0 -110 -45 -195t-125.5 -132t-183.5 -47q-106 0 -185.5 43t-123.5 124.5t-44 194.5q0 110 45 195t125.5 132t183.5 47q106 0 185.5 -43zM296 659.5q-42 -44.5 -64.5 -124.5t-22.5 -183q0 -104 25.5 -183t69 -122t96.5 -43
q55 0 97 44.5t64.5 124.5t22.5 183q0 104 -25.5 183t-69 122t-96.5 43q-55 0 -97 -44.5zM328 894q23 -23 23 -53t-23 -52.5t-53 -22.5q-31 0 -53 22t-22 53q0 30 22.5 53t52.5 23t53 -23zM567.5 894q22.5 -23 22.5 -53q0 -31 -22.5 -53t-52.5 -22q-31 0 -53.5 22t-22.5 53
q0 30 22.5 53t53.5 23q30 0 52.5 -23z" />
    <glyph glyph-name="multiply" unicode="&#xd7;" horiz-adv-x="493" 
d="M248 377l173 173l22 -22l-173 -172l173 -173l-22 -22l-173 173l-174 -174l-22 22l174 173l-175 175l22 22z" />
    <glyph glyph-name="Oslash" unicode="&#xd8;" horiz-adv-x="793" 
d="M713.5 538.5q36.5 -76.5 36.5 -178.5q0 -110 -45 -195t-125.5 -132t-183.5 -47q-118 0 -203 53l-83 -118l-21 14l83 118q-62 47 -95.5 122t-33.5 173q0 110 45 195t125.5 132t183.5 47q110 0 194 -48l72 105l19 -13l-71 -105q66 -46 102.5 -122.5zM296 659.5
q-42 -44.5 -64.5 -124.5t-22.5 -183q0 -121 35 -210l290 456q-26 51 -62.5 78.5t-78.5 27.5q-55 0 -97 -44.5zM497 48.5q42 44.5 64.5 124.5t22.5 183q0 127 -38 217l-290 -458q26 -53 63.5 -82t80.5 -29q55 0 97 44.5z" />
    <glyph glyph-name="Ugrave" unicode="&#xd9;" horiz-adv-x="689" 
d="M671 688q-33 -5 -48.5 -17t-21 -38t-5.5 -77v-265q0 -143 -41 -212q-27 -44 -78 -68.5t-125 -24.5q-116 0 -180 50q-46 37 -62 93.5t-16 158.5v314q0 38 -5.5 55t-21 23t-48.5 8v20q51 -3 156 -3q104 0 159 3v-20q-36 -2 -52.5 -8t-22.5 -23t-6 -55v-377
q0 -105 30.5 -154.5t107.5 -49.5q100 0 141 67.5t41 191.5v264q0 58 -7 86t-27 40.5t-63 17.5v20q38 -3 108 -3q56 0 87 3v-20zM290 913.5q13 -11.5 35 -34.5q50 -54 99 -95l-7 -12q-48 18 -85.5 28t-44.5 12q-23 5 -43 11.5t-35 14.5q-16 9 -25 22.5t-9 28.5q0 13 6 23
q7 14 20.5 22t29.5 8q17 0 31 -8q15 -9 28 -20.5z" />
    <glyph glyph-name="Uacute" unicode="&#xda;" horiz-adv-x="689" 
d="M671 688q-33 -5 -48.5 -17t-21 -38t-5.5 -77v-265q0 -143 -41 -212q-27 -44 -78 -68.5t-125 -24.5q-116 0 -180 50q-46 37 -62 93.5t-16 158.5v314q0 38 -5.5 55t-21 23t-48.5 8v20q51 -3 156 -3q104 0 159 3v-20q-36 -2 -52.5 -8t-22.5 -23t-6 -55v-377
q0 -105 30.5 -154.5t107.5 -49.5q100 0 141 67.5t41 191.5v264q0 58 -7 86t-27 40.5t-63 17.5v20q38 -3 108 -3q56 0 87 3v-20zM477 942q16 0 29.5 -8t20.5 -22q6 -10 6 -23q0 -15 -9 -28.5t-25 -22.5q-15 -8 -35 -14.5t-43 -11.5q-7 -2 -44.5 -12t-85.5 -28l-7 12
q49 41 99 95q22 23 35 34.5t28 20.5q14 8 31 8z" />
    <glyph glyph-name="Ucircumflex" unicode="&#xdb;" horiz-adv-x="689" 
d="M671 688q-33 -5 -48.5 -17t-21 -38t-5.5 -77v-265q0 -143 -41 -212q-27 -44 -78 -68.5t-125 -24.5q-116 0 -180 50q-46 37 -62 93.5t-16 158.5v314q0 38 -5.5 55t-21 23t-48.5 8v20q51 -3 156 -3q104 0 159 3v-20q-36 -2 -52.5 -8t-22.5 -23t-6 -55v-377
q0 -105 30.5 -154.5t107.5 -49.5q100 0 141 67.5t41 191.5v264q0 58 -7 86t-27 40.5t-63 17.5v20q38 -3 108 -3q56 0 87 3v-20zM452.5 853q54.5 -42 118.5 -69l-5 -15q-65 12 -128.5 30t-100.5 35q-31 -17 -83.5 -35t-105.5 -30l-5 15q64 27 118.5 69t86.5 87h18
q32 -45 86.5 -87z" />
    <glyph glyph-name="Udieresis" unicode="&#xdc;" horiz-adv-x="689" 
d="M671 688q-33 -5 -48.5 -17t-21 -38t-5.5 -77v-265q0 -143 -41 -212q-27 -44 -78 -68.5t-125 -24.5q-116 0 -180 50q-46 37 -62 93.5t-16 158.5v314q0 38 -5.5 55t-21 23t-48.5 8v20q51 -3 156 -3q104 0 159 3v-20q-36 -2 -52.5 -8t-22.5 -23t-6 -55v-377
q0 -105 30.5 -154.5t107.5 -49.5q100 0 141 67.5t41 191.5v264q0 58 -7 86t-27 40.5t-63 17.5v20q38 -3 108 -3q56 0 87 3v-20zM290 894q23 -23 23 -53t-23 -52.5t-53 -22.5q-31 0 -53 22t-22 53q0 30 22.5 53t52.5 23t53 -23zM529.5 894q22.5 -23 22.5 -53q0 -31 -22.5 -53
t-52.5 -22q-31 0 -53.5 22t-22.5 53q0 30 22.5 53t53.5 23q30 0 52.5 -23z" />
    <glyph glyph-name="Yacute" unicode="&#xdd;" horiz-adv-x="623" 
d="M617 709v-20q-46 -19 -96 -116l-118 -234v-233q0 -38 5.5 -55t20.5 -23t49 -8v-20q-54 3 -154 3q-107 0 -155 -3v20q33 2 48.5 8t21 23t5.5 55v169l-193 357q-31 56 -58 56v21q44 -5 118 -5q93 0 188 5v-21q-35 0 -55.5 -6.5t-20.5 -23.5q0 -9 7 -22l152 -293l78 156
q39 79 39 124q0 34 -21.5 49t-61.5 17v20q68 -3 125 -3q46 0 76 3zM450 942q16 0 29.5 -8t20.5 -22q6 -10 6 -23q0 -15 -9 -28.5t-25 -22.5q-15 -8 -35 -14.5t-43 -11.5q-7 -2 -44.5 -12t-85.5 -28l-7 12q49 41 99 95q22 23 35 34.5t28 20.5q14 8 31 8z" />
    <glyph glyph-name="Thorn" unicode="&#xde;" horiz-adv-x="621" 
d="M268 146v-40q0 -38 5.5 -55t20.5 -23t49 -8v-20q-54 3 -151 3q-107 0 -158 -3v20q33 2 48.5 8t21 23t5.5 55v496q0 38 -5.5 55t-21 23t-48.5 8v20q51 -3 158 -3q97 0 151 3v-20q-34 -2 -49 -8t-20.5 -23t-5.5 -55v-36q25 1 56 1q138 0 207.5 -49.5t69.5 -142.5
q0 -99 -68.5 -164t-230.5 -65h-34zM268 548v-382h24q81 0 112 53.5t31 146.5q0 92 -31.5 137t-104.5 45h-31z" />
    <glyph glyph-name="germandbls" unicode="&#xdf;" horiz-adv-x="657" 
d="M486 741q55 -41 55 -107q0 -48 -30.5 -89.5t-79 -70.5t-102.5 -41q94 -13 161.5 -49t103.5 -88.5t36 -115.5q0 -60 -30.5 -104t-81.5 -67t-110 -23q-61 0 -101 25t-40 78q0 36 19 58t52 22q31 0 50.5 -19t19.5 -50q0 -30 -18 -52t-45 -32q13 -13 39 -13q45 0 71 43
t26 119q0 107 -48 169.5t-120 87.5q-20 -13 -35 -13q-8 0 -14 4t-6 12q0 9 6 14t17 5q15 0 33 -8q50 35 69.5 78.5t19.5 109.5q0 143 -89 143q-31 0 -50 -18.5t-28 -61.5t-9 -118v-580q-57 14 -144 14q-22 0 -64 -3v21q36 0 50 17.5t14 60.5v423q0 131 63.5 195.5
t184.5 64.5q100 0 155 -41z" />
    <glyph glyph-name="agrave" unicode="&#xe0;" horiz-adv-x="518" 
d="M60.5 26q-31.5 33 -31.5 87q0 45 23.5 74.5t57 45.5t85.5 34q55 19 80.5 34.5t25.5 42.5v78q0 42 -19.5 65.5t-60.5 23.5q-48 0 -73 -24q28 -10 43.5 -30t15.5 -47q0 -34 -23 -54t-56 -20q-35 0 -54 22t-19 55q0 28 13.5 47.5t41.5 36.5q27 16 66.5 25t86.5 9
q49 0 85 -10t60 -34q22 -22 29.5 -54t7.5 -87v-272q0 -24 4.5 -34t17.5 -10q15 0 36 17l10 -17q-45 -37 -110 -37q-55 0 -77 22t-23 59q-50 -81 -147 -81q-64 0 -95.5 33zM301 98v205q-12 -20 -51 -44q-39 -25 -59 -50t-20 -72q0 -41 17 -60.5t45 -19.5q39 0 68 41zM169 830
q13 0 26 -6.5t22 -17.5q11 -13 18.5 -28.5t20.5 -46.5q29 -74 56 -123l-11 -9q-46 43 -106 85q-19 14 -35.5 27.5t-27.5 26.5q-15 20 -15 40q0 24 18 39q14 13 34 13z" />
    <glyph glyph-name="aacute" unicode="&#xe1;" horiz-adv-x="518" 
d="M60.5 26q-31.5 33 -31.5 87q0 45 23.5 74.5t57 45.5t85.5 34q55 19 80.5 34.5t25.5 42.5v78q0 42 -19.5 65.5t-60.5 23.5q-48 0 -73 -24q28 -10 43.5 -30t15.5 -47q0 -34 -23 -54t-56 -20q-35 0 -54 22t-19 55q0 28 13.5 47.5t41.5 36.5q27 16 66.5 25t86.5 9
q49 0 85 -10t60 -34q22 -22 29.5 -54t7.5 -87v-272q0 -24 4.5 -34t17.5 -10q15 0 36 17l10 -17q-45 -37 -110 -37q-55 0 -77 22t-23 59q-50 -81 -147 -81q-64 0 -95.5 33zM301 98v205q-12 -20 -51 -44q-39 -25 -59 -50t-20 -72q0 -41 17 -60.5t45 -19.5q39 0 68 41zM387 779
q0 -21 -15 -41q-11 -13 -27.5 -26.5t-35.5 -27.5q-60 -42 -106 -85l-11 9q27 49 56 123q13 31 20.5 46.5t18.5 28.5q19 24 47 24q21 0 35 -13q18 -13 18 -38z" />
    <glyph glyph-name="acircumflex" unicode="&#xe2;" horiz-adv-x="518" 
d="M60.5 26q-31.5 33 -31.5 87q0 45 23.5 74.5t57 45.5t85.5 34q55 19 80.5 34.5t25.5 42.5v78q0 42 -19.5 65.5t-60.5 23.5q-48 0 -73 -24q28 -10 43.5 -30t15.5 -47q0 -34 -23 -54t-56 -20q-35 0 -54 22t-19 55q0 28 13.5 47.5t41.5 36.5q27 16 66.5 25t86.5 9
q49 0 85 -10t60 -34q22 -22 29.5 -54t7.5 -87v-272q0 -24 4.5 -34t17.5 -10q15 0 36 17l10 -17q-45 -37 -110 -37q-55 0 -77 22t-23 59q-50 -81 -147 -81q-64 0 -95.5 33zM301 98v205q-12 -20 -51 -44q-39 -25 -59 -50t-20 -72q0 -41 17 -60.5t45 -19.5q39 0 68 41z
M344 710.5q48 -53.5 104 -86.5l-8 -14q-58 14 -112.5 34.5t-87.5 41.5q-27 -21 -70.5 -42t-89.5 -34l-8 14q56 33 103.5 85.5t75.5 110.5h18q27 -56 75 -109.5z" />
    <glyph glyph-name="atilde" unicode="&#xe3;" horiz-adv-x="518" 
d="M60.5 26q-31.5 33 -31.5 87q0 45 23.5 74.5t57 45.5t85.5 34q55 19 80.5 34.5t25.5 42.5v78q0 42 -19.5 65.5t-60.5 23.5q-48 0 -73 -24q28 -10 43.5 -30t15.5 -47q0 -34 -23 -54t-56 -20q-35 0 -54 22t-19 55q0 28 13.5 47.5t41.5 36.5q27 16 66.5 25t86.5 9
q49 0 85 -10t60 -34q22 -22 29.5 -54t7.5 -87v-272q0 -24 4.5 -34t17.5 -10q15 0 36 17l10 -17q-45 -37 -110 -37q-55 0 -77 22t-23 59q-50 -81 -147 -81q-64 0 -95.5 33zM301 98v205q-12 -20 -51 -44q-39 -25 -59 -50t-20 -72q0 -41 17 -60.5t45 -19.5q39 0 68 41zM234 777
q20 -9 45 -27q24 -16 39 -23t36 -7q45 0 77 53l14 -7q-16 -71 -49 -105t-75 -34q-28 0 -48 9t-48 27q-21 16 -37 23.5t-37 7.5q-44 0 -77 -54l-14 7q16 71 49.5 105t75.5 34q29 0 49 -9z" />
    <glyph glyph-name="adieresis" unicode="&#xe4;" horiz-adv-x="518" 
d="M60.5 26q-31.5 33 -31.5 87q0 45 23.5 74.5t57 45.5t85.5 34q55 19 80.5 34.5t25.5 42.5v78q0 42 -19.5 65.5t-60.5 23.5q-48 0 -73 -24q28 -10 43.5 -30t15.5 -47q0 -34 -23 -54t-56 -20q-35 0 -54 22t-19 55q0 28 13.5 47.5t41.5 36.5q27 16 66.5 25t86.5 9
q49 0 85 -10t60 -34q22 -22 29.5 -54t7.5 -87v-272q0 -24 4.5 -34t17.5 -10q15 0 36 17l10 -17q-45 -37 -110 -37q-55 0 -77 22t-23 59q-50 -81 -147 -81q-64 0 -95.5 33zM301 98v205q-12 -20 -51 -44q-39 -25 -59 -50t-20 -72q0 -41 17 -60.5t45 -19.5q39 0 68 41z
M200 737.5q23 -22.5 23 -52.5q0 -31 -23 -53t-53 -22q-31 0 -53 22t-22 53q0 30 22 52.5t53 22.5q30 0 53 -22.5zM427.5 737.5q22.5 -22.5 22.5 -52.5q0 -31 -22.5 -53t-52.5 -22q-32 0 -54 22t-22 53q0 30 22.5 52.5t53.5 22.5q30 0 52.5 -22.5z" />
    <glyph glyph-name="aring" unicode="&#xe5;" horiz-adv-x="518" 
d="M60.5 26q-31.5 33 -31.5 87q0 45 23.5 74.5t57 45.5t85.5 34q55 19 80.5 34.5t25.5 42.5v78q0 42 -19.5 65.5t-60.5 23.5q-48 0 -73 -24q28 -10 43.5 -30t15.5 -47q0 -34 -23 -54t-56 -20q-35 0 -54 22t-19 55q0 28 13.5 47.5t41.5 36.5q27 16 66.5 25t86.5 9
q49 0 85 -10t60 -34q22 -22 29.5 -54t7.5 -87v-272q0 -24 4.5 -34t17.5 -10q15 0 36 17l10 -17q-45 -37 -110 -37q-55 0 -77 22t-23 59q-50 -81 -147 -81q-64 0 -95.5 33zM301 98v205q-12 -20 -51 -44q-39 -25 -59 -50t-20 -72q0 -41 17 -60.5t45 -19.5q39 0 68 41z
M337 770.5q32 -26.5 32 -70.5t-32 -71t-77 -27t-76.5 27t-31.5 71t31.5 70.5t76.5 26.5t77 -26.5zM204.5 755q-24.5 -21 -24.5 -56q0 -36 24.5 -56t55.5 -20q32 0 56.5 20t24.5 56q0 35 -24.5 56t-56.5 21q-31 0 -55.5 -21z" />
    <glyph glyph-name="ae" unicode="&#xe6;" horiz-adv-x="741" 
d="M684 148l18 -6q-19 -65 -66.5 -110.5t-119.5 -45.5q-66 0 -115 29.5t-75 90.5q-35 -63 -77 -88t-93 -25q-64 0 -95.5 33t-31.5 87q0 45 23.5 74.5t57 45.5t85.5 34q55 19 80.5 34.5t25.5 42.5v78q0 42 -19.5 65.5t-60.5 23.5q-48 0 -73 -24q28 -10 43.5 -30t15.5 -47
q0 -34 -23 -54t-56 -20q-35 0 -54 22t-19 55q0 28 13.5 47.5t41.5 36.5q27 16 66.5 25t86.5 9q95 0 138 -38q53 38 129 38q178 0 178 -222h-260q-1 -15 -1 -47q0 -66 17 -110t44 -64t58 -20q73 0 118 80zM471.5 465.5q-20.5 -44.5 -25.5 -137.5h136q2 78 -13 130t-45 52
q-32 0 -52.5 -44.5zM318 130q-17 53 -17 123q0 28 3 52q-9 -13 -21 -22.5t-32 -22.5q-39 -26 -59.5 -51.5t-20.5 -71.5q0 -41 16.5 -60.5t44.5 -19.5q25 0 46 16t40 53v4z" />
    <glyph glyph-name="ccedilla" unicode="&#xe7;" horiz-adv-x="496" 
d="M354 523q33 -8 55 -22q26 -16 40.5 -40.5t14.5 -53.5q0 -35 -22 -57.5t-57 -22.5t-56 20t-21 54q0 30 19 52t47 30q-8 11 -24.5 17.5t-35.5 6.5q-60 0 -93.5 -65.5t-33.5 -171.5q0 -107 38 -154t95 -47q34 0 68.5 18t62.5 63l17 -6q-20 -65 -70 -111.5t-129 -46.5
q-103 0 -168 68t-65 202q0 88 32 150t88 93.5t128 31.5q37 0 70 -8zM241 -65q31 12 71 12q33 0 51 -14.5t18 -39.5q0 -40 -40 -60.5t-100 -20.5q-53 0 -87 12l5 18q32 -4 44 -4q29 0 51 10t22 31q0 26 -33 26q-23 0 -40 -7l32 104h27z" />
    <glyph glyph-name="egrave" unicode="&#xe8;" horiz-adv-x="504" 
d="M450 148l18 -6q-20 -65 -71.5 -110.5t-128.5 -45.5q-106 0 -168.5 67.5t-62.5 199.5q0 135 67 206.5t178 71.5q188 0 188 -222h-281q-1 -15 -1 -47q0 -66 18.5 -110t48 -64t63.5 -20q82 0 132 80zM216.5 465.5q-23.5 -44.5 -29.5 -137.5h157q2 79 -15.5 130.5t-52.5 51.5
q-36 0 -59.5 -44.5zM185 830q13 0 26 -6.5t22 -17.5q11 -13 18.5 -28.5t20.5 -46.5q29 -74 56 -123l-11 -9q-46 43 -106 85q-19 14 -35.5 27.5t-27.5 26.5q-15 20 -15 40q0 24 18 39q14 13 34 13z" />
    <glyph glyph-name="eacute" unicode="&#xe9;" horiz-adv-x="504" 
d="M450 148l18 -6q-20 -65 -71.5 -110.5t-128.5 -45.5q-106 0 -168.5 67.5t-62.5 199.5q0 135 67 206.5t178 71.5q188 0 188 -222h-281q-1 -15 -1 -47q0 -66 18.5 -110t48 -64t63.5 -20q82 0 132 80zM216.5 465.5q-23.5 -44.5 -29.5 -137.5h157q2 79 -15.5 130.5t-52.5 51.5
q-36 0 -59.5 -44.5zM403 779q0 -21 -15 -41q-11 -13 -27.5 -26.5t-35.5 -27.5q-60 -42 -106 -85l-11 9q27 49 56 123q13 31 20.5 46.5t18.5 28.5q19 24 47 24q21 0 35 -13q18 -13 18 -38z" />
    <glyph glyph-name="ecircumflex" unicode="&#xea;" horiz-adv-x="504" 
d="M450 148l18 -6q-20 -65 -71.5 -110.5t-128.5 -45.5q-106 0 -168.5 67.5t-62.5 199.5q0 135 67 206.5t178 71.5q188 0 188 -222h-281q-1 -15 -1 -47q0 -66 18.5 -110t48 -64t63.5 -20q82 0 132 80zM216.5 465.5q-23.5 -44.5 -29.5 -137.5h157q2 79 -15.5 130.5t-52.5 51.5
q-36 0 -59.5 -44.5zM360 710.5q48 -53.5 104 -86.5l-8 -14q-58 14 -112.5 34.5t-87.5 41.5q-27 -21 -70.5 -42t-89.5 -34l-8 14q56 33 103.5 85.5t75.5 110.5h18q27 -56 75 -109.5z" />
    <glyph glyph-name="edieresis" unicode="&#xeb;" horiz-adv-x="504" 
d="M450 148l18 -6q-20 -65 -71.5 -110.5t-128.5 -45.5q-106 0 -168.5 67.5t-62.5 199.5q0 135 67 206.5t178 71.5q188 0 188 -222h-281q-1 -15 -1 -47q0 -66 18.5 -110t48 -64t63.5 -20q82 0 132 80zM216.5 465.5q-23.5 -44.5 -29.5 -137.5h157q2 79 -15.5 130.5t-52.5 51.5
q-36 0 -59.5 -44.5zM216 737.5q23 -22.5 23 -52.5q0 -31 -23 -53t-53 -22q-31 0 -53 22t-22 53q0 30 22 52.5t53 22.5q30 0 53 -22.5zM443.5 737.5q22.5 -22.5 22.5 -52.5q0 -31 -22.5 -53t-52.5 -22q-32 0 -54 22t-22 53q0 30 22.5 52.5t53.5 22.5q30 0 52.5 -22.5z" />
    <glyph glyph-name="igrave" unicode="&#xec;" horiz-adv-x="315" 
d="M232 93q0 -41 14.5 -56.5t49.5 -15.5v-21q-100 4 -133 4q-31 0 -139 -4v21q36 0 50 15.5t14 56.5v315q0 46 -14 67t-50 21v21q32 -3 62 -3q89 0 146 14v-435zM66 830q13 0 26 -6.5t22 -17.5q11 -13 18.5 -28.5t20.5 -46.5q29 -74 56 -123l-11 -9q-46 43 -106 85
q-19 14 -35.5 27.5t-27.5 26.5q-15 20 -15 40q0 24 18 39q14 13 34 13z" />
    <glyph glyph-name="iacute" unicode="&#xed;" horiz-adv-x="315" 
d="M232 93q0 -41 14.5 -56.5t49.5 -15.5v-21q-100 4 -133 4q-31 0 -139 -4v21q36 0 50 15.5t14 56.5v315q0 46 -14 67t-50 21v21q32 -3 62 -3q89 0 146 14v-435zM284 779q0 -21 -15 -41q-11 -13 -27.5 -26.5t-35.5 -27.5q-60 -42 -106 -85l-11 9q27 49 56 123
q13 31 20.5 46.5t18.5 28.5q19 24 47 24q21 0 35 -13q18 -13 18 -38z" />
    <glyph glyph-name="icircumflex" unicode="&#xee;" horiz-adv-x="315" 
d="M232 93q0 -41 14.5 -56.5t49.5 -15.5v-21q-100 4 -133 4q-31 0 -139 -4v21q36 0 50 15.5t14 56.5v315q0 46 -14 67t-50 21v21q32 -3 62 -3q89 0 146 14v-435zM241 710.5q48 -53.5 104 -86.5l-8 -14q-58 14 -112.5 34.5t-87.5 41.5q-27 -21 -70.5 -42t-89.5 -34l-8 14
q56 33 103.5 85.5t75.5 110.5h18q27 -56 75 -109.5z" />
    <glyph glyph-name="idieresis" unicode="&#xef;" horiz-adv-x="315" 
d="M232 93q0 -41 14.5 -56.5t49.5 -15.5v-21q-100 4 -133 4q-31 0 -139 -4v21q36 0 50 15.5t14 56.5v315q0 46 -14 67t-50 21v21q32 -3 62 -3q89 0 146 14v-435zM97 737.5q23 -22.5 23 -52.5q0 -31 -23 -53t-53 -22q-31 0 -53 22t-22 53q0 30 22 52.5t53 22.5q30 0 53 -22.5
zM324.5 737.5q22.5 -22.5 22.5 -52.5q0 -31 -22.5 -53t-52.5 -22q-32 0 -54 22t-22 53q0 30 22.5 52.5t53.5 22.5q30 0 52.5 -22.5z" />
    <glyph glyph-name="eth" unicode="&#xf0;" horiz-adv-x="567" 
d="M472 523.5q53 -96.5 53 -219.5q0 -158 -67 -238.5t-177 -80.5q-114 0 -178.5 64.5t-64.5 201.5q0 89 29 152t80.5 95.5t117.5 32.5q56 0 88 -28q-25 94 -82 158l-160 -78l-9 18l155 75q-52 53 -128 89l8 17q97 -34 169 -82l143 70l9 -18l-133 -65q94 -67 147 -163.5z
M350 74q27 69 27 226q0 103 -18 181q-23 27 -64 27q-106 0 -106 -251q0 -127 25 -189.5t65 -62.5q44 0 71 69z" />
    <glyph glyph-name="ntilde" unicode="&#xf1;" horiz-adv-x="614" 
d="M506 492q17 -19 24 -49t7 -81v-269q0 -41 14.5 -56.5t49.5 -15.5v-21q-100 4 -132 4q-30 0 -130 -4v21q30 0 42 15.5t12 56.5v311q0 41 -13.5 62t-48.5 21q-41 0 -70 -33.5t-29 -82.5v-278q0 -41 12 -56.5t42 -15.5v-21q-92 4 -124 4q-30 0 -138 -4v21q36 0 50 15.5
t14 56.5v315q0 46 -14 67t-50 21v21q32 -3 62 -3q89 0 146 14v-90q45 93 164 93q76 0 110 -39zM287 777q20 -9 45 -27q24 -16 39 -23t36 -7q45 0 77 53l14 -7q-16 -71 -49 -105t-75 -34q-28 0 -48 9t-48 27q-21 16 -37 23.5t-37 7.5q-44 0 -77 -54l-14 7q16 71 49.5 105
t75.5 34q29 0 49 -9z" />
    <glyph glyph-name="ograve" unicode="&#xf2;" horiz-adv-x="565" 
d="M462 465.5q65 -65.5 65 -207.5t-65 -207t-180 -65q-114 0 -179.5 65t-65.5 207t65.5 207.5t179.5 65.5q115 0 180 -65.5zM213.5 448.5q-25.5 -62.5 -25.5 -190.5t25.5 -190t68.5 -62q44 0 69 61.5t25 190.5t-25.5 191t-68.5 62t-68.5 -62.5zM193 830q13 0 26 -6.5
t22 -17.5q11 -13 18.5 -28.5t20.5 -46.5q29 -74 56 -123l-11 -9q-46 43 -106 85q-19 14 -35.5 27.5t-27.5 26.5q-15 20 -15 40q0 24 18 39q14 13 34 13z" />
    <glyph glyph-name="oacute" unicode="&#xf3;" horiz-adv-x="565" 
d="M462 465.5q65 -65.5 65 -207.5t-65 -207t-180 -65q-114 0 -179.5 65t-65.5 207t65.5 207.5t179.5 65.5q115 0 180 -65.5zM213.5 448.5q-25.5 -62.5 -25.5 -190.5t25.5 -190t68.5 -62q44 0 69 61.5t25 190.5t-25.5 191t-68.5 62t-68.5 -62.5zM411 779q0 -21 -15 -41
q-11 -13 -27.5 -26.5t-35.5 -27.5q-60 -42 -106 -85l-11 9q27 49 56 123q13 31 20.5 46.5t18.5 28.5q19 24 47 24q21 0 35 -13q18 -13 18 -38z" />
    <glyph glyph-name="ocircumflex" unicode="&#xf4;" horiz-adv-x="565" 
d="M462 465.5q65 -65.5 65 -207.5t-65 -207t-180 -65q-114 0 -179.5 65t-65.5 207t65.5 207.5t179.5 65.5q115 0 180 -65.5zM213.5 448.5q-25.5 -62.5 -25.5 -190.5t25.5 -190t68.5 -62q44 0 69 61.5t25 190.5t-25.5 191t-68.5 62t-68.5 -62.5zM368 710.5
q48 -53.5 104 -86.5l-8 -14q-58 14 -112.5 34.5t-87.5 41.5q-27 -21 -70.5 -42t-89.5 -34l-8 14q56 33 103.5 85.5t75.5 110.5h18q27 -56 75 -109.5z" />
    <glyph glyph-name="otilde" unicode="&#xf5;" horiz-adv-x="565" 
d="M462 465.5q65 -65.5 65 -207.5t-65 -207t-180 -65q-114 0 -179.5 65t-65.5 207t65.5 207.5t179.5 65.5q115 0 180 -65.5zM213.5 448.5q-25.5 -62.5 -25.5 -190.5t25.5 -190t68.5 -62q44 0 69 61.5t25 190.5t-25.5 191t-68.5 62t-68.5 -62.5zM258 777q20 -9 45 -27
q24 -16 39 -23t36 -7q45 0 77 53l14 -7q-16 -71 -49 -105t-75 -34q-28 0 -48 9t-48 27q-21 16 -37 23.5t-37 7.5q-44 0 -77 -54l-14 7q16 71 49.5 105t75.5 34q29 0 49 -9z" />
    <glyph glyph-name="odieresis" unicode="&#xf6;" horiz-adv-x="565" 
d="M462 465.5q65 -65.5 65 -207.5t-65 -207t-180 -65q-114 0 -179.5 65t-65.5 207t65.5 207.5t179.5 65.5q115 0 180 -65.5zM213.5 448.5q-25.5 -62.5 -25.5 -190.5t25.5 -190t68.5 -62q44 0 69 61.5t25 190.5t-25.5 191t-68.5 62t-68.5 -62.5zM224 737.5q23 -22.5 23 -52.5
q0 -31 -23 -53t-53 -22q-31 0 -53 22t-22 53q0 30 22 52.5t53 22.5q30 0 53 -22.5zM451.5 737.5q22.5 -22.5 22.5 -52.5q0 -31 -22.5 -53t-52.5 -22q-32 0 -54 22t-22 53q0 30 22.5 52.5t53.5 22.5q30 0 52.5 -22.5z" />
    <glyph glyph-name="divide" unicode="&#xf7;" horiz-adv-x="633" 
d="M356.5 538q16.5 -16 16.5 -39t-16.5 -39t-39.5 -16t-39 16t-16 39t16.5 39t38.5 16q23 0 39.5 -16zM569 340h-501v30h501v-30zM356.5 250q16.5 -16 16.5 -39t-16.5 -39.5t-39.5 -16.5t-39 16.5t-16 39.5t16.5 39t38.5 16q23 0 39.5 -16z" />
    <glyph glyph-name="oslash" unicode="&#xf8;" horiz-adv-x="565" 
d="M527 258q0 -142 -65 -207t-180 -65q-88 0 -145 37l-66 -96l-20 13l67 97q-81 67 -81 221q0 142 65.5 207.5t179.5 65.5q89 0 145 -37l67 96l19 -13l-67 -97q81 -68 81 -222zM213.5 448.5q-25.5 -62.5 -25.5 -190.5q0 -69 8 -122l165 280q-12 48 -32.5 71.5t-46.5 23.5
q-43 0 -68.5 -62.5zM351 67.5q25 61.5 25 190.5q0 70 -8 124l-165 -282q25 -94 79 -94q44 0 69 61.5z" />
    <glyph glyph-name="ugrave" unicode="&#xf9;" horiz-adv-x="606" 
d="M522 109q0 -46 14.5 -67t49.5 -21v-21q-31 3 -62 3q-87 0 -146 -14v90q-46 -93 -161 -93q-75 0 -109 39q-16 19 -23.5 49.5t-7.5 80.5v253q0 46 -14.5 67t-49.5 21v21q31 -3 62 -3q87 0 146 14v-414q0 -42 12.5 -63t47.5 -21q40 0 68.5 33.5t28.5 82.5v262q0 46 -14.5 67
t-49.5 21v21q32 -3 62 -3q87 0 146 14v-419zM198 830q13 0 26 -6.5t22 -17.5q11 -13 18.5 -28.5t20.5 -46.5q29 -74 56 -123l-11 -9q-46 43 -106 85q-19 14 -35.5 27.5t-27.5 26.5q-15 20 -15 40q0 24 18 39q14 13 34 13z" />
    <glyph glyph-name="uacute" unicode="&#xfa;" horiz-adv-x="606" 
d="M522 109q0 -46 14.5 -67t49.5 -21v-21q-31 3 -62 3q-87 0 -146 -14v90q-46 -93 -161 -93q-75 0 -109 39q-16 19 -23.5 49.5t-7.5 80.5v253q0 46 -14.5 67t-49.5 21v21q31 -3 62 -3q87 0 146 14v-414q0 -42 12.5 -63t47.5 -21q40 0 68.5 33.5t28.5 82.5v262q0 46 -14.5 67
t-49.5 21v21q32 -3 62 -3q87 0 146 14v-419zM416 779q0 -21 -15 -41q-11 -13 -27.5 -26.5t-35.5 -27.5q-60 -42 -106 -85l-11 9q27 49 56 123q13 31 20.5 46.5t18.5 28.5q19 24 47 24q21 0 35 -13q18 -13 18 -38z" />
    <glyph glyph-name="ucircumflex" unicode="&#xfb;" horiz-adv-x="606" 
d="M522 109q0 -46 14.5 -67t49.5 -21v-21q-31 3 -62 3q-87 0 -146 -14v90q-46 -93 -161 -93q-75 0 -109 39q-16 19 -23.5 49.5t-7.5 80.5v253q0 46 -14.5 67t-49.5 21v21q31 -3 62 -3q87 0 146 14v-414q0 -42 12.5 -63t47.5 -21q40 0 68.5 33.5t28.5 82.5v262q0 46 -14.5 67
t-49.5 21v21q32 -3 62 -3q87 0 146 14v-419zM373 710.5q48 -53.5 104 -86.5l-8 -14q-58 14 -112.5 34.5t-87.5 41.5q-27 -21 -70.5 -42t-89.5 -34l-8 14q56 33 103.5 85.5t75.5 110.5h18q27 -56 75 -109.5z" />
    <glyph glyph-name="udieresis" unicode="&#xfc;" horiz-adv-x="606" 
d="M522 109q0 -46 14.5 -67t49.5 -21v-21q-31 3 -62 3q-87 0 -146 -14v90q-46 -93 -161 -93q-75 0 -109 39q-16 19 -23.5 49.5t-7.5 80.5v253q0 46 -14.5 67t-49.5 21v21q31 -3 62 -3q87 0 146 14v-414q0 -42 12.5 -63t47.5 -21q40 0 68.5 33.5t28.5 82.5v262q0 46 -14.5 67
t-49.5 21v21q32 -3 62 -3q87 0 146 14v-419zM229 737.5q23 -22.5 23 -52.5q0 -31 -23 -53t-53 -22q-31 0 -53 22t-22 53q0 30 22 52.5t53 22.5q30 0 53 -22.5zM456.5 737.5q22.5 -22.5 22.5 -52.5q0 -31 -22.5 -53t-52.5 -22q-32 0 -54 22t-22 53q0 30 22.5 52.5t53.5 22.5
q30 0 52.5 -22.5z" />
    <glyph glyph-name="yacute" unicode="&#xfd;" horiz-adv-x="519" 
d="M513 517v-20q-21 -6 -37.5 -25.5t-31.5 -60.5l-179 -503q-20 -52 -44 -71q-29 -25 -87 -25q-42 0 -75.5 20.5t-33.5 59.5q0 31 22 49.5t58 18.5q34 0 54.5 -16.5t20.5 -46.5q0 -21 -13 -38.5t-37 -26.5q7 -1 23 -1q62 0 91 79l16 48l-212 482q-16 34 -31 45t-31 11v21
q66 -6 137 -6q59 0 139 6v-21q-32 0 -47.5 -4.5t-15.5 -23.5q0 -11 7 -28l122 -295l69 192q16 47 16 80q0 73 -74 80v20q47 -3 97 -3t77 3zM385 779q0 -21 -15 -41q-11 -13 -27.5 -26.5t-35.5 -27.5q-60 -42 -106 -85l-11 9q27 49 56 123q13 31 20.5 46.5t18.5 28.5
q19 24 47 24q21 0 35 -13q18 -13 18 -38z" />
    <glyph glyph-name="thorn" unicode="&#xfe;" horiz-adv-x="584" 
d="M496.5 466.5q49.5 -64.5 49.5 -184.5q0 -143 -62 -219.5t-169 -76.5q-65 0 -103 33v-101q0 -44 22.5 -61t67.5 -17v-21l-27 1q-108 3 -141 3q-26 0 -126 -4v21q34 0 47 14.5t13 53.5v754q0 46 -14 67t-50 21v21q32 -3 62 -3q89 0 146 14v-348q21 47 61.5 72t93.5 25
q80 0 129.5 -64.5zM367 77q28 64 28 185q0 122 -22 174t-64 52q-34 0 -61 -23.5t-36 -64.5v-359q22 -28 64 -28q63 0 91 64z" />
    <glyph glyph-name="ydieresis" unicode="&#xff;" horiz-adv-x="519" 
d="M513 517v-20q-21 -6 -37.5 -25.5t-31.5 -60.5l-179 -503q-20 -52 -44 -71q-29 -25 -87 -25q-42 0 -75.5 20.5t-33.5 59.5q0 31 22 49.5t58 18.5q34 0 54.5 -16.5t20.5 -46.5q0 -21 -13 -38.5t-37 -26.5q7 -1 23 -1q62 0 91 79l16 48l-212 482q-16 34 -31 45t-31 11v21
q66 -6 137 -6q59 0 139 6v-21q-32 0 -47.5 -4.5t-15.5 -23.5q0 -11 7 -28l122 -295l69 192q16 47 16 80q0 73 -74 80v20q47 -3 97 -3t77 3zM198 737.5q23 -22.5 23 -52.5q0 -31 -23 -53t-53 -22q-31 0 -53 22t-22 53q0 30 22 52.5t53 22.5q30 0 53 -22.5zM425.5 737.5
q22.5 -22.5 22.5 -52.5q0 -31 -22.5 -53t-52.5 -22q-32 0 -54 22t-22 53q0 30 22.5 52.5t53.5 22.5q30 0 52.5 -22.5z" />
    <glyph glyph-name="Amacron" unicode="&#x100;" horiz-adv-x="667" 
d="M641 36q17 -15 33 -16v-20q-60 3 -152 3q-102 0 -152 -3v20q38 2 54 9.5t16 26.5q0 18 -12 48l-60 164h-218l-26 -69q-28 -72 -28 -111q0 -37 22.5 -51.5t66.5 -16.5v-20q-68 3 -124 3q-46 0 -76 -3v20q49 9 86 105l228 585q11 -1 35 -1t34 1l243 -626q13 -33 30 -48z
M361 288l-99 270l-104 -270h203zM533 819h-400v25h400v-25z" />
    <glyph glyph-name="amacron" unicode="&#x101;" horiz-adv-x="518" 
d="M60.5 26q-31.5 33 -31.5 87q0 45 23.5 74.5t57 45.5t85.5 34q55 19 80.5 34.5t25.5 42.5v78q0 42 -19.5 65.5t-60.5 23.5q-48 0 -73 -24q28 -10 43.5 -30t15.5 -47q0 -34 -23 -54t-56 -20q-35 0 -54 22t-19 55q0 28 13.5 47.5t41.5 36.5q27 16 66.5 25t86.5 9
q49 0 85 -10t60 -34q22 -22 29.5 -54t7.5 -87v-272q0 -24 4.5 -34t17.5 -10q15 0 36 17l10 -17q-45 -37 -110 -37q-55 0 -77 22t-23 59q-50 -81 -147 -81q-64 0 -95.5 33zM301 98v205q-12 -20 -51 -44q-39 -25 -59 -50t-20 -72q0 -41 17 -60.5t45 -19.5q39 0 68 41zM425 687
h-336v25h336v-25z" />
    <glyph glyph-name="Abreve" unicode="&#x102;" horiz-adv-x="667" 
d="M641 36q17 -15 33 -16v-20q-60 3 -152 3q-102 0 -152 -3v20q38 2 54 9.5t16 26.5q0 18 -12 48l-60 164h-218l-26 -69q-28 -72 -28 -111q0 -37 22.5 -51.5t66.5 -16.5v-20q-68 3 -124 3q-46 0 -76 -3v20q49 9 86 105l228 585q11 -1 35 -1t34 1l243 -626q13 -33 30 -48z
M361 288l-99 270l-104 -270h203zM550 905q-25 -54 -82 -94t-141 -40t-141 40t-82 94l12 10q33 -25 85.5 -42.5t125.5 -17.5t125 18t86 43z" />
    <glyph glyph-name="abreve" unicode="&#x103;" horiz-adv-x="518" 
d="M60.5 26q-31.5 33 -31.5 87q0 45 23.5 74.5t57 45.5t85.5 34q55 19 80.5 34.5t25.5 42.5v78q0 42 -19.5 65.5t-60.5 23.5q-48 0 -73 -24q28 -10 43.5 -30t15.5 -47q0 -34 -23 -54t-56 -20q-35 0 -54 22t-19 55q0 28 13.5 47.5t41.5 36.5q27 16 66.5 25t86.5 9
q49 0 85 -10t60 -34q22 -22 29.5 -54t7.5 -87v-272q0 -24 4.5 -34t17.5 -10q15 0 36 17l10 -17q-45 -37 -110 -37q-55 0 -77 22t-23 59q-50 -81 -147 -81q-64 0 -95.5 33zM301 98v205q-12 -20 -51 -44q-39 -25 -59 -50t-20 -72q0 -41 17 -60.5t45 -19.5q39 0 68 41zM450 779
q-22 -66 -69 -112t-122 -46t-122 46t-69 112l17 9q63 -72 174 -72t174 72z" />
    <glyph glyph-name="Aogonek" unicode="&#x104;" horiz-adv-x="667" 
d="M641 36q17 -15 33 -16v-20q-60 3 -152 3q-102 0 -152 -3v20q38 2 54 9.5t16 26.5q0 18 -12 48l-60 164h-218l-26 -69q-28 -72 -28 -111q0 -37 22.5 -51.5t66.5 -16.5v-20q-68 3 -124 3q-46 0 -76 -3v20q49 9 86 105l228 585q11 -1 35 -1t34 1l243 -626q13 -33 30 -48z
M361 288l-99 270l-104 -270h203zM579.5 -40q-26.5 -26 -26.5 -52q0 -41 42 -41q17 0 34.5 7.5t29.5 19.5l13 -14q-26 -36 -59 -52t-78 -16q-43 0 -67 18.5t-24 50.5q0 41 47 72.5t133 49.5h38q-56 -17 -82.5 -43z" />
    <glyph glyph-name="aogonek" unicode="&#x105;" horiz-adv-x="518" 
d="M60.5 26q-31.5 33 -31.5 87q0 45 23.5 74.5t57 45.5t85.5 34q55 19 80.5 34.5t25.5 42.5v78q0 42 -19.5 65.5t-60.5 23.5q-48 0 -73 -24q28 -10 43.5 -30t15.5 -47q0 -34 -23 -54t-56 -20q-35 0 -54 22t-19 55q0 28 13.5 47.5t41.5 36.5q27 16 66.5 25t86.5 9
q49 0 85 -10t60 -34q22 -22 29.5 -54t7.5 -87v-272q0 -24 4.5 -34t17.5 -10q15 0 36 17l10 -17q-45 -37 -110 -37q-55 0 -77 22t-23 59q-50 -81 -147 -81q-64 0 -95.5 33zM301 98v205q-12 -20 -51 -44q-39 -25 -59 -50t-20 -72q0 -41 17 -60.5t45 -19.5q39 0 68 41zM456 -3
q-40 -19 -57.5 -42t-17.5 -47q0 -41 41 -41q17 0 35 8t29 19l14 -14q-27 -36 -59.5 -52t-77.5 -16q-44 0 -67.5 18t-23.5 51q0 41 42 72.5t120 49.5l41 6q-5 -6 -19 -12z" />
    <glyph glyph-name="Cacute" unicode="&#x106;" horiz-adv-x="705" 
d="M499 705q42 -17 82 -48q11 -9 19 -9q20 0 26 60h23q-4 -68 -4 -242h-23q-9 74 -24 113t-51 68q-25 24 -58 36.5t-69 12.5q-101 0 -150 -98.5t-49 -245.5q0 -146 51 -244t152 -98q34 0 67.5 12.5t56.5 36.5q37 28 51.5 70t22.5 123h23q0 -181 4 -252h-23q-3 32 -8.5 45.5
t-15.5 13.5q-8 0 -21 -8q-45 -32 -86 -48.5t-99 -16.5q-106 0 -185.5 43t-123.5 124.5t-44 194.5q0 110 45 195t125.5 132t183.5 47q60 0 102 -17zM499 942q16 0 29.5 -8t20.5 -22q6 -10 6 -23q0 -15 -9 -28.5t-25 -22.5q-15 -8 -35 -14.5t-43 -11.5q-7 -2 -44.5 -12
t-85.5 -28l-7 12q49 41 99 95q22 23 35 34.5t28 20.5q14 8 31 8z" />
    <glyph glyph-name="cacute" unicode="&#x107;" horiz-adv-x="496" 
d="M354 523q33 -8 55 -22q26 -16 40.5 -40.5t14.5 -53.5q0 -35 -22 -57.5t-57 -22.5t-56 20t-21 54q0 30 19 52t47 30q-8 11 -24.5 17.5t-35.5 6.5q-60 0 -93.5 -65.5t-33.5 -171.5q0 -107 38 -154t95 -47q34 0 68.5 18t62.5 63l17 -6q-20 -65 -70 -111.5t-129 -46.5
q-103 0 -168 68t-65 202q0 88 32 150t88 93.5t128 31.5q37 0 70 -8zM395 779q0 -21 -15 -41q-11 -13 -27.5 -26.5t-35.5 -27.5q-60 -42 -106 -85l-11 9q27 49 56 123q13 31 20.5 46.5t18.5 28.5q19 24 47 24q21 0 35 -13q18 -13 18 -38z" />
    <glyph glyph-name="Ccircumflex" unicode="&#x108;" horiz-adv-x="705" 
d="M499 705q42 -17 82 -48q11 -9 19 -9q20 0 26 60h23q-4 -68 -4 -242h-23q-9 74 -24 113t-51 68q-25 24 -58 36.5t-69 12.5q-101 0 -150 -98.5t-49 -245.5q0 -146 51 -244t152 -98q34 0 67.5 12.5t56.5 36.5q37 28 51.5 70t22.5 123h23q0 -181 4 -252h-23q-3 32 -8.5 45.5
t-15.5 13.5q-8 0 -21 -8q-45 -32 -86 -48.5t-99 -16.5q-106 0 -185.5 43t-123.5 124.5t-44 194.5q0 110 45 195t125.5 132t183.5 47q60 0 102 -17zM474.5 853q54.5 -42 118.5 -69l-5 -15q-65 12 -128.5 30t-100.5 35q-31 -17 -83.5 -35t-105.5 -30l-5 15q64 27 118.5 69
t86.5 87h18q32 -45 86.5 -87z" />
    <glyph glyph-name="ccircumflex" unicode="&#x109;" horiz-adv-x="496" 
d="M354 523q33 -8 55 -22q26 -16 40.5 -40.5t14.5 -53.5q0 -35 -22 -57.5t-57 -22.5t-56 20t-21 54q0 30 19 52t47 30q-8 11 -24.5 17.5t-35.5 6.5q-60 0 -93.5 -65.5t-33.5 -171.5q0 -107 38 -154t95 -47q34 0 68.5 18t62.5 63l17 -6q-20 -65 -70 -111.5t-129 -46.5
q-103 0 -168 68t-65 202q0 88 32 150t88 93.5t128 31.5q37 0 70 -8zM352 710.5q48 -53.5 104 -86.5l-8 -14q-58 14 -112.5 34.5t-87.5 41.5q-27 -21 -70.5 -42t-89.5 -34l-8 14q56 33 103.5 85.5t75.5 110.5h18q27 -56 75 -109.5z" />
    <glyph glyph-name="Cdotaccent" unicode="&#x10a;" horiz-adv-x="705" 
d="M499 705q42 -17 82 -48q11 -9 19 -9q20 0 26 60h23q-4 -68 -4 -242h-23q-9 74 -24 113t-51 68q-25 24 -58 36.5t-69 12.5q-101 0 -150 -98.5t-49 -245.5q0 -146 51 -244t152 -98q34 0 67.5 12.5t56.5 36.5q37 28 51.5 70t22.5 123h23q0 -181 4 -252h-23q-3 32 -8.5 45.5
t-15.5 13.5q-8 0 -21 -8q-45 -32 -86 -48.5t-99 -16.5q-106 0 -185.5 43t-123.5 124.5t-44 194.5q0 110 45 195t125.5 132t183.5 47q60 0 102 -17zM442 898.5q23 -20.5 23 -56.5t-23 -56.5t-62 -20.5q-40 0 -62.5 20.5t-22.5 56.5t22.5 56.5t62.5 20.5q39 0 62 -20.5z" />
    <glyph glyph-name="cdotaccent" unicode="&#x10b;" horiz-adv-x="496" 
d="M354 523q33 -8 55 -22q26 -16 40.5 -40.5t14.5 -53.5q0 -35 -22 -57.5t-57 -22.5t-56 20t-21 54q0 30 19 52t47 30q-8 11 -24.5 17.5t-35.5 6.5q-60 0 -93.5 -65.5t-33.5 -171.5q0 -107 38 -154t95 -47q34 0 68.5 18t62.5 63l17 -6q-20 -65 -70 -111.5t-129 -46.5
q-103 0 -168 68t-65 202q0 88 32 150t88 93.5t128 31.5q37 0 70 -8zM339.5 754.5q24.5 -20.5 24.5 -56.5t-24.5 -56.5t-66.5 -20.5t-66.5 20.5t-24.5 56.5t24.5 56.5t66.5 20.5t66.5 -20.5z" />
    <glyph glyph-name="Ccaron" unicode="&#x10c;" horiz-adv-x="705" 
d="M499 705q42 -17 82 -48q11 -9 19 -9q20 0 26 60h23q-4 -68 -4 -242h-23q-9 74 -24 113t-51 68q-25 24 -58 36.5t-69 12.5q-101 0 -150 -98.5t-49 -245.5q0 -146 51 -244t152 -98q34 0 67.5 12.5t56.5 36.5q37 28 51.5 70t22.5 123h23q0 -181 4 -252h-23q-3 32 -8.5 45.5
t-15.5 13.5q-8 0 -21 -8q-45 -32 -86 -48.5t-99 -16.5q-106 0 -185.5 43t-123.5 124.5t-44 194.5q0 110 45 195t125.5 132t183.5 47q60 0 102 -17zM590 923q-64 -26 -118.5 -68t-86.5 -88h-18q-31 45 -85.5 87t-119.5 69l5 15q65 -11 128.5 -29t100.5 -36q31 18 83.5 36
t105.5 29z" />
    <glyph glyph-name="ccaron" unicode="&#x10d;" horiz-adv-x="496" 
d="M354 523q33 -8 55 -22q26 -16 40.5 -40.5t14.5 -53.5q0 -35 -22 -57.5t-57 -22.5t-56 20t-21 54q0 30 19 52t47 30q-8 11 -24.5 17.5t-35.5 6.5q-60 0 -93.5 -65.5t-33.5 -171.5q0 -107 38 -154t95 -47q34 0 68.5 18t62.5 63l17 -6q-20 -65 -70 -111.5t-129 -46.5
q-103 0 -168 68t-65 202q0 88 32 150t88 93.5t128 31.5q37 0 70 -8zM446 806q-56 -33 -103.5 -85.5t-75.5 -110.5h-18q-27 56 -75 109.5t-104 86.5l8 14q58 -14 112.5 -34.5t87.5 -41.5q27 21 70.5 42t89.5 34z" />
    <glyph glyph-name="Dcaron" unicode="&#x10e;" horiz-adv-x="776" 
d="M635 619.5q97 -88.5 97 -257.5q0 -109 -47.5 -190.5t-137 -126.5t-213.5 -45l-62 1q-58 2 -84 2q-103 0 -154 -3v20q33 2 48.5 8t21 23t5.5 55v496q0 38 -5.5 55t-21 23t-48.5 8v20q42 -3 121 -3h31l40 1q82 2 117 2q195 0 292 -88.5zM295.5 683q-15.5 -7 -21.5 -25
t-6 -54v-500q0 -36 6 -54t21.5 -25t47.5 -7q121 0 172 84.5t51 255.5t-52.5 251.5t-171.5 80.5q-31 0 -46.5 -7zM554 923q-64 -26 -118.5 -68t-86.5 -88h-18q-31 45 -85.5 87t-119.5 69l5 15q65 -11 128.5 -29t100.5 -36q31 18 83.5 36t105.5 29z" />
    <glyph glyph-name="dcaron" unicode="&#x10f;" horiz-adv-x="598" 
d="M530 43q14 -21 50 -21v-21q-31 3 -62 3q-89 0 -146 -14v86q-34 -90 -130 -90q-94 0 -149.5 68.5t-54.5 206.5q0 88 28.5 148.5t79 91t115.5 30.5q73 0 111 -38v170q0 46 -14.5 67t-49.5 21v21q32 -3 62 -3q87 0 146 14v-673q0 -46 14 -67zM341.5 53q25.5 24 30.5 65v350
q-25 34 -73 34q-53 0 -82 -61t-28 -182q-1 -122 23.5 -176t70.5 -54q33 0 58.5 24zM673.5 766.5q1.5 -12.5 1.5 -23.5q0 -26 -21.5 -63.5t-75.5 -116.5l-14 4q20 113 20 145q0 21 -4 30.5t-16 9.5v21l23 -1q25 0 42.5 3t40.5 9q2 -5 3.5 -17.5z" />
    <glyph glyph-name="Dcroat" unicode="&#x110;" horiz-adv-x="776" 
d="M635 619.5q97 -88.5 97 -257.5q0 -109 -47.5 -190.5t-137 -126.5t-213.5 -45l-62 1q-58 2 -84 2q-103 0 -154 -3v20q33 2 48.5 8t21 23t5.5 55v496q0 38 -5.5 55t-21 23t-48.5 8v20q42 -3 121 -3h31l40 1q82 2 117 2q195 0 292 -88.5zM295.5 683q-15.5 -7 -21.5 -25
t-6 -54v-500q0 -36 6 -54t21.5 -25t47.5 -7q121 0 172 84.5t51 255.5t-52.5 251.5t-171.5 80.5q-31 0 -46.5 -7zM392 346h-384v20h384v-20z" />
    <glyph glyph-name="dcroat" unicode="&#x111;" horiz-adv-x="598" 
d="M530 43q14 -21 50 -21v-21q-31 3 -62 3q-89 0 -146 -14v86q-34 -90 -130 -90q-94 0 -149.5 68.5t-54.5 206.5q0 88 28.5 148.5t79 91t115.5 30.5q73 0 111 -38v170q0 46 -14.5 67t-49.5 21v21q32 -3 62 -3q87 0 146 14v-673q0 -46 14 -67zM341.5 53q25.5 24 30.5 65v350
q-25 34 -73 34q-53 0 -82 -61t-28 -182q-1 -122 23.5 -176t70.5 -54q33 0 58.5 24zM589 608h-384v20h384v-20z" />
    <glyph glyph-name="Emacron" unicode="&#x112;" horiz-adv-x="634" 
d="M589 0q-68 3 -229 3q-218 0 -326 -3v20q33 2 48.5 8t21 23t5.5 55v496q0 38 -5.5 55t-21 23t-48.5 8v20q108 -3 326 -3q147 0 209 3q-7 -83 -7 -148q0 -44 3 -68h-23q-15 107 -54 150t-110 43h-41q-31 0 -45 -5t-19 -19.5t-5 -46.5v-248h32q53 0 80.5 39t38.5 93h23
q-3 -42 -3 -94v-48q0 -51 6 -142h-23q-21 132 -122 132h-32v-252q0 -32 5 -46.5t19 -19.5t45 -5h49q71 0 114.5 48.5t61.5 164.5h23q-3 -33 -3 -84q0 -92 7 -152zM514 819h-400v25h400v-25z" />
    <glyph glyph-name="emacron" unicode="&#x113;" horiz-adv-x="504" 
d="M450 148l18 -6q-20 -65 -71.5 -110.5t-128.5 -45.5q-106 0 -168.5 67.5t-62.5 199.5q0 135 67 206.5t178 71.5q188 0 188 -222h-281q-1 -15 -1 -47q0 -66 18.5 -110t48 -64t63.5 -20q82 0 132 80zM216.5 465.5q-23.5 -44.5 -29.5 -137.5h157q2 79 -15.5 130.5t-52.5 51.5
q-36 0 -59.5 -44.5zM441 687h-336v25h336v-25z" />
    <glyph glyph-name="Ebreve" unicode="&#x114;" horiz-adv-x="634" 
d="M589 0q-68 3 -229 3q-218 0 -326 -3v20q33 2 48.5 8t21 23t5.5 55v496q0 38 -5.5 55t-21 23t-48.5 8v20q108 -3 326 -3q147 0 209 3q-7 -83 -7 -148q0 -44 3 -68h-23q-15 107 -54 150t-110 43h-41q-31 0 -45 -5t-19 -19.5t-5 -46.5v-248h32q53 0 80.5 39t38.5 93h23
q-3 -42 -3 -94v-48q0 -51 6 -142h-23q-21 132 -122 132h-32v-252q0 -32 5 -46.5t19 -19.5t45 -5h49q71 0 114.5 48.5t61.5 164.5h23q-3 -33 -3 -84q0 -92 7 -152zM531 905q-25 -54 -82 -94t-141 -40t-141 40t-82 94l12 10q33 -25 85.5 -42.5t125.5 -17.5t125 18t86 43z" />
    <glyph glyph-name="ebreve" unicode="&#x115;" horiz-adv-x="504" 
d="M450 148l18 -6q-20 -65 -71.5 -110.5t-128.5 -45.5q-106 0 -168.5 67.5t-62.5 199.5q0 135 67 206.5t178 71.5q188 0 188 -222h-281q-1 -15 -1 -47q0 -66 18.5 -110t48 -64t63.5 -20q82 0 132 80zM216.5 465.5q-23.5 -44.5 -29.5 -137.5h157q2 79 -15.5 130.5t-52.5 51.5
q-36 0 -59.5 -44.5zM466 779q-22 -66 -69 -112t-122 -46t-122 46t-69 112l17 9q63 -72 174 -72t174 72z" />
    <glyph glyph-name="Edotaccent" unicode="&#x116;" horiz-adv-x="634" 
d="M589 0q-68 3 -229 3q-218 0 -326 -3v20q33 2 48.5 8t21 23t5.5 55v496q0 38 -5.5 55t-21 23t-48.5 8v20q108 -3 326 -3q147 0 209 3q-7 -83 -7 -148q0 -44 3 -68h-23q-15 107 -54 150t-110 43h-41q-31 0 -45 -5t-19 -19.5t-5 -46.5v-248h32q53 0 80.5 39t38.5 93h23
q-3 -42 -3 -94v-48q0 -51 6 -142h-23q-21 132 -122 132h-32v-252q0 -32 5 -46.5t19 -19.5t45 -5h49q71 0 114.5 48.5t61.5 164.5h23q-3 -33 -3 -84q0 -92 7 -152zM377 898.5q23 -20.5 23 -56.5t-23 -56.5t-62 -20.5q-40 0 -62.5 20.5t-22.5 56.5t22.5 56.5t62.5 20.5
q39 0 62 -20.5z" />
    <glyph glyph-name="edotaccent" unicode="&#x117;" horiz-adv-x="504" 
d="M450 148l18 -6q-20 -65 -71.5 -110.5t-128.5 -45.5q-106 0 -168.5 67.5t-62.5 199.5q0 135 67 206.5t178 71.5q188 0 188 -222h-281q-1 -15 -1 -47q0 -66 18.5 -110t48 -64t63.5 -20q82 0 132 80zM216.5 465.5q-23.5 -44.5 -29.5 -137.5h157q2 79 -15.5 130.5t-52.5 51.5
q-36 0 -59.5 -44.5zM342.5 754.5q24.5 -20.5 24.5 -56.5t-24.5 -56.5t-66.5 -20.5t-66.5 20.5t-24.5 56.5t24.5 56.5t66.5 20.5t66.5 -20.5z" />
    <glyph glyph-name="Eogonek" unicode="&#x118;" horiz-adv-x="634" 
d="M589 0q-68 3 -229 3q-218 0 -326 -3v20q33 2 48.5 8t21 23t5.5 55v496q0 38 -5.5 55t-21 23t-48.5 8v20q108 -3 326 -3q147 0 209 3q-7 -83 -7 -148q0 -44 3 -68h-23q-15 107 -54 150t-110 43h-41q-31 0 -45 -5t-19 -19.5t-5 -46.5v-248h32q53 0 80.5 39t38.5 93h23
q-3 -42 -3 -94v-48q0 -51 6 -142h-23q-21 132 -122 132h-32v-252q0 -32 5 -46.5t19 -19.5t45 -5h49q71 0 114.5 48.5t61.5 164.5h23q-3 -33 -3 -84q0 -92 7 -152zM503.5 -40q-26.5 -26 -26.5 -52q0 -41 42 -41q17 0 34.5 7.5t29.5 19.5l13 -14q-26 -36 -59 -52t-78 -16
q-43 0 -67 18.5t-24 50.5q0 41 47 72.5t133 49.5h38q-56 -17 -82.5 -43z" />
    <glyph glyph-name="eogonek" unicode="&#x119;" horiz-adv-x="504" 
d="M450 148l18 -6q-20 -65 -71.5 -110.5t-128.5 -45.5q-106 0 -168.5 67.5t-62.5 199.5q0 135 67 206.5t178 71.5q188 0 188 -222h-281q-1 -15 -1 -47q0 -66 18.5 -110t48 -64t63.5 -20q82 0 132 80zM216.5 465.5q-23.5 -44.5 -29.5 -137.5h157q2 79 -15.5 130.5t-52.5 51.5
q-36 0 -59.5 -44.5zM338 -3q-40 -19 -57.5 -42t-17.5 -47q0 -41 41 -41q17 0 35 8t29 19l14 -14q-27 -36 -59.5 -52t-77.5 -16q-44 0 -67.5 18t-23.5 51q0 41 42 72.5t120 49.5l41 6q-5 -6 -19 -12z" />
    <glyph glyph-name="Ecaron" unicode="&#x11a;" horiz-adv-x="634" 
d="M589 0q-68 3 -229 3q-218 0 -326 -3v20q33 2 48.5 8t21 23t5.5 55v496q0 38 -5.5 55t-21 23t-48.5 8v20q108 -3 326 -3q147 0 209 3q-7 -83 -7 -148q0 -44 3 -68h-23q-15 107 -54 150t-110 43h-41q-31 0 -45 -5t-19 -19.5t-5 -46.5v-248h32q53 0 80.5 39t38.5 93h23
q-3 -42 -3 -94v-48q0 -51 6 -142h-23q-21 132 -122 132h-32v-252q0 -32 5 -46.5t19 -19.5t45 -5h49q71 0 114.5 48.5t61.5 164.5h23q-3 -33 -3 -84q0 -92 7 -152zM525 923q-64 -26 -118.5 -68t-86.5 -88h-18q-31 45 -85.5 87t-119.5 69l5 15q65 -11 128.5 -29t100.5 -36
q31 18 83.5 36t105.5 29z" />
    <glyph glyph-name="ecaron" unicode="&#x11b;" horiz-adv-x="504" 
d="M450 148l18 -6q-20 -65 -71.5 -110.5t-128.5 -45.5q-106 0 -168.5 67.5t-62.5 199.5q0 135 67 206.5t178 71.5q188 0 188 -222h-281q-1 -15 -1 -47q0 -66 18.5 -110t48 -64t63.5 -20q82 0 132 80zM216.5 465.5q-23.5 -44.5 -29.5 -137.5h157q2 79 -15.5 130.5t-52.5 51.5
q-36 0 -59.5 -44.5zM454 806q-56 -33 -103.5 -85.5t-75.5 -110.5h-18q-27 56 -75 109.5t-104 86.5l8 14q58 -14 112.5 -34.5t87.5 -41.5q27 21 70.5 42t89.5 34z" />
    <glyph glyph-name="Gcircumflex" unicode="&#x11c;" horiz-adv-x="735" 
d="M509.5 705q42.5 -17 83.5 -48q12 -9 20 -9q10 0 16 14.5t9 45.5h23q-4 -68 -4 -242h-23q-8 68 -23.5 110t-51.5 71q-24 23 -59 36t-72 13q-70 0 -116.5 -47.5t-68.5 -125.5t-22 -171q0 -346 192 -346q44 0 71 20q13 9 18.5 21t5.5 31v98q0 47 -8 68.5t-28.5 29.5
t-64.5 10v20q62 -3 171 -3q89 0 134 3v-20q-20 -2 -29 -8t-12.5 -23t-3.5 -55v-198h-20q-1 21 -8.5 39t-20.5 18q-17 0 -54 -21q-87 -50 -164 -50q-173 0 -265 94.5t-92 265.5q0 112 46.5 197t128.5 132t187 47q62 0 104.5 -17zM481.5 853q54.5 -42 118.5 -69l-5 -15
q-65 12 -128.5 30t-100.5 35q-31 -17 -83.5 -35t-105.5 -30l-5 15q64 27 118.5 69t86.5 87h18q32 -45 86.5 -87z" />
    <glyph glyph-name="gcircumflex" unicode="&#x11d;" horiz-adv-x="553" 
d="M464 434.5q-14 13.5 -14 38.5q0 24 12 49q-24 -10 -39.5 -22.5t-26.5 -31.5q31 -37 31 -96q0 -79 -54.5 -119t-144.5 -40h-18q-41 -24 -41 -53q0 -32 40 -32h109q88 0 140.5 -32.5t52.5 -99.5q0 -51 -32.5 -92.5t-98.5 -66.5t-162 -25q-97 0 -155.5 24.5t-58.5 70.5
q0 31 28 55.5t83 38.5l9 -16q-36 -30 -36 -69q0 -42 38 -64.5t105 -22.5q70 0 113.5 28t43.5 79q0 33 -24.5 52t-85.5 19h-62q-64 0 -100 21.5t-36 65.5q0 37 26 66t79 56q-72 9 -114 48t-42 108q0 79 54.5 119t144.5 40q100 0 153 -47q19 27 47 43t57 16q30 0 47.5 -17.5
t17.5 -45.5t-15.5 -43.5t-36.5 -15.5q-20 0 -34 13.5zM270.5 263q14.5 32 14.5 109t-14.5 109t-42.5 32t-42.5 -32t-14.5 -109t14.5 -109t42.5 -32t42.5 32zM333 710.5q48 -53.5 104 -86.5l-8 -14q-58 14 -112.5 34.5t-87.5 41.5q-27 -21 -70.5 -42t-89.5 -34l-8 14
q56 33 103.5 85.5t75.5 110.5h18q27 -56 75 -109.5z" />
    <glyph glyph-name="Gbreve" unicode="&#x11e;" horiz-adv-x="735" 
d="M509.5 705q42.5 -17 83.5 -48q12 -9 20 -9q10 0 16 14.5t9 45.5h23q-4 -68 -4 -242h-23q-8 68 -23.5 110t-51.5 71q-24 23 -59 36t-72 13q-70 0 -116.5 -47.5t-68.5 -125.5t-22 -171q0 -346 192 -346q44 0 71 20q13 9 18.5 21t5.5 31v98q0 47 -8 68.5t-28.5 29.5
t-64.5 10v20q62 -3 171 -3q89 0 134 3v-20q-20 -2 -29 -8t-12.5 -23t-3.5 -55v-198h-20q-1 21 -8.5 39t-20.5 18q-17 0 -54 -21q-87 -50 -164 -50q-173 0 -265 94.5t-92 265.5q0 112 46.5 197t128.5 132t187 47q62 0 104.5 -17zM603 905q-25 -54 -82 -94t-141 -40t-141 40
t-82 94l12 10q33 -25 85.5 -42.5t125.5 -17.5t125 18t86 43z" />
    <glyph glyph-name="gbreve" unicode="&#x11f;" horiz-adv-x="553" 
d="M464 434.5q-14 13.5 -14 38.5q0 24 12 49q-24 -10 -39.5 -22.5t-26.5 -31.5q31 -37 31 -96q0 -79 -54.5 -119t-144.5 -40h-18q-41 -24 -41 -53q0 -32 40 -32h109q88 0 140.5 -32.5t52.5 -99.5q0 -51 -32.5 -92.5t-98.5 -66.5t-162 -25q-97 0 -155.5 24.5t-58.5 70.5
q0 31 28 55.5t83 38.5l9 -16q-36 -30 -36 -69q0 -42 38 -64.5t105 -22.5q70 0 113.5 28t43.5 79q0 33 -24.5 52t-85.5 19h-62q-64 0 -100 21.5t-36 65.5q0 37 26 66t79 56q-72 9 -114 48t-42 108q0 79 54.5 119t144.5 40q100 0 153 -47q19 27 47 43t57 16q30 0 47.5 -17.5
t17.5 -45.5t-15.5 -43.5t-36.5 -15.5q-20 0 -34 13.5zM270.5 263q14.5 32 14.5 109t-14.5 109t-42.5 32t-42.5 -32t-14.5 -109t14.5 -109t42.5 -32t42.5 32zM439 779q-22 -66 -69 -112t-122 -46t-122 46t-69 112l17 9q63 -72 174 -72t174 72z" />
    <glyph glyph-name="Gdotaccent" unicode="&#x120;" horiz-adv-x="735" 
d="M509.5 705q42.5 -17 83.5 -48q12 -9 20 -9q10 0 16 14.5t9 45.5h23q-4 -68 -4 -242h-23q-8 68 -23.5 110t-51.5 71q-24 23 -59 36t-72 13q-70 0 -116.5 -47.5t-68.5 -125.5t-22 -171q0 -346 192 -346q44 0 71 20q13 9 18.5 21t5.5 31v98q0 47 -8 68.5t-28.5 29.5
t-64.5 10v20q62 -3 171 -3q89 0 134 3v-20q-20 -2 -29 -8t-12.5 -23t-3.5 -55v-198h-20q-1 21 -8.5 39t-20.5 18q-17 0 -54 -21q-87 -50 -164 -50q-173 0 -265 94.5t-92 265.5q0 112 46.5 197t128.5 132t187 47q62 0 104.5 -17zM449 898.5q23 -20.5 23 -56.5t-23 -56.5
t-62 -20.5q-40 0 -62.5 20.5t-22.5 56.5t22.5 56.5t62.5 20.5q39 0 62 -20.5z" />
    <glyph glyph-name="gdotaccent" unicode="&#x121;" horiz-adv-x="553" 
d="M464 434.5q-14 13.5 -14 38.5q0 24 12 49q-24 -10 -39.5 -22.5t-26.5 -31.5q31 -37 31 -96q0 -79 -54.5 -119t-144.5 -40h-18q-41 -24 -41 -53q0 -32 40 -32h109q88 0 140.5 -32.5t52.5 -99.5q0 -51 -32.5 -92.5t-98.5 -66.5t-162 -25q-97 0 -155.5 24.5t-58.5 70.5
q0 31 28 55.5t83 38.5l9 -16q-36 -30 -36 -69q0 -42 38 -64.5t105 -22.5q70 0 113.5 28t43.5 79q0 33 -24.5 52t-85.5 19h-62q-64 0 -100 21.5t-36 65.5q0 37 26 66t79 56q-72 9 -114 48t-42 108q0 79 54.5 119t144.5 40q100 0 153 -47q19 27 47 43t57 16q30 0 47.5 -17.5
t17.5 -45.5t-15.5 -43.5t-36.5 -15.5q-20 0 -34 13.5zM270.5 263q14.5 32 14.5 109t-14.5 109t-42.5 32t-42.5 -32t-14.5 -109t14.5 -109t42.5 -32t42.5 32zM315.5 754.5q24.5 -20.5 24.5 -56.5t-24.5 -56.5t-66.5 -20.5t-66.5 20.5t-24.5 56.5t24.5 56.5t66.5 20.5
t66.5 -20.5z" />
    <glyph glyph-name="Gcommaaccent" unicode="&#x122;" horiz-adv-x="735" 
d="M509.5 705q42.5 -17 83.5 -48q12 -9 20 -9q10 0 16 14.5t9 45.5h23q-4 -68 -4 -242h-23q-8 68 -23.5 110t-51.5 71q-24 23 -59 36t-72 13q-70 0 -116.5 -47.5t-68.5 -125.5t-22 -171q0 -346 192 -346q44 0 71 20q13 9 18.5 21t5.5 31v98q0 47 -8 68.5t-28.5 29.5
t-64.5 10v20q62 -3 171 -3q89 0 134 3v-20q-20 -2 -29 -8t-12.5 -23t-3.5 -55v-198h-20q-1 21 -8.5 39t-20.5 18q-17 0 -54 -21q-87 -50 -164 -50q-173 0 -265 94.5t-92 265.5q0 112 46.5 197t128.5 132t187 47q62 0 104.5 -17zM457 -76q23 -21 23 -56q0 -46 -28 -74.5
t-86 -36.5l-4 21q74 11 80 55q-18 -16 -49 -16q-33 0 -52 16.5t-19 46.5q0 31 20.5 48t55.5 17q36 0 59 -21z" />
    <glyph glyph-name="gcommaaccent" unicode="&#x123;" horiz-adv-x="544" 
d="M464 434.5q-14 13.5 -14 38.5q0 24 12 49q-24 -10 -39.5 -22.5t-26.5 -31.5q31 -37 31 -96q0 -79 -54.5 -119t-144.5 -40h-18q-41 -24 -41 -53q0 -32 40 -32h109q88 0 140.5 -32.5t52.5 -99.5q0 -51 -32.5 -92.5t-98.5 -66.5t-162 -25q-97 0 -155.5 24.5t-58.5 70.5
q0 31 28 55.5t83 38.5l9 -16q-36 -30 -36 -69q0 -42 38 -64.5t105 -22.5q70 0 113.5 28t43.5 79q0 33 -24.5 52t-85.5 19h-62q-64 0 -100 21.5t-36 65.5q0 37 26 66t79 56q-72 9 -114 48t-42 108q0 79 54.5 119t144.5 40q100 0 153 -47q19 27 47 43t57 16q30 0 47.5 -17.5
t17.5 -45.5t-15.5 -43.5t-36.5 -15.5q-20 0 -34 13.5zM270.5 263q14.5 32 14.5 109t-14.5 109t-42.5 32t-42.5 -32t-14.5 -109t14.5 -109t42.5 -32t42.5 32zM182 645q-23 21 -23 56q0 46 28 74.5t86 36.5l4 -21q-74 -11 -80 -55q18 16 49 16q33 0 52 -16.5t19 -46.5
q0 -31 -20.5 -48t-55.5 -17q-36 0 -59 21z" />
    <glyph glyph-name="Hcircumflex" unicode="&#x124;" horiz-adv-x="800" 
d="M718 680q-15 -6 -20.5 -23t-5.5 -55v-496q0 -38 5.5 -55t20.5 -23t49 -8v-20q-49 3 -152 3q-101 0 -157 -3v20q33 2 48.5 8t21 23t5.5 55v240h-265v-240q0 -38 5.5 -55t20.5 -23t49 -8v-20q-54 3 -151 3q-107 0 -158 -3v20q33 2 48.5 8t21 23t5.5 55v496q0 38 -5.5 55
t-21 23t-48.5 8v20q51 -3 158 -3q97 0 151 3v-20q-34 -2 -49 -8t-20.5 -23t-5.5 -55v-236h265v236q0 38 -5.5 55t-21 23t-48.5 8v20q56 -3 157 -3q103 0 152 3v-20q-34 -2 -49 -8zM498.5 853q54.5 -42 118.5 -69l-5 -15q-65 12 -128.5 30t-100.5 35q-31 -17 -83.5 -35
t-105.5 -30l-5 15q64 27 118.5 69t86.5 87h18q32 -45 86.5 -87z" />
    <glyph glyph-name="hcircumflex" unicode="&#x125;" horiz-adv-x="608" 
d="M227 438q45 93 163 93q78 0 110 -39q17 -19 24.5 -49.5t7.5 -80.5v-269q0 -41 14 -56.5t50 -15.5v-21q-104 4 -132 4q-34 0 -130 -4v21q30 0 42 15.5t12 56.5v311q0 41 -13.5 62t-48.5 21q-42 0 -70.5 -32.5t-28.5 -82.5v-279q0 -41 12 -56.5t42 -15.5v-21q-96 4 -124 4
q-34 0 -138 -4v21q35 0 49.5 15.5t14.5 56.5v569q0 46 -14.5 67t-49.5 21v21q32 -3 62 -3q87 0 146 14v-344zM387.5 917q54.5 -42 118.5 -69l-5 -15q-65 12 -128.5 30t-100.5 35q-31 -17 -83.5 -35t-105.5 -30l-5 15q64 27 118.5 69t86.5 87h18q32 -45 86.5 -87z" />
    <glyph glyph-name="Hbar" unicode="&#x126;" horiz-adv-x="800" 
d="M718 680q-15 -6 -20.5 -23t-5.5 -55v-496q0 -38 5.5 -55t20.5 -23t49 -8v-20q-49 3 -152 3q-101 0 -157 -3v20q33 2 48.5 8t21 23t5.5 55v240h-265v-240q0 -38 5.5 -55t20.5 -23t49 -8v-20q-54 3 -151 3q-107 0 -158 -3v20q33 2 48.5 8t21 23t5.5 55v496q0 38 -5.5 55
t-21 23t-48.5 8v20q51 -3 158 -3q97 0 151 3v-20q-34 -2 -49 -8t-20.5 -23t-5.5 -55v-236h265v236q0 38 -5.5 55t-21 23t-48.5 8v20q56 -3 157 -3q103 0 152 3v-20q-34 -2 -49 -8zM767 513h-733v20h733v-20z" />
    <glyph glyph-name="hbar" unicode="&#x127;" horiz-adv-x="608" 
d="M227 438q45 93 163 93q78 0 110 -39q17 -19 24.5 -49.5t7.5 -80.5v-269q0 -41 14 -56.5t50 -15.5v-21q-104 4 -132 4q-34 0 -130 -4v21q30 0 42 15.5t12 56.5v311q0 41 -13.5 62t-48.5 21q-42 0 -70.5 -32.5t-28.5 -82.5v-279q0 -41 12 -56.5t42 -15.5v-21q-96 4 -124 4
q-34 0 -138 -4v21q35 0 49.5 15.5t14.5 56.5v569q0 46 -14.5 67t-49.5 21v21q32 -3 62 -3q87 0 146 14v-344zM393 608h-384v20h384v-20z" />
    <glyph glyph-name="Itilde" unicode="&#x128;" horiz-adv-x="376" 
d="M343 688q-34 -2 -49 -8t-20.5 -23t-5.5 -55v-496q0 -38 5.5 -55t20.5 -23t49 -8v-20q-54 3 -151 3q-107 0 -158 -3v20q33 2 48.5 8t21 23t5.5 55v496q0 38 -5.5 55t-21 23t-48.5 8v20q51 -3 158 -3q97 0 151 3v-20zM162.5 914q25.5 -10 56.5 -28q28 -17 49 -25t46 -8
q53 0 83 54l14 -5q-13 -66 -49 -100t-84 -34q-33 0 -57.5 9.5t-56.5 28.5q-29 17 -50.5 25t-46.5 8q-51 0 -83 -55l-14 5q14 66 50.5 100.5t83.5 34.5q33 0 58.5 -10z" />
    <glyph glyph-name="itilde" unicode="&#x129;" horiz-adv-x="315" 
d="M232 93q0 -41 14.5 -56.5t49.5 -15.5v-21q-100 4 -133 4q-31 0 -139 -4v21q36 0 50 15.5t14 56.5v315q0 46 -14 67t-50 21v21q32 -3 62 -3q89 0 146 14v-435zM131 777q20 -9 45 -27q24 -16 39 -23t36 -7q45 0 77 53l14 -7q-16 -71 -49 -105t-75 -34q-28 0 -48 9t-48 27
q-21 16 -37 23.5t-37 7.5q-44 0 -77 -54l-14 7q16 71 49.5 105t75.5 34q29 0 49 -9z" />
    <glyph glyph-name="Imacron" unicode="&#x12a;" horiz-adv-x="376" 
d="M343 688q-34 -2 -49 -8t-20.5 -23t-5.5 -55v-496q0 -38 5.5 -55t20.5 -23t49 -8v-20q-54 3 -151 3q-107 0 -158 -3v20q33 2 48.5 8t21 23t5.5 55v496q0 38 -5.5 55t-21 23t-48.5 8v20q51 -3 158 -3q97 0 151 3v-20zM392 819h-400v25h400v-25z" />
    <glyph glyph-name="imacron" unicode="&#x12b;" horiz-adv-x="315" 
d="M306 687h-316v25h316v-25zM232 93q0 -41 14.5 -56.5t49.5 -15.5v-21q-100 4 -133 4q-31 0 -139 -4v21q36 0 50 15.5t14 56.5v315q0 46 -14 67t-50 21v21q32 -3 62 -3q89 0 146 14v-435z" />
    <glyph glyph-name="Ibreve" unicode="&#x12c;" horiz-adv-x="376" 
d="M343 688q-34 -2 -49 -8t-20.5 -23t-5.5 -55v-496q0 -38 5.5 -55t20.5 -23t49 -8v-20q-54 3 -151 3q-107 0 -158 -3v20q33 2 48.5 8t21 23t5.5 55v496q0 38 -5.5 55t-21 23t-48.5 8v20q51 -3 158 -3q97 0 151 3v-20zM409 905q-25 -54 -82 -94t-141 -40t-141 40t-82 94
l12 10q33 -25 85.5 -42.5t125.5 -17.5t125 18t86 43z" />
    <glyph glyph-name="ibreve" unicode="&#x12d;" horiz-adv-x="315" 
d="M232 93q0 -41 14.5 -56.5t49.5 -15.5v-21q-100 4 -133 4q-31 0 -139 -4v21q36 0 50 15.5t14 56.5v315q0 46 -14 67t-50 21v21q32 -3 62 -3q89 0 146 14v-435zM347 779q-22 -66 -69 -112t-122 -46t-122 46t-69 112l17 9q63 -72 174 -72t174 72z" />
    <glyph glyph-name="Iogonek" unicode="&#x12e;" horiz-adv-x="376" 
d="M343 688q-34 -2 -49 -8t-20.5 -23t-5.5 -55v-496q0 -38 5.5 -55t20.5 -23t49 -8v-20q-54 3 -151 3q-107 0 -158 -3v20q33 2 48.5 8t21 23t5.5 55v496q0 38 -5.5 55t-21 23t-48.5 8v20q51 -3 158 -3q97 0 151 3v-20zM248.5 -40q-26.5 -26 -26.5 -52q0 -41 42 -41
q17 0 34.5 7.5t29.5 19.5l13 -14q-26 -36 -59 -52t-78 -16q-43 0 -67 18.5t-24 50.5q0 41 47 72.5t133 49.5h38q-56 -17 -82.5 -43z" />
    <glyph glyph-name="iogonek" unicode="&#x12f;" horiz-adv-x="315" 
d="M220.5 754.5q24.5 -20.5 24.5 -56.5t-24.5 -56.5t-66.5 -20.5t-66.5 20.5t-24.5 56.5t24.5 56.5t66.5 20.5t66.5 -20.5zM232 93q0 -41 14.5 -56.5t49.5 -15.5v-21q-100 4 -133 4q-31 0 -139 -4v21q36 0 50 15.5t14 56.5v315q0 46 -14 67t-50 21v21q32 -3 62 -3
q89 0 146 14v-435zM270 -3q-40 -19 -57.5 -42t-17.5 -47q0 -41 41 -41q17 0 35 8t29 19l14 -14q-27 -36 -59.5 -52t-77.5 -16q-44 0 -67.5 18t-23.5 51q0 41 42 72.5t120 49.5l41 6q-5 -6 -19 -12z" />
    <glyph glyph-name="Idotaccent" unicode="&#x130;" horiz-adv-x="376" 
d="M343 688q-34 -2 -49 -8t-20.5 -23t-5.5 -55v-496q0 -38 5.5 -55t20.5 -23t49 -8v-20q-54 3 -151 3q-107 0 -158 -3v20q33 2 48.5 8t21 23t5.5 55v496q0 38 -5.5 55t-21 23t-48.5 8v20q51 -3 158 -3q97 0 151 3v-20zM258.5 945.5q24.5 -20.5 24.5 -56.5t-24.5 -56.5
t-66.5 -20.5t-66.5 20.5t-24.5 56.5t24.5 56.5t66.5 20.5t66.5 -20.5z" />
    <glyph glyph-name="dotlessi" unicode="&#x131;" horiz-adv-x="315" 
d="M232 93q0 -41 14.5 -56.5t49.5 -15.5v-21q-100 4 -133 4q-31 0 -139 -4v21q36 0 50 15.5t14 56.5v315q0 46 -14 67t-50 21v21q32 -3 62 -3q89 0 146 14v-435z" />
    <glyph glyph-name="Jcircumflex" unicode="&#x134;" horiz-adv-x="364" 
d="M-23 -168q42 4 69.5 24.5t42 68t14.5 129.5v548q0 38 -5.5 55t-21 23t-48.5 8v20q50 -3 151 -3q103 0 158 3v-20q-34 -2 -49 -8t-20.5 -23t-5.5 -55v-366v-61q0 -141 -17 -200q-21 -73 -89.5 -118t-178.5 -45v20zM275.5 853q54.5 -42 118.5 -69l-5 -15q-65 12 -128.5 30
t-100.5 35q-31 -17 -83.5 -35t-105.5 -30l-5 15q64 27 118.5 69t86.5 87h18q32 -45 86.5 -87z" />
    <glyph glyph-name="jcircumflex" unicode="&#x135;" horiz-adv-x="297" 
d="M-23 -170q50 2 78.5 40t28.5 112v426q0 46 -14.5 67t-49.5 21v21q32 -3 62 -3q87 0 146 14v-434q0 -84 -16.5 -138t-55.5 -90q-59 -54 -179 -54v18zM229 710.5q48 -53.5 104 -86.5l-8 -14q-58 14 -112.5 34.5t-87.5 41.5q-27 -21 -70.5 -42t-89.5 -34l-8 14
q56 33 103.5 85.5t75.5 110.5h18q27 -56 75 -109.5z" />
    <glyph glyph-name="Kcommaaccent" unicode="&#x136;" horiz-adv-x="714" 
d="M683 44q16 -14 41 -24v-20q-70 3 -156 3q-66 0 -127 -3v20q28 2 40.5 6t12.5 14q0 8 -11 25l-145 235q-20 32 -33.5 43t-36.5 13v-250q0 -38 5.5 -55t20.5 -23t49 -8v-20q-54 3 -151 3q-107 0 -158 -3v20q33 2 48.5 8t21 23t5.5 55v496q0 38 -5.5 55t-21 23t-48.5 8v20
q51 -3 158 -3q97 0 151 3v-20q-34 -2 -49 -8t-20.5 -23t-5.5 -55v-225q40 2 73 24t75 70l59 71q46 53 46 93q0 24 -19.5 38t-54.5 16v19q73 -3 148 -3q58 0 94 3v-19q-80 -19 -145 -96l-125 -149l233 -363q15 -23 31 -37zM453 -76q23 -21 23 -56q0 -46 -28 -74.5t-86 -36.5
l-4 21q74 11 80 55q-18 -16 -49 -16q-33 0 -52 16.5t-19 46.5q0 31 20.5 48t55.5 17q36 0 59 -21z" />
    <glyph glyph-name="kcommaaccent" unicode="&#x137;" horiz-adv-x="585" 
d="M558 37.5q10 -11.5 26 -16.5v-21q-80 4 -105 4q-33 0 -129 -4v21q14 0 22 5t8 14q0 5 -5 15l-99 179q-10 17 -21 23t-28 8v-172q0 -41 13 -56.5t47 -15.5v-21q-100 4 -130 4q-34 0 -138 -4v21q35 0 49.5 15.5t14.5 56.5v570q0 46 -14.5 67t-49.5 21v21q32 -3 62 -3
q87 0 146 14v-499q20 2 34.5 8t25.5 18l76 74q33 33 33 61q0 23 -21 36.5t-56 15.5v20q55 -3 117 -3q83 0 117 3v-20q-59 -13 -125 -77l-64 -66l168 -281q16 -24 26 -35.5zM377 -76q23 -21 23 -56q0 -46 -28 -74.5t-86 -36.5l-4 21q74 11 80 55q-18 -16 -49 -16
q-33 0 -52 16.5t-19 46.5q0 31 20.5 48t55.5 17q36 0 59 -21z" />
    <glyph glyph-name="kgreenlandic" unicode="&#x138;" horiz-adv-x="591" 
d="M589 21v-21q-80 4 -105 4q-27 0 -123 -4v21q14 0 22 5.5t8 13.5q0 9 -5 15l-112 168q-19 28 -42 29v-159q0 -41 13 -56.5t47 -15.5v-21q-96 4 -129 4q-31 0 -139 -4v21q36 0 50 15.5t14 56.5v315q0 46 -14 67t-50 21v21q32 -3 62 -3q89 0 146 14v-256q29 3 48.5 14.5
t39.5 34.5l93 106q15 18 15 34t-15 25.5t-44 10.5v20q53 -3 103 -3q57 0 91 3v-20q-35 -3 -56 -13.5t-42 -34.5l-104 -119l170 -256q30 -48 58 -53z" />
    <glyph glyph-name="Lacute" unicode="&#x139;" horiz-adv-x="611" 
d="M349 688q-36 -2 -52.5 -8t-22.5 -23t-6 -55v-508q0 -32 5 -46.5t17.5 -19.5t40.5 -5h49q68 0 117.5 61t64.5 162h23q-3 -34 -3 -88q0 -96 7 -158q-68 3 -229 3q-218 0 -326 -3v20q33 2 48.5 8t21 23t5.5 55v496q0 38 -5.5 55t-21 23t-48.5 8v20q51 -3 158 -3q102 0 157 3
v-20zM312 942q16 0 29.5 -8t20.5 -22q6 -10 6 -23q0 -15 -9 -28.5t-25 -22.5q-15 -8 -35 -14.5t-43 -11.5q-7 -2 -44.5 -12t-85.5 -28l-7 12q49 41 99 95q22 23 35 34.5t28 20.5q14 8 31 8z" />
    <glyph glyph-name="lacute" unicode="&#x13a;" horiz-adv-x="311" 
d="M228 93q0 -41 14 -56.5t50 -15.5v-21q-104 4 -134 4q-34 0 -138 -4v21q35 0 49.5 15.5t14.5 56.5v570q0 46 -14.5 67t-49.5 21v21q32 -3 62 -3q87 0 146 14v-690zM274 992q16 0 29.5 -8t20.5 -22q6 -10 6 -23q0 -15 -9 -28.5t-25 -22.5q-15 -8 -35 -14.5t-43 -11.5
q-7 -2 -44.5 -12t-85.5 -28l-7 12q49 41 99 95q22 23 35 34.5t28 20.5q14 8 31 8z" />
    <glyph glyph-name="Lcommaaccent" unicode="&#x13b;" horiz-adv-x="611" 
d="M349 688q-36 -2 -52.5 -8t-22.5 -23t-6 -55v-508q0 -32 5 -46.5t17.5 -19.5t40.5 -5h49q68 0 117.5 61t64.5 162h23q-3 -34 -3 -88q0 -96 7 -158q-68 3 -229 3q-218 0 -326 -3v20q33 2 48.5 8t21 23t5.5 55v496q0 38 -5.5 55t-21 23t-48.5 8v20q51 -3 158 -3q102 0 157 3
v-20zM409 -76q23 -21 23 -56q0 -46 -28 -74.5t-86 -36.5l-4 21q74 11 80 55q-18 -16 -49 -16q-33 0 -52 16.5t-19 46.5q0 31 20.5 48t55.5 17q36 0 59 -21z" />
    <glyph glyph-name="lcommaaccent" unicode="&#x13c;" horiz-adv-x="311" 
d="M228 93q0 -41 14 -56.5t50 -15.5v-21q-104 4 -134 4q-34 0 -138 -4v21q35 0 49.5 15.5t14.5 56.5v570q0 46 -14.5 67t-49.5 21v21q32 -3 62 -3q87 0 146 14v-690zM209 -76q23 -21 23 -56q0 -46 -28 -74.5t-86 -36.5l-4 21q74 11 80 55q-18 -16 -49 -16q-33 0 -52 16.5
t-19 46.5q0 31 20.5 48t55.5 17q36 0 59 -21z" />
    <glyph glyph-name="Lcaron" unicode="&#x13d;" horiz-adv-x="611" 
d="M349 688q-36 -2 -52.5 -8t-22.5 -23t-6 -55v-508q0 -32 5 -46.5t17.5 -19.5t40.5 -5h49q68 0 117.5 61t64.5 162h23q-3 -34 -3 -88q0 -96 7 -158q-68 3 -229 3q-218 0 -326 -3v20q33 2 48.5 8t21 23t5.5 55v496q0 38 -5.5 55t-21 23t-48.5 8v20q51 -3 158 -3q102 0 157 3
v-20zM550 678q0 -29 -25.5 -70t-91.5 -130l-14 4q20 128 20 165q0 21 -6 30.5t-24 9.5v21q20 -2 53 -2q41 0 83 8q5 -12 5 -36z" />
    <glyph glyph-name="lcaron" unicode="&#x13e;" horiz-adv-x="311" 
d="M228 93q0 -41 14 -56.5t50 -15.5v-21q-104 4 -134 4q-34 0 -138 -4v21q35 0 49.5 15.5t14.5 56.5v570q0 46 -14.5 67t-49.5 21v21q32 -3 62 -3q87 0 146 14v-690zM407.5 766.5q1.5 -12.5 1.5 -23.5q0 -26 -21.5 -63.5t-75.5 -116.5l-14 4q20 113 20 145q0 21 -4 30.5
t-16 9.5v21l23 -1q25 0 42.5 3t40.5 9q2 -5 3.5 -17.5z" />
    <glyph glyph-name="Ldot" unicode="&#x13f;" horiz-adv-x="611" 
d="M349 688q-36 -2 -52.5 -8t-22.5 -23t-6 -55v-508q0 -32 5 -46.5t17.5 -19.5t40.5 -5h49q68 0 117.5 61t64.5 162h23q-3 -34 -3 -88q0 -96 7 -158q-68 3 -229 3q-218 0 -326 -3v20q33 2 48.5 8t21 23t5.5 55v496q0 38 -5.5 55t-21 23t-48.5 8v20q51 -3 158 -3q102 0 157 3
v-20zM555 492.5q23 -20.5 23 -56.5t-23 -56.5t-62 -20.5t-62 20.5t-23 56.5t23 56.5t62 20.5t62 -20.5z" />
    <glyph glyph-name="ldot" unicode="&#x140;" horiz-adv-x="501" 
d="M228 93q0 -41 14 -56.5t50 -15.5v-21q-104 4 -134 4q-34 0 -138 -4v21q35 0 49.5 15.5t14.5 56.5v570q0 46 -14.5 67t-49.5 21v21q32 -3 62 -3q87 0 146 14v-690zM470 364.5q23 -20.5 23 -56.5t-23 -56.5t-62 -20.5t-62 20.5t-23 56.5t23 56.5t62 20.5t62 -20.5z" />
    <glyph glyph-name="Lslash" unicode="&#x141;" horiz-adv-x="611" 
d="M349 688q-36 -2 -52.5 -8t-22.5 -23t-6 -55v-508q0 -32 5 -46.5t17.5 -19.5t40.5 -5h49q68 0 117.5 61t64.5 162h23q-3 -34 -3 -88q0 -96 7 -158q-68 3 -229 3q-218 0 -326 -3v20q33 2 48.5 8t21 23t5.5 55v496q0 38 -5.5 55t-21 23t-48.5 8v20q51 -3 158 -3q102 0 157 3
v-20zM463 473v-23l-284 -165v10l-155 -90v23l155 90v-10z" />
    <glyph glyph-name="lslash" unicode="&#x142;" horiz-adv-x="311" 
d="M228 93q0 -41 14 -56.5t50 -15.5v-21q-104 4 -134 4q-34 0 -138 -4v21q35 0 49.5 15.5t14.5 56.5v570q0 46 -14.5 67t-49.5 21v21q32 -3 62 -3q87 0 146 14v-690zM327 498l-169 -148v30l169 148v-30zM158 385l-168 -146v30l168 146v-30z" />
    <glyph glyph-name="Nacute" unicode="&#x143;" horiz-adv-x="722" 
d="M693 688q-33 -5 -48.5 -17t-21 -38t-5.5 -77v-558l-24 1l-27 -1l-434 550v-384q0 -59 6 -86.5t26 -40t65 -17.5v-20q-39 3 -108 3q-55 0 -87 -3v20q33 5 48.5 17t21 38t5.5 77v450q0 38 -5.5 55t-21 23t-48.5 8v20q32 -3 87 -3q50 0 86 3l387 -477v313q0 59 -6 86.5
t-26 40t-65 17.5v20q39 -3 108 -3q56 0 87 3v-20zM499 942q16 0 29.5 -8t20.5 -22q6 -10 6 -23q0 -15 -9 -28.5t-25 -22.5q-15 -8 -35 -14.5t-43 -11.5q-7 -2 -44.5 -12t-85.5 -28l-7 12q49 41 99 95q22 23 35 34.5t28 20.5q14 8 31 8z" />
    <glyph glyph-name="nacute" unicode="&#x144;" horiz-adv-x="614" 
d="M506 492q17 -19 24 -49t7 -81v-269q0 -41 14.5 -56.5t49.5 -15.5v-21q-100 4 -132 4q-30 0 -130 -4v21q30 0 42 15.5t12 56.5v311q0 41 -13.5 62t-48.5 21q-41 0 -70 -33.5t-29 -82.5v-278q0 -41 12 -56.5t42 -15.5v-21q-92 4 -124 4q-30 0 -138 -4v21q36 0 50 15.5
t14 56.5v315q0 46 -14 67t-50 21v21q32 -3 62 -3q89 0 146 14v-90q45 93 164 93q76 0 110 -39zM440 779q0 -21 -15 -41q-11 -13 -27.5 -26.5t-35.5 -27.5q-60 -42 -106 -85l-11 9q27 49 56 123q13 31 20.5 46.5t18.5 28.5q19 24 47 24q21 0 35 -13q18 -13 18 -38z" />
    <glyph glyph-name="Ncommaaccent" unicode="&#x145;" horiz-adv-x="722" 
d="M693 688q-33 -5 -48.5 -17t-21 -38t-5.5 -77v-558l-24 1l-27 -1l-434 550v-384q0 -59 6 -86.5t26 -40t65 -17.5v-20q-39 3 -108 3q-55 0 -87 -3v20q33 5 48.5 17t21 38t5.5 77v450q0 38 -5.5 55t-21 23t-48.5 8v20q32 -3 87 -3q50 0 86 3l387 -477v313q0 59 -6 86.5
t-26 40t-65 17.5v20q39 -3 108 -3q56 0 87 3v-20zM427 -76q23 -21 23 -56q0 -46 -28 -74.5t-86 -36.5l-4 21q74 11 80 55q-18 -16 -49 -16q-33 0 -52 16.5t-19 46.5q0 31 20.5 48t55.5 17q36 0 59 -21z" />
    <glyph glyph-name="ncommaaccent" unicode="&#x146;" horiz-adv-x="614" 
d="M506 492q17 -19 24 -49t7 -81v-269q0 -41 14.5 -56.5t49.5 -15.5v-21q-100 4 -132 4q-30 0 -130 -4v21q30 0 42 15.5t12 56.5v311q0 41 -13.5 62t-48.5 21q-41 0 -70 -33.5t-29 -82.5v-278q0 -41 12 -56.5t42 -15.5v-21q-92 4 -124 4q-30 0 -138 -4v21q36 0 50 15.5
t14 56.5v315q0 46 -14 67t-50 21v21q32 -3 62 -3q89 0 146 14v-90q45 93 164 93q76 0 110 -39zM378 -76q23 -21 23 -56q0 -46 -28 -74.5t-86 -36.5l-4 21q74 11 80 55q-18 -16 -49 -16q-33 0 -52 16.5t-19 46.5q0 31 20.5 48t55.5 17q36 0 59 -21z" />
    <glyph glyph-name="Ncaron" unicode="&#x147;" horiz-adv-x="722" 
d="M693 688q-33 -5 -48.5 -17t-21 -38t-5.5 -77v-558l-24 1l-27 -1l-434 550v-384q0 -59 6 -86.5t26 -40t65 -17.5v-20q-39 3 -108 3q-55 0 -87 -3v20q33 5 48.5 17t21 38t5.5 77v450q0 38 -5.5 55t-21 23t-48.5 8v20q32 -3 87 -3q50 0 86 3l387 -477v313q0 59 -6 86.5
t-26 40t-65 17.5v20q39 -3 108 -3q56 0 87 3v-20zM590 923q-64 -26 -118.5 -68t-86.5 -88h-18q-31 45 -85.5 87t-119.5 69l5 15q65 -11 128.5 -29t100.5 -36q31 18 83.5 36t105.5 29z" />
    <glyph glyph-name="ncaron" unicode="&#x148;" horiz-adv-x="614" 
d="M506 492q17 -19 24 -49t7 -81v-269q0 -41 14.5 -56.5t49.5 -15.5v-21q-100 4 -132 4q-30 0 -130 -4v21q30 0 42 15.5t12 56.5v311q0 41 -13.5 62t-48.5 21q-41 0 -70 -33.5t-29 -82.5v-278q0 -41 12 -56.5t42 -15.5v-21q-92 4 -124 4q-30 0 -138 -4v21q36 0 50 15.5
t14 56.5v315q0 46 -14 67t-50 21v21q32 -3 62 -3q89 0 146 14v-90q45 93 164 93q76 0 110 -39zM491 806q-56 -33 -103.5 -85.5t-75.5 -110.5h-18q-27 56 -75 109.5t-104 86.5l8 14q58 -14 112.5 -34.5t87.5 -41.5q27 21 70.5 42t89.5 34z" />
    <glyph glyph-name="napostrophe" unicode="&#x149;" horiz-adv-x="614" 
d="M506 492q17 -19 24 -49t7 -81v-269q0 -41 14.5 -56.5t49.5 -15.5v-21q-100 4 -132 4q-30 0 -130 -4v21q30 0 42 15.5t12 56.5v311q0 41 -13.5 62t-48.5 21q-41 0 -70 -33.5t-29 -82.5v-278q0 -41 12 -56.5t42 -15.5v-21q-92 4 -124 4q-30 0 -138 -4v21q36 0 50 15.5
t14 56.5v315q0 46 -14 67t-50 21v21q32 -3 62 -3q89 0 146 14v-90q45 93 164 93q76 0 110 -39zM83 738q10 -15 16 -37t6 -46q0 -52 -26.5 -94t-78.5 -66l-9 18q29 12 50.5 37t25.5 51q3 12 3 23q0 10 -3 19q-22 -24 -58 -24q-35 0 -57 20.5t-22 56.5q0 34 23 55.5t59 21.5
q49 0 71 -35z" />
    <glyph glyph-name="Eng" unicode="&#x14a;" horiz-adv-x="719" 
d="M692 708v-20q-34 -2 -49 -8t-20.5 -23t-5.5 -55v-538q0 -100 -17.5 -155t-48.5 -76t-79 -21q-52 0 -84 20t-32 60q0 31 21.5 49t55.5 18q33 0 53.5 -17t20.5 -45q0 -21 -11.5 -38.5t-33.5 -26.5q6 -1 20 -1q53 0 79.5 42t31.5 126q-17 0 -28 -1l-433 550v-442
q0 -38 6 -55t22.5 -23t52.5 -8v-20q-36 3 -92 3q-57 0 -87 -3v20q33 2 48.5 8t21 23t5.5 55v496q0 38 -5.5 55t-21 23t-48.5 8v20q30 -3 87 -3q54 0 92 3l381 -469v363q0 38 -6 55t-22.5 23t-52.5 8v20q36 -3 92 -3t87 3z" />
    <glyph glyph-name="eng" unicode="&#x14b;" horiz-adv-x="601" 
d="M506 492q17 -19 24 -49t7 -81v-268q0 -83 -14.5 -137t-49.5 -91q-24 -26 -62.5 -40t-100.5 -14q-45 0 -86 16.5t-41 51.5q0 26 21.5 44.5t59.5 18.5q35 0 57.5 -15.5t22.5 -41.5q0 -36 -46 -54q27 0 40 9q33 4 46 42q7 16 8 48.5t1 90.5v381q0 41 -13.5 62.5t-48.5 21.5
q-41 0 -70 -33.5t-29 -82.5v-278q0 -41 12 -56.5t42 -15.5v-21q-92 4 -124 4q-30 0 -138 -4v21q36 0 50 15.5t14 56.5v315q0 46 -14 67t-50 21v21q32 -3 62 -3q89 0 146 14v-90q45 93 164 93q74 0 110 -39z" />
    <glyph glyph-name="Omacron" unicode="&#x14c;" horiz-adv-x="793" 
d="M582.5 679q79.5 -43 123.5 -124.5t44 -194.5q0 -110 -45 -195t-125.5 -132t-183.5 -47q-106 0 -185.5 43t-123.5 124.5t-44 194.5q0 110 45 195t125.5 132t183.5 47q106 0 185.5 -43zM296 659.5q-42 -44.5 -64.5 -124.5t-22.5 -183q0 -104 25.5 -183t69 -122t96.5 -43
q55 0 97 44.5t64.5 124.5t22.5 183q0 104 -25.5 183t-69 122t-96.5 43q-55 0 -97 -44.5zM595 819h-400v25h400v-25z" />
    <glyph glyph-name="omacron" unicode="&#x14d;" horiz-adv-x="565" 
d="M462 465.5q65 -65.5 65 -207.5t-65 -207t-180 -65q-114 0 -179.5 65t-65.5 207t65.5 207.5t179.5 65.5q115 0 180 -65.5zM213.5 448.5q-25.5 -62.5 -25.5 -190.5t25.5 -190t68.5 -62q44 0 69 61.5t25 190.5t-25.5 191t-68.5 62t-68.5 -62.5zM449 687h-336v25h336v-25z
" />
    <glyph glyph-name="Obreve" unicode="&#x14e;" horiz-adv-x="793" 
d="M582.5 679q79.5 -43 123.5 -124.5t44 -194.5q0 -110 -45 -195t-125.5 -132t-183.5 -47q-106 0 -185.5 43t-123.5 124.5t-44 194.5q0 110 45 195t125.5 132t183.5 47q106 0 185.5 -43zM296 659.5q-42 -44.5 -64.5 -124.5t-22.5 -183q0 -104 25.5 -183t69 -122t96.5 -43
q55 0 97 44.5t64.5 124.5t22.5 183q0 104 -25.5 183t-69 122t-96.5 43q-55 0 -97 -44.5zM612 905q-25 -54 -82 -94t-141 -40t-141 40t-82 94l12 10q33 -25 85.5 -42.5t125.5 -17.5t125 18t86 43z" />
    <glyph glyph-name="obreve" unicode="&#x14f;" horiz-adv-x="565" 
d="M462 465.5q65 -65.5 65 -207.5t-65 -207t-180 -65q-114 0 -179.5 65t-65.5 207t65.5 207.5t179.5 65.5q115 0 180 -65.5zM213.5 448.5q-25.5 -62.5 -25.5 -190.5t25.5 -190t68.5 -62q44 0 69 61.5t25 190.5t-25.5 191t-68.5 62t-68.5 -62.5zM474 779q-22 -66 -69 -112
t-122 -46t-122 46t-69 112l17 9q63 -72 174 -72t174 72z" />
    <glyph glyph-name="Ohungarumlaut" unicode="&#x150;" horiz-adv-x="793" 
d="M582.5 679q79.5 -43 123.5 -124.5t44 -194.5q0 -110 -45 -195t-125.5 -132t-183.5 -47q-106 0 -185.5 43t-123.5 124.5t-44 194.5q0 110 45 195t125.5 132t183.5 47q106 0 185.5 -43zM296 659.5q-42 -44.5 -64.5 -124.5t-22.5 -183q0 -104 25.5 -183t69 -122t96.5 -43
q55 0 97 44.5t64.5 124.5t22.5 183q0 104 -25.5 183t-69 122t-96.5 43q-55 0 -97 -44.5zM388 948q27 0 45 -24q11 -16 11 -30q0 -26 -28 -48q-17 -12 -44 -22.5t-33 -12.5q-58 -21 -95 -39l-10 11q26 29 65 87q16 25 27.5 40t24.5 25q17 13 37 13zM599 948q27 0 45 -24
q11 -16 11 -30q0 -26 -28 -48q-17 -12 -44 -22.5t-33 -12.5q-58 -21 -95 -39l-10 11q26 29 65 87q16 25 27.5 40t24.5 25q17 13 37 13z" />
    <glyph glyph-name="ohungarumlaut" unicode="&#x151;" horiz-adv-x="565" 
d="M462 465.5q65 -65.5 65 -207.5t-65 -207t-180 -65q-114 0 -179.5 65t-65.5 207t65.5 207.5t179.5 65.5q115 0 180 -65.5zM213.5 448.5q-25.5 -62.5 -25.5 -190.5t25.5 -190t68.5 -62q44 0 69 61.5t25 190.5t-25.5 191t-68.5 62t-68.5 -62.5zM336 774q0 -20 -13 -37
q-9 -13 -24 -26.5t-33 -28.5q-56 -47 -92 -84l-12 8q19 45 40 116q7 23 14 42.5t16 32.5q20 28 50 28q18 0 32 -10q22 -16 22 -41zM513 774q0 -20 -13 -37q-9 -13 -22 -25t-36 -31q-64 -56 -91 -83l-12 8q20 46 40 114q10 32 16 48t15 29q19 28 49 28q18 0 32 -10
q22 -16 22 -41z" />
    <glyph glyph-name="OE" unicode="&#x152;" horiz-adv-x="995" 
d="M950 0q-65 3 -221 3q-158 0 -254 -1q-40 -16 -85 -16q-104 0 -182.5 43t-121.5 124.5t-43 194.5q0 110 44.5 195t123.5 132t180 47q44 0 87 -16q96 -1 251 -1q142 0 201 3q-7 -76 -7 -136q0 -44 3 -68h-23q-13 100 -45.5 140.5t-94.5 40.5h-21q-33 0 -48 -5.5t-21 -23
t-6 -54.5v-236h41q35 0 54 19t24.5 36t16.5 63h23q-3 -38 -3 -85v-43q0 -45 6 -128h-23q-7 38 -15 61.5t-27.5 40t-55.5 16.5h-41v-240q0 -37 6 -54.5t21 -23t48 -5.5h29q64 0 102.5 46t49.5 155h23q-3 -33 -3 -84q0 -76 7 -140zM508 608q0 51 -36.5 73.5t-84.5 22.5
q-54 0 -94 -44.5t-62 -124.5t-22 -183q0 -104 24.5 -183t66.5 -122t94 -43q42 0 78 23t36 67v514z" />
    <glyph glyph-name="oe" unicode="&#x153;" horiz-adv-x="814" 
d="M759 148l19 -6q-20 -65 -67 -110.5t-118 -45.5q-51 0 -91.5 21t-67.5 62q-51 -83 -161 -83t-172.5 65t-62.5 207t62.5 207.5t172.5 65.5q111 0 162 -86q27 42 68.5 64t91.5 22q185 0 185 -222h-265q-1 -15 -1 -47q0 -66 18.5 -110t48 -64t63.5 -20q74 0 115 80z
M338.5 67.5q24.5 61.5 24.5 189.5q0 129 -24.5 191.5t-65.5 62.5q-39 0 -61.5 -62t-22.5 -191t22.5 -190.5t61.5 -61.5q41 0 65.5 61.5zM538 465.5q-21 -44.5 -26 -137.5h142q1 79 -15 130.5t-49 51.5q-31 0 -52 -44.5z" />
    <glyph glyph-name="Racute" unicode="&#x154;" horiz-adv-x="692" 
d="M712 44q-27 -31 -58 -44.5t-75 -13.5q-58 0 -91.5 24.5t-43.5 83.5l-18 100q-13 73 -31.5 107.5t-61.5 34.5h-65v-230q0 -38 5.5 -55t20.5 -23t49 -8v-20q-54 3 -151 3q-107 0 -158 -3v20q33 2 48.5 8t21 23t5.5 55v496q0 38 -5.5 55t-21 23t-48.5 8v20q51 -3 152 -3
l111 1q20 1 46 1q138 0 207.5 -45t69.5 -129q0 -71 -52 -125t-172 -68q90 -8 134 -39t57 -93l23 -103q8 -40 18.5 -56t29.5 -16q12 1 20.5 6t19.5 17zM290.5 681q-12.5 -7 -17.5 -25t-5 -54v-246h43q82 0 112.5 43.5t30.5 122.5q0 82 -29 124t-95 42q-27 0 -39.5 -7z
M444 942q16 0 29.5 -8t20.5 -22q6 -10 6 -23q0 -15 -9 -28.5t-25 -22.5q-15 -8 -35 -14.5t-43 -11.5q-7 -2 -44.5 -12t-85.5 -28l-7 12q49 41 99 95q22 23 35 34.5t28 20.5q14 8 31 8z" />
    <glyph glyph-name="racute" unicode="&#x155;" horiz-adv-x="467" 
d="M436 504q23 -27 23 -65q0 -37 -21.5 -60.5t-56.5 -23.5q-34 0 -54 17.5t-20 46.5q0 48 44 78q-4 1 -12 1q-10 0 -16 -2q-38 -6 -64.5 -46t-26.5 -82v-265q0 -46 22.5 -64t71.5 -18v-21q-14 0 -23 1q-102 3 -136 3q-27 0 -123 -3q-8 -1 -20 -1v21q36 0 50 15.5t14 56.5
v315q0 46 -14 67t-50 21v21q32 -3 62 -3q89 0 146 14v-93q19 43 55 69.5t81 26.5t68 -27zM365 779q0 -21 -15 -41q-11 -13 -27.5 -26.5t-35.5 -27.5q-60 -42 -106 -85l-11 9q27 49 56 123q13 31 20.5 46.5t18.5 28.5q19 24 47 24q21 0 35 -13q18 -13 18 -38z" />
    <glyph glyph-name="Rcommaaccent" unicode="&#x156;" horiz-adv-x="692" 
d="M712 44q-27 -31 -58 -44.5t-75 -13.5q-58 0 -91.5 24.5t-43.5 83.5l-18 100q-13 73 -31.5 107.5t-61.5 34.5h-65v-230q0 -38 5.5 -55t20.5 -23t49 -8v-20q-54 3 -151 3q-107 0 -158 -3v20q33 2 48.5 8t21 23t5.5 55v496q0 38 -5.5 55t-21 23t-48.5 8v20q51 -3 152 -3
l111 1q20 1 46 1q138 0 207.5 -45t69.5 -129q0 -71 -52 -125t-172 -68q90 -8 134 -39t57 -93l23 -103q8 -40 18.5 -56t29.5 -16q12 1 20.5 6t19.5 17zM290.5 681q-12.5 -7 -17.5 -25t-5 -54v-246h43q82 0 112.5 43.5t30.5 122.5q0 82 -29 124t-95 42q-27 0 -39.5 -7z
M420 -76q23 -21 23 -56q0 -46 -28 -74.5t-86 -36.5l-4 21q74 11 80 55q-18 -16 -49 -16q-33 0 -52 16.5t-19 46.5q0 31 20.5 48t55.5 17q36 0 59 -21z" />
    <glyph glyph-name="rcommaaccent" unicode="&#x157;" horiz-adv-x="467" 
d="M436 504q23 -27 23 -65q0 -37 -21.5 -60.5t-56.5 -23.5q-34 0 -54 17.5t-20 46.5q0 48 44 78q-4 1 -12 1q-10 0 -16 -2q-38 -6 -64.5 -46t-26.5 -82v-265q0 -46 22.5 -64t71.5 -18v-21q-14 0 -23 1q-102 3 -136 3q-27 0 -123 -3q-8 -1 -20 -1v21q36 0 50 15.5t14 56.5
v315q0 46 -14 67t-50 21v21q32 -3 62 -3q89 0 146 14v-93q19 43 55 69.5t81 26.5t68 -27zM227 -76q23 -21 23 -56q0 -46 -28 -74.5t-86 -36.5l-4 21q74 11 80 55q-18 -16 -49 -16q-33 0 -52 16.5t-19 46.5q0 31 20.5 48t55.5 17q36 0 59 -21z" />
    <glyph glyph-name="Rcaron" unicode="&#x158;" horiz-adv-x="692" 
d="M712 44q-27 -31 -58 -44.5t-75 -13.5q-58 0 -91.5 24.5t-43.5 83.5l-18 100q-13 73 -31.5 107.5t-61.5 34.5h-65v-230q0 -38 5.5 -55t20.5 -23t49 -8v-20q-54 3 -151 3q-107 0 -158 -3v20q33 2 48.5 8t21 23t5.5 55v496q0 38 -5.5 55t-21 23t-48.5 8v20q51 -3 152 -3
l111 1q20 1 46 1q138 0 207.5 -45t69.5 -129q0 -71 -52 -125t-172 -68q90 -8 134 -39t57 -93l23 -103q8 -40 18.5 -56t29.5 -16q12 1 20.5 6t19.5 17zM290.5 681q-12.5 -7 -17.5 -25t-5 -54v-246h43q82 0 112.5 43.5t30.5 122.5q0 82 -29 124t-95 42q-27 0 -39.5 -7z
M535 923q-64 -26 -118.5 -68t-86.5 -88h-18q-31 45 -85.5 87t-119.5 69l5 15q65 -11 128.5 -29t100.5 -36q31 18 83.5 36t105.5 29z" />
    <glyph glyph-name="rcaron" unicode="&#x159;" horiz-adv-x="467" 
d="M436 504q23 -27 23 -65q0 -37 -21.5 -60.5t-56.5 -23.5q-34 0 -54 17.5t-20 46.5q0 48 44 78q-4 1 -12 1q-10 0 -16 -2q-38 -6 -64.5 -46t-26.5 -82v-265q0 -46 22.5 -64t71.5 -18v-21q-14 0 -23 1q-102 3 -136 3q-27 0 -123 -3q-8 -1 -20 -1v21q36 0 50 15.5t14 56.5
v315q0 46 -14 67t-50 21v21q32 -3 62 -3q89 0 146 14v-93q19 43 55 69.5t81 26.5t68 -27zM416 806q-56 -33 -103.5 -85.5t-75.5 -110.5h-18q-27 56 -75 109.5t-104 86.5l8 14q58 -14 112.5 -34.5t87.5 -41.5q27 21 70.5 42t89.5 34z" />
    <glyph glyph-name="Sacute" unicode="&#x15a;" horiz-adv-x="584" 
d="M367 711q31 -10 63 -29q11 -6 19.5 -10t14.5 -4q9 0 14 10.5t8 33.5h23q-5 -67 -5 -228h-23q-4 54 -24.5 103t-58 79.5t-87.5 30.5q-49 0 -79.5 -27.5t-30.5 -74.5q0 -35 15 -61t42 -47.5t83 -58.5l32 -22q59 -39 93 -68t55.5 -67.5t21.5 -89.5q0 -64 -33 -107.5
t-89.5 -65.5t-125.5 -22q-56 0 -93 10t-68 27q-22 14 -34 14q-9 0 -14 -10.5t-8 -33.5h-23q4 63 4 270h23q7 -112 50 -181.5t132 -69.5q54 0 89 29t35 83q0 56 -36 96t-114 90q-60 39 -96 68t-59 68.5t-23 91.5q0 60 30.5 101.5t81.5 61.5t112 20q52 0 83 -10zM418 942
q16 0 29.5 -8t20.5 -22q6 -10 6 -23q0 -15 -9 -28.5t-25 -22.5q-15 -8 -35 -14.5t-43 -11.5q-7 -2 -44.5 -12t-85.5 -28l-7 12q49 41 99 95q22 23 35 34.5t28 20.5q14 8 31 8z" />
    <glyph glyph-name="sacute" unicode="&#x15b;" horiz-adv-x="462" 
d="M292 521.5q32 -9.5 49 -21.5q10 -7 18 -7q9 0 15.5 9.5t8.5 27.5h21q-4 -51 -4 -176h-21q-9 66 -39.5 110.5t-88.5 44.5q-30 0 -49.5 -17t-19.5 -47q0 -34 23 -58.5t72 -59.5l29 -21q61 -46 90 -82t29 -90q0 -44 -25.5 -78t-68.5 -52t-95 -18q-55 0 -94 21q-32 16 -46 21
q-10 3 -17.5 -6.5t-11.5 -28.5h-21q4 57 4 200h21q20 -184 135 -184q29 0 49.5 17.5t20.5 53.5q0 28 -12.5 50t-31.5 39t-57 47q-45 36 -68.5 58t-40 52t-16.5 67q0 64 50 101t122 37q38 0 70 -9.5zM360 779q0 -21 -15 -41q-11 -13 -27.5 -26.5t-35.5 -27.5
q-60 -42 -106 -85l-11 9q27 49 56 123q13 31 20.5 46.5t18.5 28.5q19 24 47 24q21 0 35 -13q18 -13 18 -38z" />
    <glyph glyph-name="Scircumflex" unicode="&#x15c;" horiz-adv-x="584" 
d="M367 711q31 -10 63 -29q11 -6 19.5 -10t14.5 -4q9 0 14 10.5t8 33.5h23q-5 -67 -5 -228h-23q-4 54 -24.5 103t-58 79.5t-87.5 30.5q-49 0 -79.5 -27.5t-30.5 -74.5q0 -35 15 -61t42 -47.5t83 -58.5l32 -22q59 -39 93 -68t55.5 -67.5t21.5 -89.5q0 -64 -33 -107.5
t-89.5 -65.5t-125.5 -22q-56 0 -93 10t-68 27q-22 14 -34 14q-9 0 -14 -10.5t-8 -33.5h-23q4 63 4 270h23q7 -112 50 -181.5t132 -69.5q54 0 89 29t35 83q0 56 -36 96t-114 90q-60 39 -96 68t-59 68.5t-23 91.5q0 60 30.5 101.5t81.5 61.5t112 20q52 0 83 -10zM393.5 853
q54.5 -42 118.5 -69l-5 -15q-65 12 -128.5 30t-100.5 35q-31 -17 -83.5 -35t-105.5 -30l-5 15q64 27 118.5 69t86.5 87h18q32 -45 86.5 -87z" />
    <glyph glyph-name="scircumflex" unicode="&#x15d;" horiz-adv-x="462" 
d="M292 521.5q32 -9.5 49 -21.5q10 -7 18 -7q9 0 15.5 9.5t8.5 27.5h21q-4 -51 -4 -176h-21q-9 66 -39.5 110.5t-88.5 44.5q-30 0 -49.5 -17t-19.5 -47q0 -34 23 -58.5t72 -59.5l29 -21q61 -46 90 -82t29 -90q0 -44 -25.5 -78t-68.5 -52t-95 -18q-55 0 -94 21q-32 16 -46 21
q-10 3 -17.5 -6.5t-11.5 -28.5h-21q4 57 4 200h21q20 -184 135 -184q29 0 49.5 17.5t20.5 53.5q0 28 -12.5 50t-31.5 39t-57 47q-45 36 -68.5 58t-40 52t-16.5 67q0 64 50 101t122 37q38 0 70 -9.5zM317 710.5q48 -53.5 104 -86.5l-8 -14q-58 14 -112.5 34.5t-87.5 41.5
q-27 -21 -70.5 -42t-89.5 -34l-8 14q56 33 103.5 85.5t75.5 110.5h18q27 -56 75 -109.5z" />
    <glyph glyph-name="Scedilla" unicode="&#x15e;" horiz-adv-x="584" 
d="M367 711q31 -10 63 -29q11 -6 19.5 -10t14.5 -4q9 0 14 10.5t8 33.5h23q-5 -67 -5 -228h-23q-4 54 -24.5 103t-58 79.5t-87.5 30.5q-49 0 -79.5 -27.5t-30.5 -74.5q0 -35 15 -61t42 -47.5t83 -58.5l32 -22q59 -39 93 -68t55.5 -67.5t21.5 -89.5q0 -64 -33 -107.5
t-89.5 -65.5t-125.5 -22q-56 0 -93 10t-68 27q-22 14 -34 14q-9 0 -14 -10.5t-8 -33.5h-23q4 63 4 270h23q7 -112 50 -181.5t132 -69.5q54 0 89 29t35 83q0 56 -36 96t-114 90q-60 39 -96 68t-59 68.5t-23 91.5q0 60 30.5 101.5t81.5 61.5t112 20q52 0 83 -10zM293 -65
q34 12 77 12q36 0 55.5 -14.5t19.5 -39.5q0 -40 -45 -60.5t-113 -20.5q-57 0 -93 12l5 18q36 -4 50 -4q37 0 64 10t27 31q0 26 -46 26q-24 0 -39 -7l33 107h27z" />
    <glyph glyph-name="scedilla" unicode="&#x15f;" horiz-adv-x="462" 
d="M292 521.5q32 -9.5 49 -21.5q10 -7 18 -7q9 0 15.5 9.5t8.5 27.5h21q-4 -51 -4 -176h-21q-9 66 -39.5 110.5t-88.5 44.5q-30 0 -49.5 -17t-19.5 -47q0 -34 23 -58.5t72 -59.5l29 -21q61 -46 90 -82t29 -90q0 -44 -25.5 -78t-68.5 -52t-95 -18q-55 0 -94 21q-32 16 -46 21
q-10 3 -17.5 -6.5t-11.5 -28.5h-21q4 57 4 200h21q20 -184 135 -184q29 0 49.5 17.5t20.5 53.5q0 28 -12.5 50t-31.5 39t-57 47q-45 36 -68.5 58t-40 52t-16.5 67q0 64 50 101t122 37q38 0 70 -9.5zM202 -65q31 12 71 12q33 0 51 -14.5t18 -39.5q0 -40 -40 -60.5t-100 -20.5
q-53 0 -87 12l5 18q32 -4 44 -4q29 0 51 10t22 31q0 26 -33 26q-23 0 -40 -7l32 104h27z" />
    <glyph glyph-name="Scaron" unicode="&#x160;" horiz-adv-x="584" 
d="M367 711q31 -10 63 -29q11 -6 19.5 -10t14.5 -4q9 0 14 10.5t8 33.5h23q-5 -67 -5 -228h-23q-4 54 -24.5 103t-58 79.5t-87.5 30.5q-49 0 -79.5 -27.5t-30.5 -74.5q0 -35 15 -61t42 -47.5t83 -58.5l32 -22q59 -39 93 -68t55.5 -67.5t21.5 -89.5q0 -64 -33 -107.5
t-89.5 -65.5t-125.5 -22q-56 0 -93 10t-68 27q-22 14 -34 14q-9 0 -14 -10.5t-8 -33.5h-23q4 63 4 270h23q7 -112 50 -181.5t132 -69.5q54 0 89 29t35 83q0 56 -36 96t-114 90q-60 39 -96 68t-59 68.5t-23 91.5q0 60 30.5 101.5t81.5 61.5t112 20q52 0 83 -10zM509 923
q-64 -26 -118.5 -68t-86.5 -88h-18q-31 45 -85.5 87t-119.5 69l5 15q65 -11 128.5 -29t100.5 -36q31 18 83.5 36t105.5 29z" />
    <glyph glyph-name="scaron" unicode="&#x161;" horiz-adv-x="462" 
d="M292 521.5q32 -9.5 49 -21.5q10 -7 18 -7q9 0 15.5 9.5t8.5 27.5h21q-4 -51 -4 -176h-21q-9 66 -39.5 110.5t-88.5 44.5q-30 0 -49.5 -17t-19.5 -47q0 -34 23 -58.5t72 -59.5l29 -21q61 -46 90 -82t29 -90q0 -44 -25.5 -78t-68.5 -52t-95 -18q-55 0 -94 21q-32 16 -46 21
q-10 3 -17.5 -6.5t-11.5 -28.5h-21q4 57 4 200h21q20 -184 135 -184q29 0 49.5 17.5t20.5 53.5q0 28 -12.5 50t-31.5 39t-57 47q-45 36 -68.5 58t-40 52t-16.5 67q0 64 50 101t122 37q38 0 70 -9.5zM411 806q-56 -33 -103.5 -85.5t-75.5 -110.5h-18q-27 56 -75 109.5
t-104 86.5l8 14q58 -14 112.5 -34.5t87.5 -41.5q27 21 70.5 42t89.5 34z" />
    <glyph glyph-name="uni0162" unicode="&#x162;" horiz-adv-x="668" 
d="M635 538q0 -47 3 -76h-23q-24 123 -65.5 173t-113.5 50h-23v-571q0 -42 8.5 -61t30 -25.5t68.5 -7.5v-20q-126 3 -190 3q-63 0 -183 -3v20q47 1 68.5 7.5t30 25.5t8.5 61v571h-22q-48 0 -81.5 -21t-57.5 -69.5t-41 -132.5h-23q3 29 3 76q0 75 -7 170q91 -3 309 -3t308 3
q-7 -95 -7 -170zM323 -65q34 12 77 12q36 0 55.5 -14.5t19.5 -39.5q0 -40 -45 -60.5t-113 -20.5q-57 0 -93 12l5 18q36 -4 50 -4q37 0 64 10t27 31q0 26 -46 26q-24 0 -39 -7l33 107h27z" />
    <glyph glyph-name="uni0163" unicode="&#x163;" horiz-adv-x="352" 
d="M227 517h118v-20h-118v-404q0 -30 10.5 -42.5t33.5 -12.5q43 0 68 60l17 -9q-38 -103 -137 -103q-66 0 -100 34q-21 21 -28.5 52.5t-7.5 86.5v338h-84v20h84v132q83 0 144 32v-164zM192 -65q31 12 71 12q33 0 51 -14.5t18 -39.5q0 -40 -40 -60.5t-100 -20.5q-53 0 -87 12
l5 18q32 -4 44 -4q29 0 51 10t22 31q0 26 -33 26q-23 0 -40 -7l32 104h27z" />
    <glyph glyph-name="Tcaron" unicode="&#x164;" horiz-adv-x="668" 
d="M635 538q0 -47 3 -76h-23q-24 123 -65.5 173t-113.5 50h-23v-571q0 -42 8.5 -61t30 -25.5t68.5 -7.5v-20q-126 3 -190 3q-63 0 -183 -3v20q47 1 68.5 7.5t30 25.5t8.5 61v571h-22q-48 0 -81.5 -21t-57.5 -69.5t-41 -132.5h-23q3 29 3 76q0 75 -7 170q91 -3 309 -3t308 3
q-7 -95 -7 -170zM545 923q-64 -26 -118.5 -68t-86.5 -88h-18q-31 45 -85.5 87t-119.5 69l5 15q65 -11 128.5 -29t100.5 -36q31 18 83.5 36t105.5 29z" />
    <glyph glyph-name="tcaron" unicode="&#x165;" horiz-adv-x="352" 
d="M227 517h118v-20h-118v-404q0 -30 10.5 -42.5t33.5 -12.5q43 0 68 60l17 -9q-38 -103 -137 -103q-66 0 -100 34q-21 21 -28.5 52.5t-7.5 86.5v338h-84v20h84v132q83 0 144 32v-164zM392.5 765.5q1.5 -12.5 1.5 -23.5q0 -26 -21.5 -63.5t-75.5 -116.5l-14 4q20 113 20 145
q0 21 -4 30.5t-16 9.5v21l23 -1q25 0 42.5 3t40.5 9q2 -5 3.5 -17.5z" />
    <glyph glyph-name="Tbar" unicode="&#x166;" horiz-adv-x="668" 
d="M635 538q0 -47 3 -76h-23q-24 123 -65.5 173t-113.5 50h-23v-571q0 -42 8.5 -61t30 -25.5t68.5 -7.5v-20q-126 3 -190 3q-63 0 -183 -3v20q47 1 68.5 7.5t30 25.5t8.5 61v571h-22q-48 0 -81.5 -21t-57.5 -69.5t-41 -132.5h-23q3 29 3 76q0 75 -7 170q91 -3 309 -3t308 3
q-7 -95 -7 -170zM552.199 344h-437.766v20h437.766v-20z" />
    <glyph glyph-name="tbar" unicode="&#x167;" horiz-adv-x="362" 
d="M358 89q-38 -103 -137 -103q-66 0 -100 34q-21 21 -28.5 52.5t-7.5 86.5v242h-83v20h83v76h-84v20h84v132q83 0 144 32v-164h118v-20h-118v-76h119v-20h-119v-308q0 -30 10.5 -42.5t33.5 -12.5q43 0 68 60z" />
    <glyph glyph-name="Utilde" unicode="&#x168;" horiz-adv-x="689" 
d="M671 688q-33 -5 -48.5 -17t-21 -38t-5.5 -77v-265q0 -143 -41 -212q-27 -44 -78 -68.5t-125 -24.5q-116 0 -180 50q-46 37 -62 93.5t-16 158.5v314q0 38 -5.5 55t-21 23t-48.5 8v20q51 -3 156 -3q104 0 159 3v-20q-36 -2 -52.5 -8t-22.5 -23t-6 -55v-377
q0 -105 30.5 -154.5t107.5 -49.5q100 0 141 67.5t41 191.5v264q0 58 -7 86t-27 40.5t-63 17.5v20q38 -3 108 -3q56 0 87 3v-20zM327.5 914q25.5 -10 56.5 -28q28 -17 49 -25t46 -8q53 0 83 54l14 -5q-13 -66 -49 -100t-84 -34q-33 0 -57.5 9.5t-56.5 28.5q-29 17 -50.5 25
t-46.5 8q-51 0 -83 -55l-14 5q14 66 50.5 100.5t83.5 34.5q33 0 58.5 -10z" />
    <glyph glyph-name="utilde" unicode="&#x169;" horiz-adv-x="606" 
d="M522 109q0 -46 14.5 -67t49.5 -21v-21q-31 3 -62 3q-87 0 -146 -14v90q-46 -93 -161 -93q-75 0 -109 39q-16 19 -23.5 49.5t-7.5 80.5v253q0 46 -14.5 67t-49.5 21v21q31 -3 62 -3q87 0 146 14v-414q0 -42 12.5 -63t47.5 -21q40 0 68.5 33.5t28.5 82.5v262q0 46 -14.5 67
t-49.5 21v21q32 -3 62 -3q87 0 146 14v-419zM263 777q20 -9 45 -27q24 -16 39 -23t36 -7q45 0 77 53l14 -7q-16 -71 -49 -105t-75 -34q-28 0 -48 9t-48 27q-21 16 -37 23.5t-37 7.5q-44 0 -77 -54l-14 7q16 71 49.5 105t75.5 34q29 0 49 -9z" />
    <glyph glyph-name="Umacron" unicode="&#x16a;" horiz-adv-x="689" 
d="M671 688q-33 -5 -48.5 -17t-21 -38t-5.5 -77v-265q0 -143 -41 -212q-27 -44 -78 -68.5t-125 -24.5q-116 0 -180 50q-46 37 -62 93.5t-16 158.5v314q0 38 -5.5 55t-21 23t-48.5 8v20q51 -3 156 -3q104 0 159 3v-20q-36 -2 -52.5 -8t-22.5 -23t-6 -55v-377
q0 -105 30.5 -154.5t107.5 -49.5q100 0 141 67.5t41 191.5v264q0 58 -7 86t-27 40.5t-63 17.5v20q38 -3 108 -3q56 0 87 3v-20zM557 819h-400v25h400v-25z" />
    <glyph glyph-name="umacron" unicode="&#x16b;" horiz-adv-x="606" 
d="M522 109q0 -46 14.5 -67t49.5 -21v-21q-31 3 -62 3q-87 0 -146 -14v90q-46 -93 -161 -93q-75 0 -109 39q-16 19 -23.5 49.5t-7.5 80.5v253q0 46 -14.5 67t-49.5 21v21q31 -3 62 -3q87 0 146 14v-414q0 -42 12.5 -63t47.5 -21q40 0 68.5 33.5t28.5 82.5v262q0 46 -14.5 67
t-49.5 21v21q32 -3 62 -3q87 0 146 14v-419zM454 687h-336v25h336v-25z" />
    <glyph glyph-name="Ubreve" unicode="&#x16c;" horiz-adv-x="689" 
d="M671 688q-33 -5 -48.5 -17t-21 -38t-5.5 -77v-265q0 -143 -41 -212q-27 -44 -78 -68.5t-125 -24.5q-116 0 -180 50q-46 37 -62 93.5t-16 158.5v314q0 38 -5.5 55t-21 23t-48.5 8v20q51 -3 156 -3q104 0 159 3v-20q-36 -2 -52.5 -8t-22.5 -23t-6 -55v-377
q0 -105 30.5 -154.5t107.5 -49.5q100 0 141 67.5t41 191.5v264q0 58 -7 86t-27 40.5t-63 17.5v20q38 -3 108 -3q56 0 87 3v-20zM574 905q-25 -54 -82 -94t-141 -40t-141 40t-82 94l12 10q33 -25 85.5 -42.5t125.5 -17.5t125 18t86 43z" />
    <glyph glyph-name="ubreve" unicode="&#x16d;" horiz-adv-x="606" 
d="M522 109q0 -46 14.5 -67t49.5 -21v-21q-31 3 -62 3q-87 0 -146 -14v90q-46 -93 -161 -93q-75 0 -109 39q-16 19 -23.5 49.5t-7.5 80.5v253q0 46 -14.5 67t-49.5 21v21q31 -3 62 -3q87 0 146 14v-414q0 -42 12.5 -63t47.5 -21q40 0 68.5 33.5t28.5 82.5v262q0 46 -14.5 67
t-49.5 21v21q32 -3 62 -3q87 0 146 14v-419zM479 779q-22 -66 -69 -112t-122 -46t-122 46t-69 112l17 9q63 -72 174 -72t174 72z" />
    <glyph glyph-name="Uring" unicode="&#x16e;" horiz-adv-x="689" 
d="M671 688q-33 -5 -48.5 -17t-21 -38t-5.5 -77v-265q0 -143 -41 -212q-27 -44 -78 -68.5t-125 -24.5q-116 0 -180 50q-46 37 -62 93.5t-16 158.5v314q0 38 -5.5 55t-21 23t-48.5 8v20q51 -3 156 -3q104 0 159 3v-20q-36 -2 -52.5 -8t-22.5 -23t-6 -55v-377
q0 -105 30.5 -154.5t107.5 -49.5q100 0 141 67.5t41 191.5v264q0 58 -7 86t-27 40.5t-63 17.5v20q38 -3 108 -3q56 0 87 3v-20zM434 961.5q32 -26.5 32 -70.5t-32 -71t-77 -27t-76.5 27t-31.5 71t31.5 70.5t76.5 26.5t77 -26.5zM301.5 946q-24.5 -21 -24.5 -56
q0 -36 24.5 -56t55.5 -20q32 0 56.5 20t24.5 56q0 35 -24.5 56t-56.5 21q-31 0 -55.5 -21z" />
    <glyph glyph-name="uring" unicode="&#x16f;" horiz-adv-x="606" 
d="M522 109q0 -46 14.5 -67t49.5 -21v-21q-31 3 -62 3q-87 0 -146 -14v90q-46 -93 -161 -93q-75 0 -109 39q-16 19 -23.5 49.5t-7.5 80.5v253q0 46 -14.5 67t-49.5 21v21q31 -3 62 -3q87 0 146 14v-414q0 -42 12.5 -63t47.5 -21q40 0 68.5 33.5t28.5 82.5v262q0 46 -14.5 67
t-49.5 21v21q32 -3 62 -3q87 0 146 14v-419zM366 770.5q32 -26.5 32 -70.5t-32 -71t-77 -27t-76.5 27t-31.5 71t31.5 70.5t76.5 26.5t77 -26.5zM233.5 755q-24.5 -21 -24.5 -56q0 -36 24.5 -56t55.5 -20q32 0 56.5 20t24.5 56q0 35 -24.5 56t-56.5 21q-31 0 -55.5 -21z" />
    <glyph glyph-name="Uhungarumlaut" unicode="&#x170;" horiz-adv-x="689" 
d="M671 688q-33 -5 -48.5 -17t-21 -38t-5.5 -77v-265q0 -143 -41 -212q-27 -44 -78 -68.5t-125 -24.5q-116 0 -180 50q-46 37 -62 93.5t-16 158.5v314q0 38 -5.5 55t-21 23t-48.5 8v20q51 -3 156 -3q104 0 159 3v-20q-36 -2 -52.5 -8t-22.5 -23t-6 -55v-377
q0 -105 30.5 -154.5t107.5 -49.5q100 0 141 67.5t41 191.5v264q0 58 -7 86t-27 40.5t-63 17.5v20q38 -3 108 -3q56 0 87 3v-20zM350 948q27 0 45 -24q11 -16 11 -30q0 -26 -28 -48q-17 -12 -44 -22.5t-33 -12.5q-58 -21 -95 -39l-10 11q26 29 65 87q16 25 27.5 40t24.5 25
q17 13 37 13zM561 948q27 0 45 -24q11 -16 11 -30q0 -26 -28 -48q-17 -12 -44 -22.5t-33 -12.5q-58 -21 -95 -39l-10 11q26 29 65 87q16 25 27.5 40t24.5 25q17 13 37 13z" />
    <glyph glyph-name="uhungarumlaut" unicode="&#x171;" horiz-adv-x="606" 
d="M522 109q0 -46 14.5 -67t49.5 -21v-21q-31 3 -62 3q-87 0 -146 -14v90q-46 -93 -161 -93q-75 0 -109 39q-16 19 -23.5 49.5t-7.5 80.5v253q0 46 -14.5 67t-49.5 21v21q31 -3 62 -3q87 0 146 14v-414q0 -42 12.5 -63t47.5 -21q40 0 68.5 33.5t28.5 82.5v262q0 46 -14.5 67
t-49.5 21v21q32 -3 62 -3q87 0 146 14v-419zM341 774q0 -20 -13 -37q-9 -13 -24 -26.5t-33 -28.5q-56 -47 -92 -84l-12 8q19 45 40 116q7 23 14 42.5t16 32.5q20 28 50 28q18 0 32 -10q22 -16 22 -41zM518 774q0 -20 -13 -37q-9 -13 -22 -25t-36 -31q-64 -56 -91 -83l-12 8
q20 46 40 114q10 32 16 48t15 29q19 28 49 28q18 0 32 -10q22 -16 22 -41z" />
    <glyph glyph-name="Uogonek" unicode="&#x172;" horiz-adv-x="689" 
d="M671 688q-33 -5 -48.5 -17t-21 -38t-5.5 -77v-265q0 -143 -41 -212q-27 -44 -78 -68.5t-125 -24.5q-116 0 -180 50q-46 37 -62 93.5t-16 158.5v314q0 38 -5.5 55t-21 23t-48.5 8v20q51 -3 156 -3q104 0 159 3v-20q-36 -2 -52.5 -8t-22.5 -23t-6 -55v-377
q0 -105 30.5 -154.5t107.5 -49.5q100 0 141 67.5t41 191.5v264q0 58 -7 86t-27 40.5t-63 17.5v20q38 -3 108 -3q56 0 87 3v-20zM376.5 -40q-26.5 -26 -26.5 -52q0 -41 42 -41q17 0 34.5 7.5t29.5 19.5l13 -14q-26 -36 -59 -52t-78 -16q-43 0 -67 18.5t-24 50.5q0 41 47 72.5
t133 49.5h38q-56 -17 -82.5 -43z" />
    <glyph glyph-name="uogonek" unicode="&#x173;" horiz-adv-x="606" 
d="M522 109q0 -46 14.5 -67t49.5 -21v-21q-31 3 -62 3q-87 0 -146 -14v90q-46 -93 -161 -93q-75 0 -109 39q-16 19 -23.5 49.5t-7.5 80.5v253q0 46 -14.5 67t-49.5 21v21q31 -3 62 -3q87 0 146 14v-414q0 -42 12.5 -63t47.5 -21q40 0 68.5 33.5t28.5 82.5v262q0 46 -14.5 67
t-49.5 21v21q32 -3 62 -3q87 0 146 14v-419zM554 -3q-40 -19 -57.5 -42t-17.5 -47q0 -41 41 -41q17 0 35 8t29 19l14 -14q-27 -36 -59.5 -52t-77.5 -16q-44 0 -67.5 18t-23.5 51q0 41 42 72.5t120 49.5l41 6q-5 -6 -19 -12z" />
    <glyph glyph-name="Wcircumflex" unicode="&#x174;" horiz-adv-x="968" 
d="M974 708v-20q-25 -10 -48.5 -38.5t-39.5 -80.5l-176 -571q-11 1 -35 1t-35 -1l-147 446l-148 -446q-11 1 -35 1t-35 -1l-224 626q-12 33 -29 48t-34 16v20q60 -3 149 -3q84 0 123 3v-20q-35 -5 -35 -39q0 -16 9 -45l146 -423l101 298l-51 155q-10 29 -23.5 40.5
t-31.5 13.5v20q56 -3 143 -3q98 0 144 3v-20q-36 -1 -52 -8.5t-16 -28.5q0 -18 10 -47l137 -418l95 302q23 75 23 116q0 43 -21.5 62.5t-64.5 21.5v20q68 -3 124 -3q47 0 77 3zM596.5 853q54.5 -42 118.5 -69l-5 -15q-65 12 -128.5 30t-100.5 35q-31 -17 -83.5 -35
t-105.5 -30l-5 15q64 27 118.5 69t86.5 87h18q32 -45 86.5 -87z" />
    <glyph glyph-name="wcircumflex" unicode="&#x175;" horiz-adv-x="787" 
d="M787 517v-20q-21 -6 -38 -25t-30 -61l-133 -413q-11 1 -33 1q-21 0 -32 -1l-136 371l-111 -371q-10 1 -32 1t-33 -1l-158 442q-12 35 -27 45.5t-31 10.5v21q65 -6 142 -6q50 0 130 6v-21q-33 0 -47.5 -5t-14.5 -24q0 -13 5 -27l90 -283l109 361l37 -1l36 1l130 -382
l63 201q14 47 14 76q0 78 -79 84v20q47 -3 103 -3q51 0 76 3zM495 710.5q48 -53.5 104 -86.5l-8 -14q-58 14 -112.5 34.5t-87.5 41.5q-27 -21 -70.5 -42t-89.5 -34l-8 14q56 33 103.5 85.5t75.5 110.5h18q27 -56 75 -109.5z" />
    <glyph glyph-name="Ycircumflex" unicode="&#x176;" horiz-adv-x="623" 
d="M617 709v-20q-46 -19 -96 -116l-118 -234v-233q0 -38 5.5 -55t20.5 -23t49 -8v-20q-54 3 -154 3q-107 0 -155 -3v20q33 2 48.5 8t21 23t5.5 55v169l-193 357q-31 56 -58 56v21q44 -5 118 -5q93 0 188 5v-21q-35 0 -55.5 -6.5t-20.5 -23.5q0 -9 7 -22l152 -293l78 156
q39 79 39 124q0 34 -21.5 49t-61.5 17v20q68 -3 125 -3q46 0 76 3zM425.5 853q54.5 -42 118.5 -69l-5 -15q-65 12 -128.5 30t-100.5 35q-31 -17 -83.5 -35t-105.5 -30l-5 15q64 27 118.5 69t86.5 87h18q32 -45 86.5 -87z" />
    <glyph glyph-name="ycircumflex" unicode="&#x177;" horiz-adv-x="519" 
d="M513 517v-20q-21 -6 -37.5 -25.5t-31.5 -60.5l-179 -503q-20 -52 -44 -71q-29 -25 -87 -25q-42 0 -75.5 20.5t-33.5 59.5q0 31 22 49.5t58 18.5q34 0 54.5 -16.5t20.5 -46.5q0 -21 -13 -38.5t-37 -26.5q7 -1 23 -1q62 0 91 79l16 48l-212 482q-16 34 -31 45t-31 11v21
q66 -6 137 -6q59 0 139 6v-21q-32 0 -47.5 -4.5t-15.5 -23.5q0 -11 7 -28l122 -295l69 192q16 47 16 80q0 73 -74 80v20q47 -3 97 -3t77 3zM342 710.5q48 -53.5 104 -86.5l-8 -14q-58 14 -112.5 34.5t-87.5 41.5q-27 -21 -70.5 -42t-89.5 -34l-8 14q56 33 103.5 85.5
t75.5 110.5h18q27 -56 75 -109.5z" />
    <glyph glyph-name="Ydieresis" unicode="&#x178;" horiz-adv-x="623" 
d="M617 709v-20q-46 -19 -96 -116l-118 -234v-233q0 -38 5.5 -55t20.5 -23t49 -8v-20q-54 3 -154 3q-107 0 -155 -3v20q33 2 48.5 8t21 23t5.5 55v169l-193 357q-31 56 -58 56v21q44 -5 118 -5q93 0 188 5v-21q-35 0 -55.5 -6.5t-20.5 -23.5q0 -9 7 -22l152 -293l78 156
q39 79 39 124q0 34 -21.5 49t-61.5 17v20q68 -3 125 -3q46 0 76 3zM263 894q23 -23 23 -53t-23 -52.5t-53 -22.5q-31 0 -53 22t-22 53q0 30 22.5 53t52.5 23t53 -23zM502.5 894q22.5 -23 22.5 -53q0 -31 -22.5 -53t-52.5 -22q-31 0 -53.5 22t-22.5 53q0 30 22.5 53t53.5 23
q30 0 52.5 -23z" />
    <glyph glyph-name="Zacute" unicode="&#x179;" horiz-adv-x="602" 
d="M557 688l-342 -665h104q78 0 138.5 52t72.5 165h23q-3 -34 -3 -88q0 -92 7 -152q-74 3 -249 3q-186 0 -269 -3v20l343 665h-108q-82 0 -134.5 -47t-65.5 -158h-23q3 29 3 76q0 67 -7 152q66 -3 225 -3q197 0 285 3v-20zM422 942q16 0 29.5 -8t20.5 -22q6 -10 6 -23
q0 -15 -9 -28.5t-25 -22.5q-15 -8 -35 -14.5t-43 -11.5q-7 -2 -44.5 -12t-85.5 -28l-7 12q49 41 99 95q22 23 35 34.5t28 20.5q14 8 31 8z" />
    <glyph glyph-name="zacute" unicode="&#x17a;" horiz-adv-x="474" 
d="M194 15h52q64 0 108 42.5t52 136.5h21q0 -142 4 -198q-81 4 -192 4q-98 0 -208 -5l250 507h-56q-143 0 -156 -179h-21q0 142 -4 198q81 -4 192 -4q98 0 208 5zM380 779q0 -21 -15 -41q-11 -13 -27.5 -26.5t-35.5 -27.5q-60 -42 -106 -85l-11 9q27 49 56 123
q13 31 20.5 46.5t18.5 28.5q19 24 47 24q21 0 35 -13q18 -13 18 -38z" />
    <glyph glyph-name="Zdotaccent" unicode="&#x17b;" horiz-adv-x="602" 
d="M557 688l-342 -665h104q78 0 138.5 52t72.5 165h23q-3 -34 -3 -88q0 -92 7 -152q-74 3 -249 3q-186 0 -269 -3v20l343 665h-108q-82 0 -134.5 -47t-65.5 -158h-23q3 29 3 76q0 67 -7 152q66 -3 225 -3q197 0 285 3v-20zM368.5 945.5q24.5 -20.5 24.5 -56.5t-24.5 -56.5
t-66.5 -20.5t-66.5 20.5t-24.5 56.5t24.5 56.5t66.5 20.5t66.5 -20.5z" />
    <glyph glyph-name="zdotaccent" unicode="&#x17c;" horiz-adv-x="474" 
d="M194 15h52q64 0 108 42.5t52 136.5h21q0 -142 4 -198q-81 4 -192 4q-98 0 -208 -5l250 507h-56q-143 0 -156 -179h-21q0 142 -4 198q81 -4 192 -4q98 0 208 5zM319.5 754.5q24.5 -20.5 24.5 -56.5t-24.5 -56.5t-66.5 -20.5t-66.5 20.5t-24.5 56.5t24.5 56.5t66.5 20.5
t66.5 -20.5z" />
    <glyph glyph-name="Zcaron" unicode="&#x17d;" horiz-adv-x="602" 
d="M557 688l-342 -665h104q78 0 138.5 52t72.5 165h23q-3 -34 -3 -88q0 -92 7 -152q-74 3 -249 3q-186 0 -269 -3v20l343 665h-108q-82 0 -134.5 -47t-65.5 -158h-23q3 29 3 76q0 67 -7 152q66 -3 225 -3q197 0 285 3v-20zM513 923q-64 -26 -118.5 -68t-86.5 -88h-18
q-31 45 -85.5 87t-119.5 69l5 15q65 -11 128.5 -29t100.5 -36q31 18 83.5 36t105.5 29z" />
    <glyph glyph-name="zcaron" unicode="&#x17e;" horiz-adv-x="474" 
d="M194 15h52q64 0 108 42.5t52 136.5h21q0 -142 4 -198q-81 4 -192 4q-98 0 -208 -5l250 507h-56q-143 0 -156 -179h-21q0 142 -4 198q81 -4 192 -4q98 0 208 5zM431 806q-56 -33 -103.5 -85.5t-75.5 -110.5h-18q-27 56 -75 109.5t-104 86.5l8 14q58 -14 112.5 -34.5
t87.5 -41.5q27 21 70.5 42t89.5 34z" />
    <glyph glyph-name="longs" unicode="&#x17f;" horiz-adv-x="352" 
d="M24 21q36 0 50 15.5t14 56.5v403h-68v20h68q0 87 14 134.5t49 81.5q22 22 59 36t78 14q62 0 107 -33q15 -12 24.5 -31.5t9.5 -43.5q0 -28 -20 -48.5t-51 -20.5q-34 0 -55 19t-21 52q0 26 15 46t44 28q-3 6 -12.5 10t-23.5 4q-38 0 -54 -26q-11 -15 -15 -44t-4 -87v-504
q0 -46 23.5 -64t70.5 -18v-21l-28 1q-111 3 -144 3q-30 0 -130 -4v21z" />
    <glyph glyph-name="uni018F" unicode="&#x18f;" horiz-adv-x="746" 
d="M533.5 681q79.5 -42 124.5 -124.5t45 -201.5q0 -118 -44.5 -201t-122.5 -125.5t-178 -42.5q-90 0 -161.5 34.5t-113 105.5t-40.5 175h495q2 30 2 47q0 118 -33.5 194.5t-88.5 111.5t-121 35q-37 0 -70 -10.5t-58 -31.5q-36 -25 -51.5 -66.5t-23.5 -114.5h-23
q0 174 -4 242h23q3 -32 8.5 -45.5t15.5 -13.5q8 0 21 8q4 3 33.5 22t78 31.5t104.5 12.5q103 0 182.5 -42zM539 282h-330q-1 -11 -1 -34q0 -67 19.5 -122t57 -87t88.5 -32q146 0 166 275z" />
    <glyph glyph-name="florin" unicode="&#x192;" horiz-adv-x="551" 
d="M402.5 719q14.5 20 41.5 30q-4 6 -16 10.5t-28 4.5q-20 0 -37 -9t-26 -25q-13 -21 -15.5 -61.5t-2.5 -152.5h181v-20h-181v-402q0 -84 -14 -138t-50 -90q-54 -54 -162 -54q-48 0 -86 18.5t-38 59.5q0 29 21.5 47t56.5 18q33 0 52.5 -16.5t19.5 -46.5q0 -17 -10.5 -33.5
t-31.5 -27.5q27 2 38 9q15 2 28 10.5t19 21.5q8 17 10.5 47.5t2.5 102.5v474h-136v20h136q0 88 14 135t49 81q23 23 61 36.5t82 13.5q61 0 108.5 -26t47.5 -78q0 -31 -20.5 -52t-52.5 -21q-34 0 -55 18.5t-21 49.5q0 26 14.5 46z" />
    <glyph glyph-name="Ohorn" unicode="&#x1a0;" horiz-adv-x="793" 
d="M704.5 557.5q45.5 -82.5 45.5 -197.5q0 -110 -45 -195t-125.5 -132t-183.5 -47q-106 0 -185.5 43t-123.5 124.5t-44 194.5q0 110 45 195t125.5 132t183.5 47q77 0 137 -22q80 1 134 24q-22 14 -36 33.5t-14 44.5q0 30 19.5 49.5t49.5 19.5q31 0 51 -19.5t20 -51.5
q0 -27 -16.5 -49.5t-47.5 -38.5q-42 -23 -117 -30q82 -42 127.5 -124.5zM497 48.5q42 44.5 64.5 124.5t22.5 183q0 104 -25.5 183t-69 122t-96.5 43q-55 0 -97 -44.5t-64.5 -124.5t-22.5 -183q0 -104 25.5 -183t69 -122t96.5 -43q55 0 97 44.5z" />
    <glyph glyph-name="ohorn" unicode="&#x1a1;" horiz-adv-x="565" 
d="M565.5 633.5q18.5 -16.5 18.5 -44.5q0 -51 -57 -80q-36 -16 -88 -23q88 -67 88 -228q0 -142 -65 -207t-180 -65q-114 0 -179.5 65t-65.5 207t65.5 207.5t179.5 65.5q78 0 132 -29q42 3 76 14q-17 12 -27.5 30t-10.5 39q0 28 18.5 46.5t48.5 18.5q28 0 46.5 -16.5z
M351 67.5q25 61.5 25 190.5t-25.5 191t-68.5 62t-68.5 -62.5t-25.5 -190.5t25.5 -190t68.5 -62q44 0 69 61.5z" />
    <glyph glyph-name="Uhorn" unicode="&#x1af;" horiz-adv-x="689" 
d="M731.5 855q20.5 -20 20.5 -51q0 -28 -17 -50.5t-46 -37.5q-48 -25 -93 -30v-395q0 -143 -41 -212q-27 -44 -78 -68.5t-125 -24.5q-116 0 -180 50q-46 37 -62 93.5t-16 158.5v314q0 38 -5.5 55t-21 23t-48.5 8v20q51 -3 156 -3q104 0 159 3v-20q-36 -2 -52.5 -8t-22.5 -23
t-6 -55v-377q0 -105 30.5 -154.5t107.5 -49.5q100 0 141 67.5t41 191.5v405l-33 -1q-38 0 -66 4l5 20q52 -4 74 -4q37 0 62.5 4.5t48.5 18.5q-22 13 -37 33t-15 45q0 31 19.5 50.5t49.5 19.5t50.5 -20z" />
    <glyph glyph-name="uhorn" unicode="&#x1b0;" horiz-adv-x="606" 
d="M623.5 659.5q18.5 -16.5 18.5 -43.5q0 -47 -56 -81q-27 -17 -64 -27v-399q0 -46 14.5 -67t49.5 -21v-21q-31 3 -62 3q-87 0 -146 -14v90q-46 -93 -161 -93q-75 0 -109 39q-16 19 -23.5 49.5t-7.5 80.5v253q0 46 -14.5 67t-49.5 21v21q31 -3 62 -3q87 0 146 14v-414
q0 -42 12.5 -63t47.5 -21q40 0 68.5 33.5t28.5 82.5v262q0 46 -14.5 67t-49.5 21v21q32 -3 62 -3q78 0 138 12q20 6 37 15q-17 12 -29 30t-12 40q0 28 18.5 46.5t48.5 18.5q28 0 46.5 -16.5z" />
    <glyph glyph-name="uni01B7" unicode="&#x1b7;" horiz-adv-x="602" 
d="M566 195q0 -59 -34.5 -106.5t-98.5 -75t-148 -27.5q-54 0 -97.5 11t-69.5 26q-23 14 -33 14t-15 -10.5t-8 -33.5h-23q4 63 4 270h23q6 -109 54.5 -180t139.5 -71q78 0 117.5 51.5t39.5 126.5q0 81 -46.5 129.5t-130.5 64.5v20l148 281h-114q-82 0 -134.5 -47t-65.5 -158
h-23q3 29 3 72q0 71 -7 156q66 -3 225 -3q197 0 285 3v-20l-157 -304q166 -64 166 -189z" />
    <glyph glyph-name="uni01CD" unicode="&#x1cd;" horiz-adv-x="667" 
d="M641 36q17 -15 33 -16v-20q-60 3 -152 3q-102 0 -152 -3v20q38 2 54 9.5t16 26.5q0 18 -12 48l-60 164h-218l-26 -69q-28 -72 -28 -111q0 -37 22.5 -51.5t66.5 -16.5v-20q-68 3 -124 3q-46 0 -76 -3v20q49 9 86 105l228 585q11 -1 35 -1t34 1l243 -626q13 -33 30 -48z
M361 288l-99 270l-104 -270h203zM544 923q-64 -26 -118.5 -68t-86.5 -88h-18q-31 45 -85.5 87t-119.5 69l5 15q65 -11 128.5 -29t100.5 -36q31 18 83.5 36t105.5 29z" />
    <glyph glyph-name="uni01CE" unicode="&#x1ce;" horiz-adv-x="518" 
d="M60.5 26q-31.5 33 -31.5 87q0 45 23.5 74.5t57 45.5t85.5 34q55 19 80.5 34.5t25.5 42.5v78q0 42 -19.5 65.5t-60.5 23.5q-48 0 -73 -24q28 -10 43.5 -30t15.5 -47q0 -34 -23 -54t-56 -20q-35 0 -54 22t-19 55q0 28 13.5 47.5t41.5 36.5q27 16 66.5 25t86.5 9
q49 0 85 -10t60 -34q22 -22 29.5 -54t7.5 -87v-272q0 -24 4.5 -34t17.5 -10q15 0 36 17l10 -17q-45 -37 -110 -37q-55 0 -77 22t-23 59q-50 -81 -147 -81q-64 0 -95.5 33zM301 98v205q-12 -20 -51 -44q-39 -25 -59 -50t-20 -72q0 -41 17 -60.5t45 -19.5q39 0 68 41zM438 806
q-56 -33 -103.5 -85.5t-75.5 -110.5h-18q-27 56 -75 109.5t-104 86.5l8 14q58 -14 112.5 -34.5t87.5 -41.5q27 21 70.5 42t89.5 34z" />
    <glyph glyph-name="uni01D3" unicode="&#x1d3;" horiz-adv-x="689" 
d="M671 688q-33 -5 -48.5 -17t-21 -38t-5.5 -77v-265q0 -143 -41 -212q-27 -44 -78 -68.5t-125 -24.5q-116 0 -180 50q-46 37 -62 93.5t-16 158.5v314q0 38 -5.5 55t-21 23t-48.5 8v20q51 -3 156 -3q104 0 159 3v-20q-36 -2 -52.5 -8t-22.5 -23t-6 -55v-377
q0 -105 30.5 -154.5t107.5 -49.5q100 0 141 67.5t41 191.5v264q0 58 -7 86t-27 40.5t-63 17.5v20q38 -3 108 -3q56 0 87 3v-20zM568 923q-64 -26 -118.5 -68t-86.5 -88h-18q-31 45 -85.5 87t-119.5 69l5 15q65 -11 128.5 -29t100.5 -36q31 18 83.5 36t105.5 29z" />
    <glyph glyph-name="uni01D4" unicode="&#x1d4;" horiz-adv-x="606" 
d="M522 109q0 -46 14.5 -67t49.5 -21v-21q-31 3 -62 3q-87 0 -146 -14v90q-46 -93 -161 -93q-75 0 -109 39q-16 19 -23.5 49.5t-7.5 80.5v253q0 46 -14.5 67t-49.5 21v21q31 -3 62 -3q87 0 146 14v-414q0 -42 12.5 -63t47.5 -21q40 0 68.5 33.5t28.5 82.5v262q0 46 -14.5 67
t-49.5 21v21q32 -3 62 -3q87 0 146 14v-419zM467 806q-56 -33 -103.5 -85.5t-75.5 -110.5h-18q-27 56 -75 109.5t-104 86.5l8 14q58 -14 112.5 -34.5t87.5 -41.5q27 21 70.5 42t89.5 34z" />
    <glyph glyph-name="uni01E4" unicode="&#x1e4;" horiz-adv-x="735" 
d="M735 174h-68v-174h-20q-1 21 -8.5 39t-20.5 18q-17 0 -54 -21q-87 -50 -164 -50q-173 0 -265 94.5t-92 265.5q0 112 46.5 197t128.5 132t187 47q62 0 104.5 -17t83.5 -48q12 -9 20 -9q10 0 16 14.5t9 45.5h23q-4 -68 -4 -242h-23q-8 68 -23.5 110t-51.5 71q-24 23 -59 36
t-72 13q-70 0 -116.5 -47.5t-68.5 -125.5t-22 -171q0 -346 192 -346q44 0 71 20q13 9 18.5 21t5.5 31v96h-110v20h110v8q0 47 -8 68.5t-28.5 29.5t-64.5 10v20q62 -3 171 -3q89 0 134 3v-20q-20 -2 -29 -8t-12.5 -23t-3.5 -55v-30h68v-20z" />
    <glyph glyph-name="uni01E5" unicode="&#x1e5;" horiz-adv-x="543" 
d="M582 -93h-101q-33 -44 -99.5 -69.5t-163.5 -25.5t-155.5 24.5t-58.5 70.5h-54v20h57q16 50 108 74l9 -16q-30 -26 -35 -58h299v9q0 33 -24.5 52t-85.5 19h-62q-64 0 -100 21.5t-36 65.5q0 37 26 66t79 56q-72 9 -114 48t-42 108q0 79 54.5 119t144.5 40q100 0 153 -47
q19 27 47 43t57 16q30 0 47.5 -17.5t17.5 -45.5t-15.5 -43.5t-36.5 -15.5q-20 0 -34 13.5t-14 38.5q0 24 12 49q-24 -10 -39.5 -22.5t-26.5 -31.5q31 -37 31 -96q0 -79 -54.5 -119t-144.5 -40h-18q-41 -24 -41 -53q0 -32 40 -32h109q88 0 140.5 -32.5t52.5 -99.5
q0 -35 -17 -69h88v-20zM185.5 481q-14.5 -32 -14.5 -109t14.5 -109t42.5 -32t42.5 32t14.5 109t-14.5 109t-42.5 32t-42.5 -32zM331 -150.5q41 20.5 53 57.5h-296q4 -37 42 -57.5t101 -20.5q59 0 100 20.5z" />
    <glyph glyph-name="Gcaron" unicode="&#x1e6;" horiz-adv-x="735" 
d="M509.5 705q42.5 -17 83.5 -48q12 -9 20 -9q10 0 16 14.5t9 45.5h23q-4 -68 -4 -242h-23q-8 68 -23.5 110t-51.5 71q-24 23 -59 36t-72 13q-70 0 -116.5 -47.5t-68.5 -125.5t-22 -171q0 -346 192 -346q44 0 71 20q13 9 18.5 21t5.5 31v98q0 47 -8 68.5t-28.5 29.5
t-64.5 10v20q62 -3 171 -3q89 0 134 3v-20q-20 -2 -29 -8t-12.5 -23t-3.5 -55v-198h-20q-1 21 -8.5 39t-20.5 18q-17 0 -54 -21q-87 -50 -164 -50q-173 0 -265 94.5t-92 265.5q0 112 46.5 197t128.5 132t187 47q62 0 104.5 -17zM597 923q-64 -26 -118.5 -68t-86.5 -88h-18
q-31 45 -85.5 87t-119.5 69l5 15q65 -11 128.5 -29t100.5 -36q31 18 83.5 36t105.5 29z" />
    <glyph glyph-name="gcaron" unicode="&#x1e7;" horiz-adv-x="553" 
d="M464 434.5q-14 13.5 -14 38.5q0 24 12 49q-24 -10 -39.5 -22.5t-26.5 -31.5q31 -37 31 -96q0 -79 -54.5 -119t-144.5 -40h-18q-41 -24 -41 -53q0 -32 40 -32h109q88 0 140.5 -32.5t52.5 -99.5q0 -51 -32.5 -92.5t-98.5 -66.5t-162 -25q-97 0 -155.5 24.5t-58.5 70.5
q0 31 28 55.5t83 38.5l9 -16q-36 -30 -36 -69q0 -42 38 -64.5t105 -22.5q70 0 113.5 28t43.5 79q0 33 -24.5 52t-85.5 19h-62q-64 0 -100 21.5t-36 65.5q0 37 26 66t79 56q-72 9 -114 48t-42 108q0 79 54.5 119t144.5 40q100 0 153 -47q19 27 47 43t57 16q30 0 47.5 -17.5
t17.5 -45.5t-15.5 -43.5t-36.5 -15.5q-20 0 -34 13.5zM270.5 263q14.5 32 14.5 109t-14.5 109t-42.5 32t-42.5 -32t-14.5 -109t14.5 -109t42.5 -32t42.5 32zM427 806q-56 -33 -103.5 -85.5t-75.5 -110.5h-18q-27 56 -75 109.5t-104 86.5l8 14q58 -14 112.5 -34.5t87.5 -41.5
q27 21 70.5 42t89.5 34z" />
    <glyph glyph-name="uni01E8" unicode="&#x1e8;" horiz-adv-x="714" 
d="M683 44q16 -14 41 -24v-20q-70 3 -156 3q-66 0 -127 -3v20q28 2 40.5 6t12.5 14q0 8 -11 25l-145 235q-20 32 -33.5 43t-36.5 13v-250q0 -38 5.5 -55t20.5 -23t49 -8v-20q-54 3 -151 3q-107 0 -158 -3v20q33 2 48.5 8t21 23t5.5 55v496q0 38 -5.5 55t-21 23t-48.5 8v20
q51 -3 158 -3q97 0 151 3v-20q-34 -2 -49 -8t-20.5 -23t-5.5 -55v-225q40 2 73 24t75 70l59 71q46 53 46 93q0 24 -19.5 38t-54.5 16v19q73 -3 148 -3q58 0 94 3v-19q-80 -19 -145 -96l-125 -149l233 -363q15 -23 31 -37zM608 923q-64 -26 -118.5 -68t-86.5 -88h-18
q-31 45 -85.5 87t-119.5 69l5 15q65 -11 128.5 -29t100.5 -36q31 18 83.5 36t105.5 29z" />
    <glyph glyph-name="uni01E9" unicode="&#x1e9;" horiz-adv-x="585" 
d="M558 37.5q10 -11.5 26 -16.5v-21q-80 4 -105 4q-33 0 -129 -4v21q14 0 22 5t8 14q0 5 -5 15l-99 179q-10 17 -21 23t-28 8v-172q0 -41 13 -56.5t47 -15.5v-21q-100 4 -130 4q-34 0 -138 -4v21q35 0 49.5 15.5t14.5 56.5v570q0 46 -14.5 67t-49.5 21v21q32 -3 62 -3
q87 0 146 14v-499q20 2 34.5 8t25.5 18l76 74q33 33 33 61q0 23 -21 36.5t-56 15.5v20q55 -3 117 -3q83 0 117 3v-20q-59 -13 -125 -77l-64 -66l168 -281q16 -24 26 -35.5zM484 1047q-56 -33 -103.5 -85.5t-75.5 -110.5h-18q-27 56 -75 109.5t-104 86.5l8 14
q58 -14 112.5 -34.5t87.5 -41.5q27 21 70.5 42t89.5 34z" />
    <glyph glyph-name="uni01EE" unicode="&#x1ee;" horiz-adv-x="602" 
d="M566 195q0 -59 -34.5 -106.5t-98.5 -75t-148 -27.5q-54 0 -97.5 11t-69.5 26q-23 14 -33 14t-15 -10.5t-8 -33.5h-23q4 63 4 270h23q6 -109 54.5 -180t139.5 -71q78 0 117.5 51.5t39.5 126.5q0 81 -46.5 129.5t-130.5 64.5v20l148 281h-114q-82 0 -134.5 -47t-65.5 -158
h-23q3 29 3 72q0 71 -7 156q66 -3 225 -3q197 0 285 3v-20l-157 -304q166 -64 166 -189zM513 923q-64 -26 -118.5 -68t-86.5 -88h-18q-31 45 -85.5 87t-119.5 69l5 15q65 -11 128.5 -29t100.5 -36q31 18 83.5 36t105.5 29z" />
    <glyph glyph-name="uni01EF" unicode="&#x1ef;" horiz-adv-x="468" 
d="M274 73q0 -74 -39.5 -126t-101.5 -78.5t-128 -29.5v-20q100 0 197 31t159 88.5t62 130.5q0 56 -37 92.5t-100 50.5l152 310q-110 -5 -212 -5q-107 0 -188 4q4 -56 4 -198h21q13 179 156 179h56l-146 -295q145 -3 145 -134zM425 806q-56 -33 -103.5 -85.5t-75.5 -110.5
h-18q-27 56 -75 109.5t-104 86.5l8 14q58 -14 112.5 -34.5t87.5 -41.5q27 21 70.5 42t89.5 34z" />
    <glyph glyph-name="uni01F4" unicode="&#x1f4;" horiz-adv-x="735" 
d="M509.5 705q42.5 -17 83.5 -48q12 -9 20 -9q10 0 16 14.5t9 45.5h23q-4 -68 -4 -242h-23q-8 68 -23.5 110t-51.5 71q-24 23 -59 36t-72 13q-70 0 -116.5 -47.5t-68.5 -125.5t-22 -171q0 -346 192 -346q44 0 71 20q13 9 18.5 21t5.5 31v98q0 47 -8 68.5t-28.5 29.5
t-64.5 10v20q62 -3 171 -3q89 0 134 3v-20q-20 -2 -29 -8t-12.5 -23t-3.5 -55v-198h-20q-1 21 -8.5 39t-20.5 18q-17 0 -54 -21q-87 -50 -164 -50q-173 0 -265 94.5t-92 265.5q0 112 46.5 197t128.5 132t187 47q62 0 104.5 -17zM506 942q16 0 29.5 -8t20.5 -22q6 -10 6 -23
q0 -15 -9 -28.5t-25 -22.5q-15 -8 -35 -14.5t-43 -11.5q-7 -2 -44.5 -12t-85.5 -28l-7 12q49 41 99 95q22 23 35 34.5t28 20.5q14 8 31 8z" />
    <glyph glyph-name="uni01F5" unicode="&#x1f5;" horiz-adv-x="553" 
d="M464 434.5q-14 13.5 -14 38.5q0 24 12 49q-24 -10 -39.5 -22.5t-26.5 -31.5q31 -37 31 -96q0 -79 -54.5 -119t-144.5 -40h-18q-41 -24 -41 -53q0 -32 40 -32h109q88 0 140.5 -32.5t52.5 -99.5q0 -51 -32.5 -92.5t-98.5 -66.5t-162 -25q-97 0 -155.5 24.5t-58.5 70.5
q0 31 28 55.5t83 38.5l9 -16q-36 -30 -36 -69q0 -42 38 -64.5t105 -22.5q70 0 113.5 28t43.5 79q0 33 -24.5 52t-85.5 19h-62q-64 0 -100 21.5t-36 65.5q0 37 26 66t79 56q-72 9 -114 48t-42 108q0 79 54.5 119t144.5 40q100 0 153 -47q19 27 47 43t57 16q30 0 47.5 -17.5
t17.5 -45.5t-15.5 -43.5t-36.5 -15.5q-20 0 -34 13.5zM270.5 263q14.5 32 14.5 109t-14.5 109t-42.5 32t-42.5 -32t-14.5 -109t14.5 -109t42.5 -32t42.5 32zM376 779q0 -21 -15 -41q-11 -13 -27.5 -26.5t-35.5 -27.5q-60 -42 -106 -85l-11 9q27 49 56 123q13 31 20.5 46.5
t18.5 28.5q19 24 47 24q21 0 35 -13q18 -13 18 -38z" />
    <glyph glyph-name="Oslashacute" unicode="&#x1fe;" horiz-adv-x="793" 
d="M502 823.5q-20 -6.5 -43 -11.5q-7 -2 -44.5 -12t-85.5 -28l-7 12q49 41 99 95q22 23 35 34.5t28 20.5q14 8 31 8q16 0 29.5 -7.5t20.5 -22.5q6 -10 6 -23q0 -15 -9 -28.5t-25 -22.5q-15 -8 -35 -14.5zM713.5 538.5q36.5 -76.5 36.5 -178.5q0 -110 -45 -195t-125.5 -132
t-183.5 -47q-118 0 -203 53l-83 -118l-21 14l83 118q-62 47 -95.5 122t-33.5 173q0 110 45 195t125.5 132t183.5 47q110 0 194 -48l72 105l19 -13l-71 -105q66 -46 102.5 -122.5zM296 659.5q-42 -44.5 -64.5 -124.5t-22.5 -183q0 -121 35 -210l290 456q-26 51 -62.5 78.5
t-78.5 27.5q-55 0 -97 -44.5zM497 48.5q42 44.5 64.5 124.5t22.5 183q0 127 -38 217l-290 -458q26 -53 63.5 -82t80.5 -29q55 0 97 44.5z" />
    <glyph glyph-name="oslashacute" unicode="&#x1ff;" horiz-adv-x="565" 
d="M368.5 711.5q-16.5 -13.5 -35.5 -27.5q-60 -42 -106 -85l-11 9q27 49 56 123q13 31 20.5 46.5t18.5 28.5q19 24 47 24q21 0 35 -13q18 -13 18 -38q0 -21 -15 -41q-11 -13 -27.5 -26.5zM527 258q0 -142 -65 -207t-180 -65q-88 0 -145 37l-66 -96l-20 13l67 97
q-81 67 -81 221q0 142 65.5 207.5t179.5 65.5q89 0 145 -37l67 96l19 -13l-67 -97q81 -68 81 -222zM213.5 448.5q-25.5 -62.5 -25.5 -190.5q0 -69 8 -122l165 280q-12 48 -32.5 71.5t-46.5 23.5q-43 0 -68.5 -62.5zM351 67.5q25 61.5 25 190.5q0 70 -8 124l-165 -282
q25 -94 79 -94q44 0 69 61.5z" />
    <glyph glyph-name="Scommaaccent" unicode="&#x218;" horiz-adv-x="584" 
d="M367 711q31 -10 63 -29q11 -6 19.5 -10t14.5 -4q9 0 14 10.5t8 33.5h23q-5 -67 -5 -228h-23q-4 54 -24.5 103t-58 79.5t-87.5 30.5q-49 0 -79.5 -27.5t-30.5 -74.5q0 -35 15 -61t42 -47.5t83 -58.5l32 -22q59 -39 93 -68t55.5 -67.5t21.5 -89.5q0 -64 -33 -107.5
t-89.5 -65.5t-125.5 -22q-56 0 -93 10t-68 27q-22 14 -34 14q-9 0 -14 -10.5t-8 -33.5h-23q4 63 4 270h23q7 -112 50 -181.5t132 -69.5q54 0 89 29t35 83q0 56 -36 96t-114 90q-60 39 -96 68t-59 68.5t-23 91.5q0 60 30.5 101.5t81.5 61.5t112 20q52 0 83 -10zM357 -76
q23 -21 23 -56q0 -46 -28 -74.5t-86 -36.5l-4 21q74 11 80 55q-18 -16 -49 -16q-33 0 -52 16.5t-19 46.5q0 31 20.5 48t55.5 17q36 0 59 -21z" />
    <glyph glyph-name="scommaaccent" unicode="&#x219;" horiz-adv-x="462" 
d="M292 521.5q32 -9.5 49 -21.5q10 -7 18 -7q9 0 15.5 9.5t8.5 27.5h21q-4 -51 -4 -176h-21q-9 66 -39.5 110.5t-88.5 44.5q-30 0 -49.5 -17t-19.5 -47q0 -34 23 -58.5t72 -59.5l29 -21q61 -46 90 -82t29 -90q0 -44 -25.5 -78t-68.5 -52t-95 -18q-55 0 -94 21q-32 16 -46 21
q-10 3 -17.5 -6.5t-11.5 -28.5h-21q4 57 4 200h21q20 -184 135 -184q29 0 49.5 17.5t20.5 53.5q0 28 -12.5 50t-31.5 39t-57 47q-45 36 -68.5 58t-40 52t-16.5 67q0 64 50 101t122 37q38 0 70 -9.5zM288 -76q23 -21 23 -56q0 -46 -28 -74.5t-86 -36.5l-4 21q74 11 80 55
q-18 -16 -49 -16q-33 0 -52 16.5t-19 46.5q0 31 20.5 48t55.5 17q36 0 59 -21z" />
    <glyph glyph-name="uni021A" unicode="&#x21a;" horiz-adv-x="668" 
d="M635 538q0 -47 3 -76h-23q-24 123 -65.5 173t-113.5 50h-23v-571q0 -42 8.5 -61t30 -25.5t68.5 -7.5v-20q-126 3 -190 3q-63 0 -183 -3v20q47 1 68.5 7.5t30 25.5t8.5 61v571h-22q-48 0 -81.5 -21t-57.5 -69.5t-41 -132.5h-23q3 29 3 76q0 75 -7 170q91 -3 309 -3t308 3
q-7 -95 -7 -170zM387 -76q23 -21 23 -56q0 -46 -28 -74.5t-86 -36.5l-4 21q74 11 80 55q-18 -16 -49 -16q-33 0 -52 16.5t-19 46.5q0 31 20.5 48t55.5 17q36 0 59 -21z" />
    <glyph glyph-name="uni021B" unicode="&#x21b;" horiz-adv-x="352" 
d="M227 517h118v-20h-118v-404q0 -30 10.5 -42.5t33.5 -12.5q43 0 68 60l17 -9q-38 -103 -137 -103q-66 0 -100 34q-21 21 -28.5 52.5t-7.5 86.5v338h-84v20h84v132q83 0 144 32v-164zM278 -76q23 -21 23 -56q0 -46 -28 -74.5t-86 -36.5l-4 21q74 11 80 55q-18 -16 -49 -16
q-33 0 -52 16.5t-19 46.5q0 31 20.5 48t55.5 17q36 0 59 -21z" />
    <glyph glyph-name="uni021E" unicode="&#x21e;" horiz-adv-x="800" 
d="M718 680q-15 -6 -20.5 -23t-5.5 -55v-496q0 -38 5.5 -55t20.5 -23t49 -8v-20q-49 3 -152 3q-101 0 -157 -3v20q33 2 48.5 8t21 23t5.5 55v240h-265v-240q0 -38 5.5 -55t20.5 -23t49 -8v-20q-54 3 -151 3q-107 0 -158 -3v20q33 2 48.5 8t21 23t5.5 55v496q0 38 -5.5 55
t-21 23t-48.5 8v20q51 -3 158 -3q97 0 151 3v-20q-34 -2 -49 -8t-20.5 -23t-5.5 -55v-236h265v236q0 38 -5.5 55t-21 23t-48.5 8v20q56 -3 157 -3q103 0 152 3v-20q-34 -2 -49 -8zM614 923q-64 -26 -118.5 -68t-86.5 -88h-18q-31 45 -85.5 87t-119.5 69l5 15
q65 -11 128.5 -29t100.5 -36q31 18 83.5 36t105.5 29z" />
    <glyph glyph-name="uni021F" unicode="&#x21f;" horiz-adv-x="608" 
d="M227 438q45 93 163 93q78 0 110 -39q17 -19 24.5 -49.5t7.5 -80.5v-269q0 -41 14 -56.5t50 -15.5v-21q-104 4 -132 4q-34 0 -130 -4v21q30 0 42 15.5t12 56.5v311q0 41 -13.5 62t-48.5 21q-42 0 -70.5 -32.5t-28.5 -82.5v-279q0 -41 12 -56.5t42 -15.5v-21q-96 4 -124 4
q-34 0 -138 -4v21q35 0 49.5 15.5t14.5 56.5v569q0 46 -14.5 67t-49.5 21v21q32 -3 62 -3q87 0 146 14v-344zM476 1053q-56 -33 -103.5 -85.5t-75.5 -110.5h-18q-27 56 -75 109.5t-104 86.5l8 14q58 -14 112.5 -34.5t87.5 -41.5q27 21 70.5 42t89.5 34z" />
    <glyph glyph-name="uni0237" unicode="&#x237;" horiz-adv-x="297" 
d="M-23 -170q50 2 78.5 40t28.5 112v426q0 46 -14.5 67t-49.5 21v21q32 -3 62 -3q87 0 146 14v-434q0 -84 -16.5 -138t-55.5 -90q-59 -54 -179 -54v18z" />
    <glyph glyph-name="uni0259" unicode="&#x259;" horiz-adv-x="504" 
d="M404.5 463.5q62.5 -67.5 62.5 -199.5q0 -135 -67 -206.5t-178 -71.5q-188 0 -188 222h281q1 15 1 47q0 66 -18.5 110t-48 64t-63.5 20q-82 0 -132 -80l-18 6q20 65 71.5 110.5t128.5 45.5q106 0 168.5 -67.5zM287.5 51.5q23.5 44.5 29.5 137.5h-157q-2 -79 15.5 -130.5
t52.5 -51.5q36 0 59.5 44.5z" />
    <glyph glyph-name="uni0292" unicode="&#x292;" horiz-adv-x="468" 
d="M274 73q0 -74 -39.5 -126t-101.5 -78.5t-128 -29.5v-20q100 0 197 31t159 88.5t62 130.5q0 56 -37 92.5t-100 50.5l152 310q-110 -5 -212 -5q-107 0 -188 4q4 -56 4 -198h21q13 179 156 179h56l-146 -295q145 -3 145 -134z" />
    <glyph glyph-name="uni02BC" unicode="&#x2bc;" horiz-adv-x="253" 
d="M190 687q10 -15 16 -37t6 -46q0 -52 -26.5 -94t-78.5 -66l-9 18q29 12 50.5 37t25.5 51q3 12 3 23q0 10 -3 19q-22 -24 -58 -24q-35 0 -57 20.5t-22 56.5q0 34 23 55.5t59 21.5q49 0 71 -35z" />
    <glyph glyph-name="circumflex" unicode="&#x2c6;" horiz-adv-x="476" 
d="M322 710.5q48 -53.5 104 -86.5l-8 -14q-58 14 -112.5 34.5t-87.5 41.5q-27 -21 -70.5 -42t-89.5 -34l-8 14q56 33 103.5 85.5t75.5 110.5h18q27 -56 75 -109.5z" />
    <glyph glyph-name="caron" unicode="&#x2c7;" horiz-adv-x="476" 
d="M426 806q-56 -33 -103.5 -85.5t-75.5 -110.5h-18q-27 56 -75 109.5t-104 86.5l8 14q58 -14 112.5 -34.5t87.5 -41.5q27 21 70.5 42t89.5 34z" />
    <glyph glyph-name="breve" unicode="&#x2d8;" horiz-adv-x="543" 
d="M411 779q-22 -66 -69 -112t-122 -46t-122 46t-69 112l17 9q63 -72 174 -72t174 72z" />
    <glyph glyph-name="dotaccent" unicode="&#x2d9;" horiz-adv-x="451" 
d="M171.5 754.5q24.5 -20.5 24.5 -56.5t-24.5 -56.5t-66.5 -20.5t-66.5 20.5t-24.5 56.5t24.5 56.5t66.5 20.5t66.5 -20.5z" />
    <glyph glyph-name="ring" unicode="&#x2da;" horiz-adv-x="477" 
d="M214 770.5q32 -26.5 32 -70.5t-32 -71t-77 -27t-76.5 27t-31.5 71t31.5 70.5t76.5 26.5t77 -26.5zM81.5 755q-24.5 -21 -24.5 -56q0 -36 24.5 -56t55.5 -20q32 0 56.5 20t24.5 56q0 35 -24.5 56t-56.5 21q-31 0 -55.5 -21z" />
    <glyph glyph-name="ogonek" unicode="&#x2db;" horiz-adv-x="477" 
d="M195 -3q-40 -19 -57.5 -42t-17.5 -47q0 -41 41 -41q17 0 35 8t29 19l14 -14q-27 -36 -59.5 -52t-77.5 -16q-44 0 -67.5 18t-23.5 51q0 41 42 72.5t120 49.5l41 6q-5 -6 -19 -12z" />
    <glyph glyph-name="tilde" unicode="&#x2dc;" horiz-adv-x="544" 
d="M197 777q20 -9 45 -27q24 -16 39 -23t36 -7q45 0 77 53l14 -7q-16 -71 -49 -105t-75 -34q-28 0 -48 9t-48 27q-21 16 -37 23.5t-37 7.5q-44 0 -77 -54l-14 7q16 71 49.5 105t75.5 34q29 0 49 -9z" />
    <glyph glyph-name="hungarumlaut" unicode="&#x2dd;" horiz-adv-x="600" 
d="M209 774q0 -20 -13 -37q-9 -13 -24 -26.5t-33 -28.5q-56 -47 -92 -84l-12 8q19 45 40 116q7 23 14 42.5t16 32.5q20 28 50 28q18 0 32 -10q22 -16 22 -41zM386 774q0 -20 -13 -37q-9 -13 -22 -25t-36 -31q-64 -56 -91 -83l-12 8q20 46 40 114q10 32 16 48t15 29
q19 28 49 28q18 0 32 -10q22 -16 22 -41z" />
    <glyph glyph-name="gravecomb" unicode="&#x300;" 
d="M-163 830q13 0 26 -6.5t22 -17.5q11 -13 18.5 -28.5t20.5 -46.5q29 -74 56 -123l-11 -9q-46 43 -106 85q-19 14 -35.5 27.5t-27.5 26.5q-15 20 -15 40q0 24 18 39q14 13 34 13z" />
    <glyph glyph-name="acutecomb" unicode="&#x301;" 
d="M-8 779q0 -21 -15 -41q-11 -13 -27.5 -26.5t-35.5 -27.5q-60 -42 -106 -85l-11 9q27 49 56 123q13 31 20.5 46.5t18.5 28.5q19 24 47 24q21 0 35 -13q18 -13 18 -38z" />
    <glyph glyph-name="uni0302" unicode="&#x302;" 
d="M-117 710.5q48 -53.5 104 -86.5l-8 -14q-58 14 -112.5 34.5t-87.5 41.5q-27 -21 -70.5 -42t-89.5 -34l-8 14q56 33 103.5 85.5t75.5 110.5h18q27 -56 75 -109.5z" />
    <glyph glyph-name="tildecomb" unicode="&#x303;" 
d="M-224 777q20 -9 45 -27q24 -16 39 -23t36 -7q45 0 77 53l14 -7q-16 -71 -49 -105t-75 -34q-28 0 -48 9t-48 27q-21 16 -37 23.5t-37 7.5q-44 0 -77 -54l-14 7q16 71 49.5 105t75.5 34q29 0 49 -9z" />
    <glyph glyph-name="uni0304" unicode="&#x304;" 
d="M-13 687h-336v25h336v-25z" />
    <glyph glyph-name="uni0306" unicode="&#x306;" 
d="M-23 779q-22 -66 -69 -112t-122 -46t-122 46t-69 112l17 9q63 -72 174 -72t174 72z" />
    <glyph glyph-name="uni0307" unicode="&#x307;" 
d="M-32.5 754.5q24.5 -20.5 24.5 -56.5t-24.5 -56.5t-66.5 -20.5t-66.5 20.5t-24.5 56.5t24.5 56.5t66.5 20.5t66.5 -20.5z" />
    <glyph glyph-name="uni0308" unicode="&#x308;" 
d="M-256 737.5q23 -22.5 23 -52.5q0 -31 -23 -53t-53 -22q-31 0 -53 22t-22 53q0 30 22 52.5t53 22.5q30 0 53 -22.5zM-28.5 737.5q22.5 -22.5 22.5 -52.5q0 -31 -22.5 -53t-52.5 -22q-32 0 -54 22t-22 53q0 30 22.5 52.5t53.5 22.5q30 0 52.5 -22.5z" />
    <glyph glyph-name="hookabovecomb" unicode="&#x309;" 
d="M-204 652q40 17 58 38.5t18 51.5q0 33 -19 51t-50 18q-14 0 -27.5 -3t-19.5 -9q46 -13 46 -53q0 -23 -15.5 -37.5t-38.5 -14.5q-24 0 -38.5 14.5t-14.5 37.5q0 21 11 37t29 26q37 22 95 22q60 0 97.5 -23t37.5 -61q0 -39 -41 -65t-108 -39v-46h-20v55z" />
    <glyph glyph-name="uni030A" unicode="&#x30a;" 
d="M-55 770.5q32 -26.5 32 -70.5t-32 -71t-77 -27t-76.5 27t-31.5 71t31.5 70.5t76.5 26.5t77 -26.5zM-187.5 755q-24.5 -21 -24.5 -56q0 -36 24.5 -56t55.5 -20q32 0 56.5 20t24.5 56q0 35 -24.5 56t-56.5 21q-31 0 -55.5 -21z" />
    <glyph glyph-name="uni030B" unicode="&#x30b;" 
d="M-202 774q0 -20 -13 -37q-9 -13 -24 -26.5t-33 -28.5q-56 -47 -92 -84l-12 8q19 45 40 116q7 23 14 42.5t16 32.5q20 28 50 28q18 0 32 -10q22 -16 22 -41zM-25 774q0 -20 -13 -37q-9 -13 -22 -25t-36 -31q-64 -56 -91 -83l-12 8q20 46 40 114q10 32 16 48t15 29
q19 28 49 28q18 0 32 -10q22 -16 22 -41z" />
    <glyph glyph-name="uni030C" unicode="&#x30c;" 
d="M-13 806q-56 -33 -103.5 -85.5t-75.5 -110.5h-18q-27 56 -75 109.5t-104 86.5l8 14q58 -14 112.5 -34.5t87.5 -41.5q27 21 70.5 42t89.5 34z" />
    <glyph glyph-name="dotbelowcomb" unicode="&#x323;" 
d="M-154 -169.5q-20 17.5 -20 48.5q0 30 20 48t56 18q35 0 54.5 -17.5t19.5 -48.5t-20.5 -48.5t-55.5 -17.5q-34 0 -54 17.5z" />
    <glyph glyph-name="uni0326" unicode="&#x326;" 
d="M-49 -76q23 -21 23 -56q0 -46 -28 -74.5t-86 -36.5l-4 21q74 11 80 55q-18 -16 -49 -16q-33 0 -52 16.5t-19 46.5q0 31 20.5 48t55.5 17q36 0 59 -21z" />
    <glyph glyph-name="uni0327" unicode="&#x327;" 
d="M-144 -65q31 12 71 12q33 0 51 -14.5t18 -39.5q0 -40 -40 -60.5t-100 -20.5q-53 0 -87 12l5 18q32 -4 44 -4q29 0 51 10t22 31q0 26 -33 26q-23 0 -40 -7l32 104h27z" />
    <glyph glyph-name="uni0328" unicode="&#x328;" 
d="M-57 -3q-40 -19 -57.5 -42t-17.5 -47q0 -41 41 -41q17 0 35 8t29 19l14 -14q-27 -36 -59.5 -52t-77.5 -16q-44 0 -67.5 18t-23.5 51q0 41 42 72.5t120 49.5l41 6q-5 -6 -19 -12z" />
    <glyph glyph-name="uni0335" unicode="&#x335;" 
d="M-20 608h-384v20h384v-20z" />
    <glyph glyph-name="uni0337" unicode="&#x337;" 
d="M-49 577l-90 -131l-15 20l86 124zM-157 446l-223 -383l-16 21l224 382zM-401 57l-90 -130l-20 13l94 137z" />
    <glyph glyph-name="uni0338" unicode="&#x338;" 
d="M-111 766l-101 -149l-15 20l97 142zM-219 617l-343 -541l-18 18l346 543zM-574 76l-109 -155l-21 14l112 159z" />
    <glyph glyph-name="uni0394" unicode="&#x394;" horiz-adv-x="500" 
d="M469 0q-109 3 -220 3t-222 -3l233 722h16zM57 30h261l-121 440z" />
    <glyph glyph-name="uni03A9" unicode="&#x3a9;" horiz-adv-x="757" 
d="M614 656q83 -66 83 -184q0 -56 -18.5 -105t-46 -89t-76.5 -102q-36 -45 -62 -79.5t-49 -73.5h53q71 0 111.5 41t56.5 138h23q-3 -28 -3 -72q0 -57 7 -130q-38 3 -130 3l-80 -1q-38 -2 -63 -2v16q47 83 85 195.5t38 240.5q0 124 -38.5 188t-125.5 64q-88 0 -126 -64
t-38 -188q0 -128 38.5 -242t84.5 -194v-16l-64 1q-58 2 -80 2q-92 0 -130 -3q7 73 7 130q0 44 -3 72h23q16 -97 56.5 -138t111.5 -41h54q-23 39 -49 73.5t-62 79.5q-49 62 -76.5 102t-46 89t-18.5 105q0 118 83 184t235 66t235 -66z" />
    <glyph glyph-name="uni03BC" unicode="&#x3bc;" horiz-adv-x="700" 
d="M668 250q-15 -90 -54.5 -177t-101.5 -87q-63 0 -63 89q0 23 3 45l4 35q-27 -72 -68 -120.5t-97 -48.5q-36 0 -54 29.5t-22 75.5q-10 -100 -20.5 -151.5t-24.5 -78.5q-11 -21 -34 -35t-53 -14q-27 0 -43 14t-16 39q0 19 9.5 36t27.5 36t38 38q43 42 74 104t45 169
q-6 55 -20 145q-7 44 -7 55q0 43 26 62t59 19q27 0 45 -13.5t18 -40.5q0 -18 -7 -33t-24 -39q-26 -38 -44 -75t-31 -99h-3l-1 -7q3 -40 25 -57.5t54 -17.5q56 0 94 25t63 82h1l1 5q-6 85 -14 145q-4 40 -4 44q0 43 24 62t55 19q30 0 49.5 -14t19.5 -40q0 -18 -8 -32.5
t-26 -37.5q-25 -31 -43.5 -63.5t-33.5 -84.5q-4 -24 -4 -46q0 -36 13 -50t40 -14q41 0 68 25t46 82z" />
    <glyph glyph-name="pi" unicode="&#x3c0;" horiz-adv-x="601" 
d="M364 222q-1 -6 -1 -17q0 -58 50 -58q41 0 68 25t46 82l19 -4q-16 -94 -52 -179t-98 -85q-35 0 -51.5 24.5t-16.5 75.5q0 34 8 88l31 204h-96q-21 -243 -75 -343q-12 -21 -33.5 -35t-54.5 -14q-26 0 -42 14t-16 37q0 29 18 48.5t58 44.5q41 25 65 51t40 72t24 125h-44
q-44 0 -73.5 -8t-52.5 -31t-41 -68l-17 4q28 122 84.5 181.5t169.5 59.5h288v-138h-183z" />
    <glyph glyph-name="uni0400" unicode="&#x400;" horiz-adv-x="634" 
d="M589 0q-68 3 -229 3q-218 0 -326 -3v20q33 2 48.5 8t21 23t5.5 55v496q0 38 -5.5 55t-21 23t-48.5 8v20q108 -3 326 -3q147 0 209 3q-7 -83 -7 -148q0 -44 3 -68h-23q-15 107 -54 150t-110 43h-41q-31 0 -45 -5t-19 -19.5t-5 -46.5v-248h32q53 0 80.5 39t38.5 93h23
q-3 -42 -3 -94v-48q0 -51 6 -142h-23q-21 132 -122 132h-32v-252q0 -32 5 -46.5t19 -19.5t45 -5h49q71 0 114.5 48.5t61.5 164.5h23q-3 -33 -3 -84q0 -92 7 -152zM250 913.5q13 -11.5 35 -34.5q50 -54 99 -95l-7 -12q-48 18 -85.5 28t-44.5 12q-23 5 -43 11.5t-35 14.5
q-16 9 -25 22.5t-9 28.5q0 13 6 23q7 14 20.5 22t29.5 8q17 0 31 -8q15 -9 28 -20.5z" />
    <glyph glyph-name="uni0401" unicode="&#x401;" horiz-adv-x="634" 
d="M589 0q-68 3 -229 3q-218 0 -326 -3v20q33 2 48.5 8t21 23t5.5 55v496q0 38 -5.5 55t-21 23t-48.5 8v20q108 -3 326 -3q147 0 209 3q-7 -83 -7 -148q0 -44 3 -68h-23q-15 107 -54 150t-110 43h-41q-31 0 -45 -5t-19 -19.5t-5 -46.5v-248h32q53 0 80.5 39t38.5 93h23
q-3 -42 -3 -94v-48q0 -51 6 -142h-23q-21 132 -122 132h-32v-252q0 -32 5 -46.5t19 -19.5t45 -5h49q71 0 114.5 48.5t61.5 164.5h23q-3 -33 -3 -84q0 -92 7 -152zM247 894q23 -23 23 -53t-23 -52.5t-53 -22.5q-31 0 -53 22t-22 53q0 30 22.5 53t52.5 23t53 -23zM486.5 894
q22.5 -23 22.5 -53q0 -31 -22.5 -53t-52.5 -22q-31 0 -53.5 22t-22.5 53q0 30 22.5 53t53.5 23q30 0 52.5 -23z" />
    <glyph glyph-name="uni0402" unicode="&#x402;" horiz-adv-x="902" 
d="M811.5 360q69.5 -56 69.5 -161q0 -70 -33.5 -118t-90.5 -71.5t-126 -23.5q-68 0 -118.5 31t-50.5 89q0 37 24.5 59t61.5 22q35 0 56 -20.5t21 -54.5q0 -65 -77 -88q10 -7 26.5 -12t34.5 -5q56 0 87.5 47t31.5 141q0 90 -34 139.5t-118 49.5q-48 0 -94 -16.5t-69 -40.5
v-338q-56 14 -145 14q-62 0 -121 -3v20q47 1 68.5 7.5t30 25.5t8.5 61v571h-22q-48 0 -81.5 -21t-57.5 -69.5t-41 -132.5h-23q3 29 3 76q0 75 -7 170q91 -3 309 -3t308 3q-7 -88 -7 -158q0 -47 3 -76h-23q-25 108 -67.5 159.5t-111.5 51.5h-23v-337q37 30 92.5 49t124.5 19
q112 0 181.5 -56z" />
    <glyph glyph-name="uni0403" unicode="&#x403;" horiz-adv-x="572" 
d="M546 556q0 -47 3 -76h-23q-20 113 -60 159t-112 46h-17q-31 0 -45 -5t-19 -19.5t-5 -46.5v-508q0 -38 6.5 -55t24.5 -23t58 -8v-20q-58 3 -165 3t-158 -3v20q33 2 48.5 8t21 23t5.5 55v496q0 38 -5.5 55t-21 23t-48.5 8v20q108 -3 326 -3q135 0 193 3q-7 -85 -7 -152z
M394 942q16 0 29.5 -8t20.5 -22q6 -10 6 -23q0 -15 -9 -28.5t-25 -22.5q-15 -8 -35 -14.5t-43 -11.5q-7 -2 -44.5 -12t-85.5 -28l-7 12q49 41 99 95q22 23 35 34.5t28 20.5q14 8 31 8z" />
    <glyph glyph-name="uni0404" unicode="&#x404;" horiz-adv-x="708" 
d="M645 252q0 -181 4 -252h-23q-3 32 -8.5 45.5t-15.5 13.5q-8 0 -21 -8q-45 -32 -86 -48.5t-99 -16.5q-106 0 -185.5 43t-123.5 124.5t-44 194.5q0 110 45 195t125.5 132t183.5 47q60 0 102 -17t82 -48q11 -9 19 -9q20 0 26 60h23q-4 -59 -4 -206h-23q-14 60 -27.5 88
t-47.5 57q-24 24 -57.5 36.5t-69.5 12.5q-101 0 -150 -98.5t-49 -245.5q0 -20 1 -30q16 58 47.5 88t68.5 30q24 0 44 -9t49 -28q25 -17 43 -25t38 -8q22 0 41.5 14.5t27.5 46.5l16 -5q-12 -77 -45 -118t-76 -41q-25 0 -45.5 9t-46.5 27q-28 18 -45.5 26t-39.5 8
q-23 0 -43 -11.5t-33 -35.5q11 -124 61.5 -202t139.5 -78q34 0 67.5 12.5t56.5 36.5q37 28 51.5 70t22.5 123h23z" />
    <glyph glyph-name="uni0405" unicode="&#x405;" horiz-adv-x="584" 
d="M367 711q31 -10 63 -29q11 -6 19.5 -10t14.5 -4q9 0 14 10.5t8 33.5h23q-5 -67 -5 -228h-23q-4 54 -24.5 103t-58 79.5t-87.5 30.5q-49 0 -79.5 -27.5t-30.5 -74.5q0 -35 15 -61t42 -47.5t83 -58.5l32 -22q59 -39 93 -68t55.5 -67.5t21.5 -89.5q0 -64 -33 -107.5
t-89.5 -65.5t-125.5 -22q-56 0 -93 10t-68 27q-22 14 -34 14q-9 0 -14 -10.5t-8 -33.5h-23q4 63 4 270h23q7 -112 50 -181.5t132 -69.5q54 0 89 29t35 83q0 56 -36 96t-114 90q-60 39 -96 68t-59 68.5t-23 91.5q0 60 30.5 101.5t81.5 61.5t112 20q52 0 83 -10z" />
    <glyph glyph-name="uni0406" unicode="&#x406;" horiz-adv-x="376" 
d="M343 688q-34 -2 -49 -8t-20.5 -23t-5.5 -55v-496q0 -38 5.5 -55t20.5 -23t49 -8v-20q-54 3 -151 3q-107 0 -158 -3v20q33 2 48.5 8t21 23t5.5 55v496q0 38 -5.5 55t-21 23t-48.5 8v20q51 -3 158 -3q97 0 151 3v-20z" />
    <glyph glyph-name="uni0407" unicode="&#x407;" horiz-adv-x="376" 
d="M343 688q-34 -2 -49 -8t-20.5 -23t-5.5 -55v-496q0 -38 5.5 -55t20.5 -23t49 -8v-20q-54 3 -151 3q-107 0 -158 -3v20q33 2 48.5 8t21 23t5.5 55v496q0 38 -5.5 55t-21 23t-48.5 8v20q51 -3 158 -3q97 0 151 3v-20zM125 894q23 -23 23 -53t-23 -52.5t-53 -22.5
q-31 0 -53 22t-22 53q0 30 22.5 53t52.5 23t53 -23zM364.5 894q22.5 -23 22.5 -53q0 -31 -22.5 -53t-52.5 -22q-31 0 -53.5 22t-22.5 53q0 30 22.5 53t53.5 23q30 0 52.5 -23z" />
    <glyph glyph-name="uni0408" unicode="&#x408;" horiz-adv-x="364" 
d="M-23 -168q42 4 69.5 24.5t42 68t14.5 129.5v548q0 38 -5.5 55t-21 23t-48.5 8v20q50 -3 151 -3q103 0 158 3v-20q-34 -2 -49 -8t-20.5 -23t-5.5 -55v-366v-61q0 -141 -17 -200q-21 -73 -89.5 -118t-178.5 -45v20z" />
    <glyph glyph-name="uni0409" unicode="&#x409;" horiz-adv-x="983" 
d="M892 61q-66 -57 -202 -61h-3h-14q-39 0 -92 3h-54q-109 0 -166 -3v20q39 2 57 8t25 23.5t7 54.5v496q0 36 -6.5 54.5t-21 25t-41.5 6.5h-7q-25 0 -38.5 -7t-20.5 -25t-10 -54q-3 -28 -4.5 -54t-3.5 -49q-11 -160 -26.5 -262t-56.5 -176.5t-118 -74.5q-46 0 -78 26t-32 67
q0 38 26 61.5t65 23.5q33 0 53.5 -16.5t20.5 -45.5q0 -35 -21.5 -58.5t-58.5 -33.5q12 -5 25 -5q71 0 109 85t52 201.5t25 310.5q1 8 1 22q0 26 -7 39t-24 18t-51 7v20q42 -3 103 -3q15 0 45 2l43 1l67 -1q46 -2 76 -2q103 0 155 3v-20q-36 -2 -52.5 -8t-22.5 -23t-6 -55
v-200h59q152 0 221 -53.5t69 -140.5q0 -90 -66 -147zM768 68.5q24 44.5 24 129.5q0 89 -32 136.5t-112 47.5h-39v-276q0 -37 5.5 -54t20.5 -23.5t48 -8.5q61 4 85 48.5z" />
    <glyph glyph-name="uni040A" unicode="&#x40a;" horiz-adv-x="1062" 
d="M973.5 55q-67.5 -53 -206.5 -55h-1h-10q-41 0 -92 3h-49q-101 0 -157 -3v20q33 2 48.5 8t21 23t5.5 55v240h-265v-240q0 -38 5.5 -55t20.5 -23t49 -8v-20q-54 3 -151 3q-107 0 -158 -3v20q33 2 48.5 8t21 23t5.5 55v496q0 38 -5.5 55t-21 23t-48.5 8v20q51 -3 158 -3
q97 0 151 3v-20q-34 -2 -49 -8t-20.5 -23t-5.5 -55v-236h265v236q0 38 -5.5 55t-21 23t-48.5 8v20q56 -3 157 -3q103 0 152 3v-20q-34 -2 -49 -8t-20.5 -23t-5.5 -55v-234h59q153 0 221.5 -49t68.5 -129q0 -82 -67.5 -135zM850 64q25 41 25 118q0 81 -33 124t-117 43h-33
v-243q0 -37 5.5 -54t19.5 -23.5t46 -8.5q62 3 87 44z" />
    <glyph glyph-name="uni040B" unicode="&#x40b;" horiz-adv-x="896" 
d="M819 50.5q6 -16.5 21.5 -23t45.5 -7.5v-20q-48 3 -153 3q-100 0 -148 -3v20q29 1 43.5 7.5t20 23t5.5 50.5v148q0 43 -7 67t-28 36t-63 12q-39 0 -77.5 -6.5t-65.5 -16.5v-227q0 -42 8.5 -61t30 -25.5t68.5 -7.5v-20q-126 3 -190 3q-63 0 -183 -3v20q47 1 68.5 7.5
t30 25.5t8.5 61v571h-22q-48 0 -81.5 -21t-57.5 -69.5t-41 -132.5h-23q3 29 3 76q0 75 -7 170q91 -3 309 -3t308 3q-7 -95 -7 -170q0 -47 3 -76h-23q-24 123 -65.5 173t-113.5 50h-23v-325q34 14 86 25t107 11q91 0 147 -35q34 -21 47 -53t13 -87v-120q0 -34 6 -50.5z" />
    <glyph glyph-name="uni040C" unicode="&#x40c;" horiz-adv-x="721" 
d="M519 942q16 0 29.5 -8t20.5 -22q6 -10 6 -23q0 -15 -9 -28.5t-25 -22.5q-15 -8 -35 -14.5t-43 -11.5q-7 -2 -44.5 -12t-85.5 -28l-7 12q49 41 99 95q22 23 35 34.5t28 20.5q14 8 31 8zM712 44q-27 -30 -58 -44t-75 -14q-58 0 -91 24t-44 84l-27 153q-9 43 -22.5 66.5
t-40 35.5t-73.5 12h-13v-255q0 -38 5.5 -55t20.5 -23t49 -8v-20q-54 3 -151 3q-107 0 -158 -3v20q33 2 48.5 8t21 23t5.5 55v496q0 38 -5.5 55t-21 23t-48.5 8v20q51 -3 158 -3q97 0 151 3v-20q-34 -2 -49 -8t-20.5 -23t-5.5 -55v-224q40 1 74 23t75 70l59 71q46 55 46 93
q0 25 -19 38.5t-54 15.5v19q74 -3 147 -3q59 0 95 3v-19q-78 -18 -146 -96l-185 -217q98 -6 152 -36.5t70 -100.5l29 -134q8 -41 18.5 -56.5t29.5 -15.5q11 1 19.5 6t19.5 17z" />
    <glyph glyph-name="uni040D" unicode="&#x40d;" horiz-adv-x="820" 
d="M738 680q-15 -6 -20.5 -23t-5.5 -55v-496q0 -38 5.5 -55t20.5 -23t49 -8v-20q-51 3 -158 3q-98 0 -151 -3v20q33 2 48.5 8t21 23t5.5 55v468l-285 -481q1 -31 7 -45.5t21 -20t47 -7.5v-20q-54 3 -151 3q-107 0 -158 -3v20q33 2 48.5 8t21 23t5.5 55v496q0 38 -5.5 55
t-21 23t-48.5 8v20q51 -3 158 -3q97 0 151 3v-20q-34 -2 -49 -8t-20.5 -23t-5.5 -55v-466l285 483q-1 29 -7.5 43t-21.5 19t-46 7v20q52 -3 151 -3q107 0 158 3v-20q-34 -2 -49 -8zM344 913.5q13 -11.5 35 -34.5q50 -54 99 -95l-7 -12q-48 18 -85.5 28t-44.5 12
q-23 5 -43 11.5t-35 14.5q-16 9 -25 22.5t-9 28.5q0 13 6 23q7 14 20.5 22t29.5 8q17 0 31 -8q15 -9 28 -20.5z" />
    <glyph glyph-name="uni040E" unicode="&#x40e;" horiz-adv-x="660" 
d="M675 708v-20q-22 -8 -44.5 -35t-50.5 -80l-197 -396l-47 -95q-22 -45 -44 -67q-29 -29 -84 -29q-51 0 -81 23t-30 60q0 35 25.5 57t63.5 22q39 0 62.5 -17t23.5 -47q0 -27 -18.5 -46t-48.5 -29q6 -3 20 -3q28 0 49.5 19.5t40.5 58.5l23 48l-282 495q-33 56 -66 61v20
q40 -3 133 -3q107 0 159 3v-20q-51 -2 -51 -39q0 -18 11 -41l177 -314l101 205q38 75 38 121q0 35 -21.5 50.5t-62.5 17.5v20q68 -3 124 -3q47 0 77 3zM553.5 926.5q22.5 -18.5 22.5 -47.5q0 -44 -60 -74q-31 -16 -76 -25.5t-100 -9.5t-100 9.5t-76 25.5q-59 30 -59 74
q0 29 22 47.5t57 18.5t58 -18.5t23 -48.5q0 -25 -17.5 -42t-44.5 -23q27 -12 64.5 -17.5t72.5 -5.5t72.5 6t63.5 18q-27 7 -43.5 23.5t-16.5 40.5q0 30 23 48.5t58 18.5q34 0 56.5 -18.5z" />
    <glyph glyph-name="uni040F" unicode="&#x40f;" horiz-adv-x="800" 
d="M718 680q-15 -6 -20.5 -23t-5.5 -55v-496q0 -38 5.5 -55t20.5 -23t49 -8v-20q-51 3 -158 3h-46q-64 -3 -102.5 -45t-47.5 -133h-23q-9 91 -47 132.5t-102 45.5h-49q-107 0 -158 -3v20q33 2 48.5 8t21 23t5.5 55v496q0 38 -5.5 55t-21 23t-48.5 8v20q51 -3 158 -3
q97 0 151 3v-20q-34 -2 -49 -8t-20.5 -23t-5.5 -55v-496q0 -38 6 -55.5t23 -24t52 -6.5h103q35 0 52 6.5t23 24t6 55.5v496q0 38 -5.5 55t-21 23t-48.5 8v20q53 -3 151 -3q107 0 158 3v-20q-34 -2 -49 -8z" />
    <glyph glyph-name="uni0410" unicode="&#x410;" horiz-adv-x="667" 
d="M641 36q17 -15 33 -16v-20q-60 3 -152 3q-102 0 -152 -3v20q38 2 54 9.5t16 26.5q0 18 -12 48l-60 164h-218l-26 -69q-28 -72 -28 -111q0 -37 22.5 -51.5t66.5 -16.5v-20q-68 3 -124 3q-46 0 -76 -3v20q49 9 86 105l228 585q11 -1 35 -1t34 1l243 -626q13 -33 30 -48z
M361 288l-99 270l-104 -270h203z" />
    <glyph glyph-name="uni0411" unicode="&#x411;" horiz-adv-x="648" 
d="M547.5 362q69.5 -60 69.5 -152q0 -93 -70 -151t-215 -58q-28 0 -47 1l-105 1q-95 0 -146 -3v20q33 2 48.5 8t21 23t5.5 55v496q0 38 -5.5 55t-21 23t-48.5 8v20q108 -3 326 -3q138 0 197 3q-7 -83 -7 -148q0 -44 3 -68h-23q-20 107 -59 150t-105 43h-29q-31 0 -45 -5
t-19 -19.5t-5 -46.5v-193q22 1 59 1q151 0 220.5 -60zM423 66.5q28 46.5 28 139.5q0 96 -31.5 146t-112.5 50h-39v-296q0 -36 4.5 -53.5t16.5 -25t36 -7.5q70 0 98 46.5z" />
    <glyph glyph-name="uni0412" unicode="&#x412;" horiz-adv-x="672" 
d="M581 312q61 -50 61 -118q0 -93 -73 -143.5t-203 -50.5q-29 0 -49 1q-66 2 -129 2q-103 0 -154 -3v20q33 2 48.5 8t21 23t5.5 55v496q0 38 -5.5 55t-21 23t-48.5 8v20q51 -3 152 -3l111 1q20 1 46 1q120 0 183.5 -43t63.5 -114q0 -58 -50.5 -108t-149.5 -68v-2
q130 -10 191 -60zM290.5 681q-12.5 -7 -17.5 -25t-5 -54v-226h43q65 0 91 44.5t26 118.5q0 75 -23.5 112t-74.5 37q-27 0 -39.5 -7zM476 198q0 79 -40 120t-126 41h-42v-253q0 -36 5 -53t19.5 -23.5t44.5 -6.5q139 0 139 175z" />
    <glyph glyph-name="uni0413" unicode="&#x413;" horiz-adv-x="572" 
d="M546 556q0 -47 3 -76h-23q-20 113 -60 159t-112 46h-17q-31 0 -45 -5t-19 -19.5t-5 -46.5v-508q0 -38 6.5 -55t24.5 -23t58 -8v-20q-58 3 -165 3t-158 -3v20q33 2 48.5 8t21 23t5.5 55v496q0 38 -5.5 55t-21 23t-48.5 8v20q108 -3 326 -3q135 0 193 3q-7 -85 -7 -152z
" />
    <glyph glyph-name="uni0414" unicode="&#x414;" horiz-adv-x="652" 
d="M631 -110q0 -41 3 -65h-23q-15 96 -56 135.5t-114 39.5h-242q-73 0 -114 -39.5t-56 -135.5h-23q3 24 3 65q0 57 -7 130h18q69 0 106.5 79t52 190t25.5 288l2 25q2 36 -3.5 53.5t-22.5 24t-55 8.5v20q42 -3 103 -3q15 0 45 2l43 1l67 -1q46 -2 76 -2q103 0 155 3v-20
q-36 -2 -52.5 -8t-22.5 -23t-6 -55v-496q0 -38 5.5 -55.5t21 -24t48.5 -6.5h30q-7 -73 -7 -130zM374 602q0 36 -6.5 54.5t-21 25t-41.5 6.5h-13q-23 0 -35 -7t-18.5 -25t-9.5 -54l-8 -98q-9 -130 -20 -216.5t-38 -161.5t-76 -106h206q35 0 52 6.5t23 24t6 55.5v496z" />
    <glyph glyph-name="uni0415" unicode="&#x415;" horiz-adv-x="634" 
d="M589 0q-68 3 -229 3q-218 0 -326 -3v20q33 2 48.5 8t21 23t5.5 55v496q0 38 -5.5 55t-21 23t-48.5 8v20q108 -3 326 -3q147 0 209 3q-7 -83 -7 -148q0 -44 3 -68h-23q-15 107 -54 150t-110 43h-41q-31 0 -45 -5t-19 -19.5t-5 -46.5v-248h32q53 0 80.5 39t38.5 93h23
q-3 -42 -3 -94v-48q0 -51 6 -142h-23q-21 132 -122 132h-32v-252q0 -32 5 -46.5t19 -19.5t45 -5h49q71 0 114.5 48.5t61.5 164.5h23q-3 -33 -3 -84q0 -92 7 -152z" />
    <glyph glyph-name="uni0416" unicode="&#x416;" horiz-adv-x="1029" 
d="M1038 44q-27 -30 -58 -44t-75 -14q-58 0 -91 24t-44 84l-27 153q-8 42 -21.5 66t-40 36t-73.5 12h-14v-255q0 -38 5.5 -55t20.5 -23t49 -8v-20q-51 3 -158 3q-97 0 -151 -3v20q33 2 48.5 8t21 23t5.5 55v255h-14q-47 0 -73.5 -12t-40 -36t-21.5 -66l-27 -153
q-11 -60 -44 -84t-91 -24q-44 0 -75 14t-58 44l14 12q10 -11 18.5 -16.5t20.5 -6.5q19 0 29.5 15.5t18.5 56.5l29 134q16 70 70 100.5t151 36.5l-181 217q-66 77 -146 96v19q36 -3 95 -3q74 0 147 3v-19q-35 -2 -54 -15.5t-19 -38.5q0 -38 46 -93l59 -71q42 -49 74 -70.5
t72 -22.5v224q0 38 -5.5 55t-20.5 23t-49 8v20q54 -3 151 -3q107 0 158 3v-20q-33 -2 -48.5 -8t-21 -23t-5.5 -55v-224q40 1 72 22.5t74 70.5l59 71q46 55 46 93q0 24 -19.5 38t-53.5 16v19q72 -3 147 -3q58 0 95 3v-19q-79 -18 -146 -96l-182 -217q98 -6 152 -36.5
t70 -100.5l29 -134q8 -41 18.5 -56.5t29.5 -15.5q11 1 19.5 6t19.5 17z" />
    </font>
</defs>
</svg>
